osu file format v14

[General]
AudioFilename: audio.ogg
AudioLeadIn: 0
PreviewTime: 10843
Countdown: 0
SampleSet: Normal
StackLeniency: 0.7
Mode: 3
LetterboxInBreaks: 0
SpecialStyle: 0
WidescreenStoryboard: 0

[Editor]
Bookmarks: 15854
DistanceSpacing: 1.2
BeatDivisor: 4
GridSize: 32
TimelineZoom: 2.3

[Metadata]
Title:Cirno Car
TitleUnicode:Cirno Car
Artist:Zutlo
ArtistUnicode:Zutlo
Creator:cirnoulja boy
Version:Strongest Drip
Source:東方紅魔郷 ~ the Embodiment of Scarlet Devil.
Tags:konomi k0nomi -kori 404ma1c0n maicon carlosmanuel1 electronic instrumental trap whatsapp car drip meme 東方project touhou toho zun team shanghai alice th06 th 06 stage 2 boss cirno's theme チルノ beloved tomboyish girl おてんば恋娘 otenba koi musume koimusume
BeatmapID:4372182
BeatmapSetID:2086616

[Difficulty]
HPDrainRate:9
CircleSize:10
OverallDifficulty:8.5
ApproachRate:5
SliderMultiplier:1.4
SliderTickRate:1

[Events]
//Background and Video events
0,0,"cirnu.jpg",0,0
//Break Periods
//Storyboard Layer 0 (Background)
//Storyboard Layer 1 (Fail)
//Storyboard Layer 2 (Pass)
//Storyboard Layer 3 (Foreground)
//Storyboard Layer 4 (Overlay)
//Storyboard Sound Samples

[TimingPoints]
-257,396.458305801507,4,1,1,35,1,0
-257,-104.331034482742,4,1,1,35,0,0
10843,413.793103448276,4,1,1,35,1,0
32360,-249.9999963,4,1,1,35,0,0
32492,-191.2643578,4,1,1,35,0,0
32605,-111.4683785,4,1,1,35,0,0
32699,-65.66692857,4,1,1,35,0,0
32774,-249.9999963,4,1,1,35,0,0
32906,-191.2643578,4,1,1,35,0,0
33019,-111.4683785,4,1,1,35,0,0
33113,-65.66692857,4,1,1,35,0,0
33187,-249.9999963,4,1,1,35,0,0
33319,-191.2643578,4,1,1,35,0,0
33432,-111.4683785,4,1,1,35,0,0
33526,-65.66692857,4,1,1,35,0,0
33601,-249.9999963,4,1,1,35,0,0
33733,-191.2643578,4,1,1,35,0,0
33856,-111.4683785,4,1,1,35,0,0
33950,-65.66692857,4,1,1,35,0,0
34015,-100,4,1,1,35,0,0

[HitObjects]
128,192,1328,5,0,0:0:0:0:
281,192,1328,1,0,0:0:0:0:
486,192,1527,1,0,0:0:0:0:
25,192,1527,1,0,0:0:0:0:
384,192,1626,1,0,0:0:0:0:
281,192,1725,1,0,0:0:0:0:
128,192,1725,1,0,0:0:0:0:
486,192,1824,1,0,0:0:0:0:
230,192,1923,1,0,0:0:0:0:
435,192,1923,1,0,0:0:0:0:
332,192,2022,1,0,0:0:0:0:
384,192,2121,1,0,0:0:0:0:
486,192,2220,1,0,0:0:0:0:
384,192,2319,1,0,0:0:0:0:
281,192,2419,1,0,0:0:0:0:
332,192,2518,1,0,0:0:0:0:
281,192,2617,1,0,0:0:0:0:
435,192,2716,1,0,0:0:0:0:
486,192,2815,1,0,0:0:0:0:
179,192,2914,1,0,0:0:0:0:
384,192,2914,1,0,0:0:0:0:
25,192,3013,1,0,0:0:0:0:
76,192,3112,1,0,0:0:0:0:
281,192,3112,1,0,0:0:0:0:
128,192,3212,1,0,0:0:0:0:
230,192,3311,1,0,0:0:0:0:
384,192,3311,1,0,0:0:0:0:
76,192,3410,1,0,0:0:0:0:
179,192,3509,1,0,0:0:0:0:
486,192,3509,1,0,0:0:0:0:
25,192,3608,1,0,0:0:0:0:
230,192,3707,1,0,0:0:0:0:
76,192,3806,1,0,0:0:0:0:
128,192,3905,1,0,0:0:0:0:
486,192,3905,1,0,0:0:0:0:
179,192,4004,1,0,0:0:0:0:
384,192,4104,1,0,0:0:0:0:
76,192,4104,1,0,0:0:0:0:
179,192,4203,1,0,0:0:0:0:
281,192,4302,1,0,0:0:0:0:
25,192,4302,1,0,0:0:0:0:
179,192,4401,1,0,0:0:0:0:
281,192,4500,1,0,0:0:0:0:
128,192,4500,1,0,0:0:0:0:
230,192,4500,1,0,0:0:0:0:
486,192,4599,1,0,0:0:0:0:
384,192,4698,1,0,0:0:0:0:
76,192,4698,1,0,0:0:0:0:
179,192,4698,1,0,0:0:0:0:
435,192,4797,1,0,0:0:0:0:
281,192,4896,1,0,0:0:0:0:
25,192,4896,1,0,0:0:0:0:
128,192,4896,1,0,0:0:0:0:
486,192,4996,1,0,0:0:0:0:
435,192,5095,1,0,0:0:0:0:
76,192,5095,1,0,0:0:0:0:
179,192,5095,1,0,0:0:0:0:
332,192,5194,1,0,0:0:0:0:
486,192,5293,1,0,0:0:0:0:
435,192,5392,1,0,0:0:0:0:
384,192,5491,1,0,0:0:0:0:
486,192,5590,1,0,0:0:0:0:
332,192,5689,1,0,0:0:0:0:
281,192,5788,1,0,0:0:0:0:
435,192,5888,1,0,0:0:0:0:
486,192,5987,1,0,0:0:0:0:
179,192,6086,1,0,0:0:0:0:
435,192,6086,1,0,0:0:0:0:
332,192,6086,1,0,0:0:0:0:
25,192,6185,1,0,0:0:0:0:
76,192,6284,1,0,0:0:0:0:
281,192,6284,1,0,0:0:0:0:
384,192,6284,1,0,0:0:0:0:
128,192,6383,1,0,0:0:0:0:
230,192,6482,1,0,0:0:0:0:
332,192,6482,1,0,0:0:0:0:
435,192,6482,1,0,0:0:0:0:
76,192,6581,1,0,0:0:0:0:
179,192,6681,1,0,0:0:0:0:
384,192,6681,1,0,0:0:0:0:
486,192,6681,1,0,0:0:0:0:
25,192,6780,1,0,0:0:0:0:
179,192,6879,1,0,0:0:0:0:
128,192,6978,1,0,0:0:0:0:
76,192,7077,1,0,0:0:0:0:
25,192,7176,1,0,0:0:0:0:
332,192,7275,1,0,0:0:0:0:
76,192,7275,1,0,0:0:0:0:
384,192,7325,1,0,0:0:0:0:
128,192,7325,1,0,0:0:0:0:
435,192,7374,1,0,0:0:0:0:
179,192,7374,1,0,0:0:0:0:
486,192,7424,1,0,0:0:0:0:
230,192,7424,1,0,0:0:0:0:
281,192,7473,1,0,0:0:0:0:
25,192,7473,1,0,0:0:0:0:
332,192,7523,1,0,0:0:0:0:
76,192,7523,1,0,0:0:0:0:
384,192,7573,1,0,0:0:0:0:
128,192,7573,1,0,0:0:0:0:
435,192,7622,1,0,0:0:0:0:
179,192,7622,1,0,0:0:0:0:
25,192,7672,1,0,0:0:0:0:
486,192,7672,1,0,0:0:0:0:
281,192,7672,1,0,0:0:0:0:
230,192,7672,1,0,0:0:0:0:
128,192,7870,1,0,0:0:0:0:
435,192,7870,1,0,0:0:0:0:
76,192,8068,1,0,0:0:0:0:
332,192,8068,1,0,0:0:0:0:
25,192,8266,1,0,0:0:0:0:
230,192,8266,1,0,0:0:0:0:
435,192,8266,1,0,0:0:0:0:
486,192,8266,1,0,0:0:0:0:
281,192,8266,1,0,0:0:0:0:
128,192,8266,1,0,0:0:0:0:
281,192,8663,1,0,0:0:0:0:
76,192,8663,1,0,0:0:0:0:
128,192,8762,1,0,0:0:0:0:
332,192,8762,1,0,0:0:0:0:
179,192,8861,1,0,0:0:0:0:
384,192,8861,1,0,0:0:0:0:
486,192,9257,1,0,0:0:0:0:
25,192,9257,128,0,10843:0:0:0:0:
281,192,10744,1,0,0:0:0:0:
332,192,10769,1,0,0:0:0:0:
384,192,10794,1,0,0:0:0:0:
435,192,10819,1,0,0:0:0:0:
486,192,10843,1,0,0:0:0:0:
281,192,10843,1,0,0:0:0:0:
230,192,10843,1,0,0:0:0:0:
179,192,10877,1,0,0:0:0:0:
128,192,10911,1,0,0:0:0:0:
76,192,10946,1,0,0:0:0:0:
25,192,10980,1,0,0:0:0:0:
230,192,11049,1,0,0:0:0:0:
435,192,11049,1,0,0:0:0:0:
384,192,11153,1,0,0:0:0:0:
332,192,11256,1,0,0:0:0:0:
230,192,11256,1,0,0:0:0:0:
76,192,11360,1,0,0:0:0:0:
332,192,11463,1,0,0:0:0:0:
486,192,11463,1,0,0:0:0:0:
230,192,11463,1,0,0:0:0:0:
281,192,11670,1,0,0:0:0:0:
435,192,11670,1,0,0:0:0:0:
25,192,11670,1,0,0:0:0:0:
76,192,11670,1,0,0:0:0:0:
179,192,11877,1,0,0:0:0:0:
332,192,11877,1,0,0:0:0:0:
230,192,12084,1,0,0:0:0:0:
486,192,12084,1,0,0:0:0:0:
281,192,12084,1,0,0:0:0:0:
76,192,12084,1,0,0:0:0:0:
435,192,12084,1,0,0:0:0:0:
179,192,12291,1,0,0:0:0:0:
332,192,12291,1,0,0:0:0:0:
486,192,12360,1,0,0:0:0:0:
435,192,12429,1,0,0:0:0:0:
25,192,12498,1,0,0:0:0:0:
384,192,12498,1,0,0:0:0:0:
332,192,12705,1,0,0:0:0:0:
128,192,12705,1,0,0:0:0:0:
25,192,12911,1,0,0:0:0:0:
76,192,12911,1,0,0:0:0:0:
230,192,12911,1,0,0:0:0:0:
281,192,12911,1,0,0:0:0:0:
384,192,13118,1,0,0:0:0:0:
128,192,13118,1,0,0:0:0:0:
281,192,13325,1,0,0:0:0:0:
486,192,13325,1,0,0:0:0:0:
230,192,13325,1,0,0:0:0:0:
25,192,13325,1,0,0:0:0:0:
332,192,13532,1,0,0:0:0:0:
281,192,13532,1,0,0:0:0:0:
76,192,13532,1,0,0:0:0:0:
384,192,13739,1,0,0:0:0:0:
332,192,13739,1,0,0:0:0:0:
179,192,13739,1,0,0:0:0:0:
76,192,13946,1,0,0:0:0:0:
384,192,13946,1,0,0:0:0:0:
435,192,13946,1,0,0:0:0:0:
128,192,14153,1,0,0:0:0:0:
230,192,14153,1,0,0:0:0:0:
435,192,14153,1,0,0:0:0:0:
486,192,14153,1,0,0:0:0:0:
25,192,14153,1,0,0:0:0:0:
384,192,14360,1,0,0:0:0:0:
179,192,14360,1,0,0:0:0:0:
332,192,14463,1,0,0:0:0:0:
281,192,14567,1,0,0:0:0:0:
76,192,14567,1,0,0:0:0:0:
384,192,14774,1,0,0:0:0:0:
25,192,14774,1,0,0:0:0:0:
128,192,14774,1,0,0:0:0:0:
332,192,14980,1,0,0:0:0:0:
435,192,14980,1,0,0:0:0:0:
76,192,14980,1,0,0:0:0:0:
179,192,14980,1,0,0:0:0:0:
384,192,15187,1,0,0:0:0:0:
25,192,15187,1,0,0:0:0:0:
128,192,15187,1,0,0:0:0:0:
332,192,15394,1,0,0:0:0:0:
435,192,15394,1,0,0:0:0:0:
76,192,15394,1,0,0:0:0:0:
230,192,15394,1,0,0:0:0:0:
486,192,15394,1,0,0:0:0:0:
384,192,15601,1,0,0:0:0:0:
25,192,15601,1,0,0:0:0:0:
179,192,15601,1,0,0:0:0:0:
230,192,15808,1,0,0:0:0:0:
486,192,15808,1,0,0:0:0:0:
128,192,15808,1,0,0:0:0:0:
230,192,16015,1,0,0:0:0:0:
128,192,16118,1,0,0:0:0:0:
384,192,16222,1,0,0:0:0:0:
435,192,16222,1,0,0:0:0:0:
486,192,16222,1,0,0:0:0:0:
25,192,16222,1,0,0:0:0:0:
230,192,16222,1,0,0:0:0:0:
179,192,16429,1,0,0:0:0:0:
25,192,16636,1,0,0:0:0:0:
179,192,16636,1,0,0:0:0:0:
281,192,16636,1,0,0:0:0:0:
486,192,16636,1,0,0:0:0:0:
128,192,16843,1,0,0:0:0:0:
332,192,16843,1,0,0:0:0:0:
486,192,16946,1,0,0:0:0:0:
25,192,17049,1,0,0:0:0:0:
230,192,17049,1,0,0:0:0:0:
281,192,17049,1,0,0:0:0:0:
384,192,17187,1,0,0:0:0:0:
76,192,17256,1,0,0:0:0:0:
332,192,17325,1,0,0:0:0:0:
179,192,17360,1,0,0:0:0:0:
25,192,17463,1,0,0:0:0:0:
76,192,17463,1,0,0:0:0:0:
230,192,17463,1,0,0:0:0:0:
281,192,17463,1,0,0:0:0:0:
486,192,17463,1,0,0:0:0:0:
384,192,17670,1,0,0:0:0:0:
25,192,17877,1,0,0:0:0:0:
384,192,17877,1,0,0:0:0:0:
230,192,17980,1,0,0:0:0:0:
384,192,18084,1,0,0:0:0:0:
76,192,18084,1,0,0:0:0:0:
179,192,18084,1,0,0:0:0:0:
281,192,18291,1,0,0:0:0:0:
25,192,18291,1,0,0:0:0:0:
128,192,18291,1,0,0:0:0:0:
486,192,18291,1,0,0:0:0:0:
76,192,18498,1,0,0:0:0:0:
179,192,18498,1,0,0:0:0:0:
384,192,18498,1,0,0:0:0:0:
435,192,18705,1,0,0:0:0:0:
486,192,18705,1,0,0:0:0:0:
25,192,18705,1,0,0:0:0:0:
230,192,18705,1,0,0:0:0:0:
128,192,18705,1,0,0:0:0:0:
435,192,18911,1,0,0:0:0:0:
486,192,18911,1,0,0:0:0:0:
128,192,18911,1,0,0:0:0:0:
179,192,18980,1,0,0:0:0:0:
230,192,19049,1,0,0:0:0:0:
332,192,19118,128,0,19325:0:0:0:0:
486,192,19118,128,0,19325:0:0:0:0:
128,192,19118,1,0,0:0:0:0:
435,192,19325,128,0,19532:0:0:0:0:
281,192,19325,128,0,19532:0:0:0:0:
25,192,19325,1,0,0:0:0:0:
76,192,19325,1,0,0:0:0:0:
384,192,19532,128,0,19739:0:0:0:0:
230,192,19532,128,0,19739:0:0:0:0:
25,192,19532,1,0,0:0:0:0:
76,192,19532,1,0,0:0:0:0:
25,192,19739,128,0,19946:0:0:0:0:
179,192,19739,128,0,19946:0:0:0:0:
76,192,19946,128,0,20153:0:0:0:0:
230,192,19946,128,0,20153:0:0:0:0:
384,192,19946,1,0,0:0:0:0:
486,192,19946,1,0,0:0:0:0:
128,192,20153,128,0,20360:0:0:0:0:
281,192,20153,128,0,20360:0:0:0:0:
486,192,20360,1,0,0:0:0:0:
25,192,20360,1,0,0:0:0:0:
230,192,20386,1,0,0:0:0:0:
384,192,20567,1,0,0:0:0:0:
76,192,20567,1,0,0:0:0:0:
25,192,20774,128,0,20980:0:0:0:0:
179,192,20774,128,0,20980:0:0:0:0:
486,192,20774,1,0,0:0:0:0:
435,192,20774,1,0,0:0:0:0:
76,192,20980,128,0,21187:0:0:0:0:
230,192,20980,128,0,21187:0:0:0:0:
128,192,21187,128,0,21394:0:0:0:0:
281,192,21187,128,0,21394:0:0:0:0:
486,192,21394,128,0,21601:0:0:0:0:
332,192,21394,128,0,21601:0:0:0:0:
384,192,21601,128,0,21808:0:0:0:0:
230,192,21601,128,0,21808:0:0:0:0:
25,192,21601,1,0,0:0:0:0:
128,192,21601,1,0,0:0:0:0:
332,192,21808,128,0,22015:0:0:0:0:
179,192,21808,128,0,22015:0:0:0:0:
128,192,22015,128,0,22222:0:0:0:0:
281,192,22015,128,0,22222:0:0:0:0:
435,192,22015,1,0,0:0:0:0:
486,192,22015,1,0,0:0:0:0:
25,192,22222,1,0,0:0:0:0:
486,192,22222,1,0,0:0:0:0:
25,192,22429,1,0,0:0:0:0:
486,192,22429,1,0,0:0:0:0:
179,192,22429,1,0,0:0:0:0:
332,192,22429,1,0,0:0:0:0:
179,192,22636,1,0,0:0:0:0:
281,192,22636,1,0,0:0:0:0:
435,192,22739,1,0,0:0:0:0:
76,192,22843,1,0,0:0:0:0:
281,192,22843,1,0,0:0:0:0:
25,192,22843,1,0,0:0:0:0:
179,192,23049,1,0,0:0:0:0:
332,192,23049,1,0,0:0:0:0:
179,192,23256,1,0,0:0:0:0:
281,192,23256,1,0,0:0:0:0:
332,192,23256,1,0,0:0:0:0:
25,192,23256,1,0,0:0:0:0:
486,192,23256,1,0,0:0:0:0:
25,192,23463,1,0,0:0:0:0:
179,192,23463,1,0,0:0:0:0:
332,192,23463,1,0,0:0:0:0:
76,192,23670,1,0,0:0:0:0:
230,192,23670,1,0,0:0:0:0:
384,192,23670,1,0,0:0:0:0:
128,192,23877,1,0,0:0:0:0:
281,192,23877,1,0,0:0:0:0:
435,192,23877,1,0,0:0:0:0:
25,192,24084,1,0,0:0:0:0:
486,192,24084,1,0,0:0:0:0:
332,192,24084,1,0,0:0:0:0:
76,192,24118,1,0,0:0:0:0:
128,192,24153,1,0,0:0:0:0:
179,192,24187,1,0,0:0:0:0:
230,192,24222,1,0,0:0:0:0:
179,192,24291,1,0,0:0:0:0:
281,192,24291,1,0,0:0:0:0:
486,192,24394,1,0,0:0:0:0:
179,192,24498,1,0,0:0:0:0:
281,192,24498,1,0,0:0:0:0:
384,192,24498,1,0,0:0:0:0:
486,192,24601,1,0,0:0:0:0:
384,192,24705,1,0,0:0:0:0:
435,192,24705,1,0,0:0:0:0:
179,192,24705,1,0,0:0:0:0:
332,192,24911,1,0,0:0:0:0:
384,192,24911,1,0,0:0:0:0:
25,192,24911,1,0,0:0:0:0:
179,192,24911,1,0,0:0:0:0:
384,192,25118,1,0,0:0:0:0:
435,192,25118,1,0,0:0:0:0:
128,192,25118,1,0,0:0:0:0:
332,192,25325,1,0,0:0:0:0:
384,192,25325,1,0,0:0:0:0:
230,192,25325,1,0,0:0:0:0:
25,192,25325,1,0,0:0:0:0:
76,192,25325,1,0,0:0:0:0:
281,192,25532,1,0,0:0:0:0:
128,192,25532,1,0,0:0:0:0:
332,192,25601,1,0,0:0:0:0:
384,192,25670,1,0,0:0:0:0:
435,192,25739,1,0,0:0:0:0:
25,192,25739,1,0,0:0:0:0:
384,192,25946,1,0,0:0:0:0:
281,192,26153,1,0,0:0:0:0:
486,192,26153,1,0,0:0:0:0:
76,192,26153,1,0,0:0:0:0:
230,192,26153,1,0,0:0:0:0:
435,192,26360,1,0,0:0:0:0:
25,192,26360,1,0,0:0:0:0:
128,192,26360,1,0,0:0:0:0:
281,192,26567,128,0,27049:0:0:0:0:
332,192,26636,128,0,27118:0:0:0:0:
384,192,26705,128,0,27187:0:0:0:0:
435,192,26774,128,0,27256:0:0:0:0:
230,192,26843,128,0,27394:0:0:0:0:
179,192,26911,128,0,27394:0:0:0:0:
128,192,26980,128,0,27394:0:0:0:0:
76,192,27049,128,0,27394:0:0:0:0:
281,192,27118,128,0,27394:0:0:0:0:
332,192,27187,128,0,27394:0:0:0:0:
384,192,27256,128,0,27394:0:0:0:0:
435,192,27325,128,0,27394:0:0:0:0:
25,192,27394,1,0,0:0:0:0:
486,192,27394,1,0,0:0:0:0:
332,192,27601,1,0,0:0:0:0:
25,192,27601,1,0,0:0:0:0:
384,192,27705,1,0,0:0:0:0:
435,192,27808,1,0,0:0:0:0:
179,192,27808,1,0,0:0:0:0:
332,192,28015,1,0,0:0:0:0:
128,192,28015,1,0,0:0:0:0:
230,192,28015,1,0,0:0:0:0:
486,192,28222,1,0,0:0:0:0:
76,192,28222,1,0,0:0:0:0:
179,192,28222,1,0,0:0:0:0:
384,192,28222,1,0,0:0:0:0:
25,192,28429,1,0,0:0:0:0:
128,192,28429,1,0,0:0:0:0:
230,192,28429,1,0,0:0:0:0:
486,192,28636,1,0,0:0:0:0:
76,192,28636,1,0,0:0:0:0:
179,192,28636,1,0,0:0:0:0:
435,192,28636,1,0,0:0:0:0:
281,192,28636,1,0,0:0:0:0:
332,192,28843,1,0,0:0:0:0:
25,192,28843,1,0,0:0:0:0:
128,192,28843,1,0,0:0:0:0:
281,192,29049,1,0,0:0:0:0:
76,192,29049,1,0,0:0:0:0:
230,192,29049,1,0,0:0:0:0:
435,192,29049,1,0,0:0:0:0:
128,192,29256,1,0,0:0:0:0:
76,192,29360,1,0,0:0:0:0:
25,192,29463,1,0,0:0:0:0:
230,192,29463,1,0,0:0:0:0:
332,192,29463,1,0,0:0:0:0:
435,192,29463,1,0,0:0:0:0:
384,192,29670,1,0,0:0:0:0:
128,192,29670,1,0,0:0:0:0:
76,192,29877,1,0,0:0:0:0:
486,192,29877,128,0,30084:0:0:0:0:
281,192,29877,128,0,30084:0:0:0:0:
25,192,30084,1,0,0:0:0:0:
486,192,30187,128,0,30394:0:0:0:0:
76,192,30187,1,0,0:0:0:0:
281,192,30187,128,0,30394:0:0:0:0:
128,192,30291,1,0,0:0:0:0:
230,192,30291,1,0,0:0:0:0:
486,192,30498,128,0,30705:0:0:0:0:
25,192,30498,1,0,0:0:0:0:
281,192,30498,128,0,30705:0:0:0:0:
25,192,30705,1,0,0:0:0:0:
230,192,30705,1,0,0:0:0:0:
332,192,30705,1,0,0:0:0:0:
435,192,30705,1,0,0:0:0:0:
435,192,30911,1,0,0:0:0:0:
179,192,30911,1,0,0:0:0:0:
332,192,31015,1,0,0:0:0:0:
486,192,31118,1,0,0:0:0:0:
25,192,31118,1,0,0:0:0:0:
384,192,31222,1,0,0:0:0:0:
179,192,31325,1,0,0:0:0:0:
435,192,31325,1,0,0:0:0:0:
332,192,31325,1,0,0:0:0:0:
281,192,31532,1,0,0:0:0:0:
384,192,31532,1,0,0:0:0:0:
25,192,31532,1,0,0:0:0:0:
230,192,31532,1,0,0:0:0:0:
332,192,31739,1,0,0:0:0:0:
435,192,31739,1,0,0:0:0:0:
128,192,31739,1,0,0:0:0:0:
230,192,31946,1,0,0:0:0:0:
384,192,31946,1,0,0:0:0:0:
486,192,31946,1,0,0:0:0:0:
179,192,31946,1,0,0:0:0:0:
25,192,31946,1,0,0:0:0:0:
230,192,32153,1,0,0:0:0:0:
179,192,32153,1,0,0:0:0:0:
435,192,32153,1,0,0:0:0:0:
384,192,32222,1,0,0:0:0:0:
332,192,32291,1,0,0:0:0:0:
25,192,32360,1,0,0:0:0:0:
128,192,32360,1,0,0:0:0:0:
486,192,32360,1,0,0:0:0:0:
435,192,32360,1,0,0:0:0:0:
281,192,32360,1,0,0:0:0:0:
76,192,32774,1,0,0:0:0:0:
179,192,32774,1,0,0:0:0:0:
281,192,32774,1,0,0:0:0:0:
384,192,32774,1,0,0:0:0:0:
435,192,32774,1,0,0:0:0:0:
25,192,33187,1,0,0:0:0:0:
128,192,33187,1,0,0:0:0:0:
230,192,33187,1,0,0:0:0:0:
435,192,33187,1,0,0:0:0:0:
486,192,33187,1,0,0:0:0:0:
25,192,33601,1,0,0:0:0:0:
76,192,33601,1,0,0:0:0:0:
179,192,33601,1,0,0:0:0:0:
281,192,33601,1,0,0:0:0:0:
332,192,33601,1,0,0:0:0:0:
486,192,33601,1,0,0:0:0:0:
25,192,34015,128,0,34222:0:0:0:0:
179,192,34015,128,0,34222:0:0:0:0:
486,192,34015,1,0,0:0:0:0:
435,192,34015,1,0,0:0:0:0:
76,192,34222,128,0,34429:0:0:0:0:
230,192,34222,128,0,34429:0:0:0:0:
128,192,34429,128,0,34636:0:0:0:0:
281,192,34429,128,0,34636:0:0:0:0:
486,192,34636,128,0,34843:0:0:0:0:
332,192,34636,128,0,34843:0:0:0:0:
384,192,34843,128,0,35049:0:0:0:0:
230,192,34843,128,0,35049:0:0:0:0:
25,192,34843,1,0,0:0:0:0:
128,192,34843,1,0,0:0:0:0:
332,192,35049,128,0,35256:0:0:0:0:
179,192,35049,128,0,35256:0:0:0:0:
128,192,35256,128,0,35463:0:0:0:0:
281,192,35256,128,0,35463:0:0:0:0:
435,192,35256,1,0,0:0:0:0:
486,192,35256,1,0,0:0:0:0:
25,192,35463,1,0,0:0:0:0:
486,192,35463,1,0,0:0:0:0:
25,192,35670,1,0,0:0:0:0:
486,192,35670,1,0,0:0:0:0:
179,192,35670,1,0,0:0:0:0:
332,192,35670,1,0,0:0:0:0:
179,192,35877,1,0,0:0:0:0:
281,192,35877,1,0,0:0:0:0:
435,192,35980,1,0,0:0:0:0:
281,192,36084,1,0,0:0:0:0:
435,192,36187,1,0,0:0:0:0:
179,192,36291,1,0,0:0:0:0:
332,192,36291,1,0,0:0:0:0:
179,192,36498,1,0,0:0:0:0:
332,192,36498,1,0,0:0:0:0:
25,192,36705,1,0,0:0:0:0:
179,192,36705,1,0,0:0:0:0:
332,192,36705,1,0,0:0:0:0:
76,192,36911,1,0,0:0:0:0:
230,192,36911,1,0,0:0:0:0:
384,192,36911,1,0,0:0:0:0:
128,192,37118,1,0,0:0:0:0:
281,192,37118,1,0,0:0:0:0:
435,192,37118,1,0,0:0:0:0:
