osu file format v14

[General]
AudioFilename: audio.mp3
AudioLeadIn: 0
PreviewTime: -1
Countdown: 1
SampleSet: Soft
StackLeniency: 0.7
Mode: 0
LetterboxInBreaks: 0
WidescreenStoryboard: 0

[Editor]
DistanceSpacing: 1.1
BeatDivisor: 2
GridSize: 32
TimelineZoom: 1.3

[Metadata]
Title:Year-Round Absorbed Curiosity
TitleUnicode:Year-Round Absorbed Curiosity
Artist:Zun
ArtistUnicode:Zun
Creator:TheBaconator212
Version:Insane
Source:
Tags:Touhou Cirno OST Japanese
BeatmapID:1698472
BeatmapSetID:809400

[Difficulty]
HPDrainRate:7
CircleSize:4.4
OverallDifficulty:7
ApproachRate:9
SliderMultiplier:1.4
SliderTickRate:1

[Events]
//Background and Video events
0,0,"yande.re 401335 sample cirno dress pudding_(artist) touhou wings.jpg",0,0
//Break Periods
//Storyboard Layer 0 (Background)
//Storyboard Layer 1 (Fail)
//Storyboard Layer 2 (Pass)
//Storyboard Layer 3 (Foreground)
//Storyboard Sound Samples

[TimingPoints]
305.096779293862,372.670807453416,4,2,0,100,1,0

[Colours]
Combo1 : 74,74,255
Combo2 : 94,174,255
Combo3 : 255,255,255
Combo4 : 255,255,255

[HitObjects]
42,82,309,5,0,0:0:0:0:
83,146,491,1,0,0:0:0:0:
145,87,677,1,0,0:0:0:0:
205,150,864,1,0,0:0:0:0:
160,258,1236,1,10,0:0:0:0:
286,266,1609,1,0,0:0:0:0:
426,321,1982,1,0,0:0:0:0:
473,199,2354,2,0,L|371:114,1,70
312,118,2913,1,2,0:0:0:0:
161,52,3286,5,0,0:0:0:0:
109,98,3472,1,0,0:0:0:0:
151,173,3659,1,0,0:0:0:0:
242,187,3845,1,0,0:0:0:0:
354,57,4218,1,2,0:0:0:0:
174,107,4590,1,0,0:0:0:0:
141,216,4963,1,4,0:0:0:0:
219,211,5149,1,4,0:0:0:0:
224,300,5336,1,4,0:0:0:0:
308,313,5522,1,0,0:0:0:0:
403,252,5708,2,8,P|332:243|326:242,2,70
378,163,6267,5,0,0:0:0:0:
299,213,6454,1,0,0:0:0:0:
167,206,6640,1,0,0:0:0:0:
81,87,6826,1,0,0:0:0:0:
220,105,7199,1,2,0:0:0:0:
217,244,7572,1,0,0:0:0:0:
324,51,7944,1,0,0:0:0:0:
353,152,8317,1,0,0:0:0:0:
356,301,8503,1,0,0:0:0:0:
225,224,8876,1,2,0:0:0:0:
253,48,9249,6,8,B|293:116|298:120|291:114|291:115|291:117|293:107|293:113|289:114|291:113|289:115|284:108|288:112|287:114|286:113|288:108|286:114|290:115,2,70
254,48,9808,1,0,0:0:0:0:
167,58,10180,1,0,0:0:0:0:
240,137,10553,1,2,0:0:0:0:
143,266,10926,1,0,0:0:0:0:
217,105,11112,1,0,0:0:0:0:
318,309,11298,1,0,0:0:0:0:
371,147,11485,2,8,L|404:117,4,35
241,58,12230,5,0,0:0:0:0:
52,111,12603,1,0,0:0:0:0:
235,154,12975,2,8,L|236:244,2,70
42,223,13721,2,8,L|44:300,2,70
176,238,14466,5,0,0:0:0:0:
228,173,14652,1,0,0:0:0:0:
273,301,14839,1,0,0:0:0:0:
351,112,15025,1,0,0:0:0:0:
387,349,15398,1,2,0:0:0:0:
369,280,15770,1,0,0:0:0:0:
339,203,15957,1,0,0:0:0:0:
272,125,16143,1,0,0:0:0:0:
191,69,16329,1,0,0:0:0:0:
80,37,16516,1,0,0:0:0:0:
58,197,16702,1,0,0:0:0:0:
128,122,16888,1,0,0:0:0:0:
169,270,17075,1,0,0:0:0:0:
282,42,17261,1,0,0:0:0:0:
341,338,17447,1,2,0:0:0:0:
343,205,17820,6,8,L|390:174,3,46.6666666666667
204,193,18565,1,0,0:0:0:0:
270,123,18938,1,0,0:0:0:0:
375,198,19124,1,0,0:0:0:0:
259,235,19311,1,2,0:0:0:0:
274,126,19683,1,0,0:0:0:0:
375,198,19870,1,0,0:0:0:0:
259,235,20056,1,2,0:0:0:0:
100,109,20429,1,0,0:0:0:0:
158,209,20615,1,0,0:0:0:0:
251,167,20801,2,0,L|318:115,1,70
348,208,21360,5,0,0:0:0:0:
396,263,21733,1,0,0:0:0:0:
322,301,21920,1,0,0:0:0:0:
236,211,22106,1,0,0:0:0:0:
331,93,22292,1,0,0:0:0:0:
435,252,22479,1,2,0:0:0:0:
236,331,22665,1,0,0:0:0:0:
220,93,22851,1,0,0:0:0:0:
328,134,23038,2,8,L|348:142,9,17.5
288,191,23597,5,0,0:0:0:0:
206,252,23783,1,0,0:0:0:0:
88,258,23969,1,0,0:0:0:0:
12,168,24156,1,0,0:0:0:0:
12,168,24528,1,2,0:0:0:0:
148,130,24901,2,0,L|231:118,1,70
153,207,25274,1,2,0:0:0:0:
258,284,25646,2,0,L|181:276,1,70
104,270,26019,1,2,0:0:0:0:
179,153,26392,2,8,L|237:198,2,70
179,153,26951,5,0,0:0:0:0:
313,135,27323,1,0,0:0:0:0:
447,34,27696,1,0,0:0:0:0:
420,128,27882,1,0,0:0:0:0:
349,225,28069,1,0,0:0:0:0:
195,262,28255,1,0,0:0:0:0:
41,175,28441,1,0,0:0:0:0:
119,74,28628,1,0,0:0:0:0:
160,207,28814,1,0,0:0:0:0:
243,32,29000,1,0,0:0:0:0:
273,275,29187,1,0,0:0:0:0:
192,288,29373,2,2,P|121:250|78:187,1,140,2|0,0:0|0:0,0:0:0:0:
110,117,29932,2,8,L|138:117,3,23.3333333333333
218,67,30491,5,0,0:0:0:0:
300,144,30864,1,0,0:0:0:0:
305,242,31050,2,2,P|221:241|200:201,1,70,0|2,0:0|0:0,0:0:0:0:
134,214,31609,1,0,0:0:0:0:
197,167,31795,2,2,P|283:166|306:190,1,70,0|2,0:0|0:0,0:0:0:0:
397,156,32354,2,8,L|401:227,2,70
400,225,32913,1,0,0:0:0:0:
398,155,33286,1,0,0:0:0:0:
248,81,33659,1,0,0:0:0:0:
174,160,33845,2,8,L|170:237,3,70
256,192,34590,12,2,35336,0:0:0:0:
101,52,35708,6,0,P|453:53|470:46,1,350
446,141,37013,1,0,0:0:0:0:
347,201,37385,1,0,0:0:0:0:
258,248,37758,1,0,0:0:0:0:
166,249,38131,2,0,P|165:157|164:149,1,70
214,107,38690,1,2,0:0:0:0:
141,273,39062,6,0,P|352:273|377:290,1,210
380,179,39994,1,0,0:0:0:0:
382,276,40367,1,0,0:0:0:0:
326,195,40739,1,0,0:0:0:0:
251,132,40926,1,0,0:0:0:0:
130,83,41112,1,0,0:0:0:0:
81,169,41298,1,0,0:0:0:0:
144,266,41485,1,0,0:0:0:0:
232,85,41671,1,0,0:0:0:0:
286,277,41857,1,2,0:0:0:0:
387,229,42044,6,8,L|389:147,3,70
385,155,42975,1,0,0:0:0:0:
305,140,43348,2,0,P|159:138|132:166,1,140,0|2,0:0|0:0,0:0:0:0:
172,128,44093,1,0,0:0:0:0:
172,128,44280,1,0,0:0:0:0:
176,133,44652,1,2,0:0:0:0:
148,212,45025,5,0,0:0:0:0:
227,255,45211,1,0,0:0:0:0:
309,269,45398,1,0,0:0:0:0:
382,222,45584,1,0,0:0:0:0:
270,172,45957,1,0,0:0:0:0:
182,170,46329,1,2,0:0:0:0:
44,183,46702,1,0,0:0:0:0:
89,100,46888,1,0,0:0:0:0:
173,45,47075,1,0,0:0:0:0:
256,192,47261,12,2,47820,0:0:0:0:
208,93,48006,5,0,0:0:0:0:
226,202,48193,1,0,0:0:0:0:
293,90,48379,1,0,0:0:0:0:
303,202,48565,1,0,0:0:0:0:
366,107,48752,2,2,B|219:107|171:137|209:159,1,140,2|0,0:0|0:0,0:0:0:0:
364,188,49311,2,0,P|221:185|199:185,1,140
85,101,49870,1,0,0:0:0:0:
192,53,50056,1,0,0:0:0:0:
171,180,50242,1,2,0:0:0:0:
111,274,50429,2,0,L|271:267,1,140
347,245,50988,5,0,0:0:0:0:
383,159,51360,1,0,0:0:0:0:
351,89,51733,1,0,0:0:0:0:
242,51,52106,1,2,0:0:0:0:
37,28,52479,1,0,0:0:0:0:
254,336,52851,1,0,0:0:0:0:
474,32,53224,1,0,0:0:0:0:
255,189,53597,1,2,0:0:0:0:
136,132,53969,5,0,0:0:0:0:
171,233,54156,1,0,0:0:0:0:
243,94,54342,1,0,0:0:0:0:
276,259,54528,1,0,0:0:0:0:
372,46,54715,1,2,0:0:0:0:
407,269,54901,1,0,0:0:0:0:
200,27,55087,1,0,0:0:0:0:
156,287,55274,6,2,P|318:287|327:293,1,140,2|0,0:0|0:0,0:0:0:0:
370,253,55833,2,8,L|369:182,2,70
369,183,56392,6,0,L|227:183,1,140
195,129,56951,2,0,L|368:127,1,140
326,68,57696,1,0,0:0:0:0:
244,48,57882,1,0,0:0:0:0:
157,48,58069,1,0,0:0:0:0:
71,74,58255,1,0,0:0:0:0:
146,203,58441,6,8,L|177:202,13,17.5
144,285,59187,6,8,L|156:287,17,8.75
123,168,59932,1,0,0:0:0:0:
139,43,60118,1,0,0:0:0:0:
195,216,60305,1,0,0:0:0:0:
225,27,60491,1,0,0:0:0:0:
182,113,60677,2,0,B|289:113|299:102|299:104,1,93.3333333333333,2|0,0:0|0:0,0:0:0:0:
155,92,61236,6,0,L|161:236,1,140
93,271,61795,1,0,0:0:0:0:
224,272,61982,1,0,0:0:0:0:
290,199,62168,1,2,0:0:0:0:
311,48,62354,2,0,L|186:131,1,140
117,161,62913,5,0,0:0:0:0:
137,261,63286,1,0,0:0:0:0:
214,69,63659,1,0,0:0:0:0:
320,300,64031,1,0,0:0:0:0:
461,27,64404,1,0,0:0:0:0:
111,97,64777,1,0,0:0:0:0:
483,152,65149,1,0,0:0:0:0:
38,276,65522,1,2,0:0:0:0:
103,192,65895,5,0,0:0:0:0:
204,100,66081,1,0,0:0:0:0:
237,218,66267,1,0,0:0:0:0:
103,192,66454,1,0,0:0:0:0:
204,100,66640,1,2,0:0:0:0:
296,93,66826,1,0,0:0:0:0:
409,130,67013,1,0,0:0:0:0:
424,293,67199,2,0,L|282:290,1,140
183,288,67758,5,0,0:0:0:0:
86,234,67944,1,0,0:0:0:0:
76,93,68131,1,0,0:0:0:0:
196,60,68317,2,0,P|338:62|346:66,1,140,0|2,0:0|0:0,0:0:0:0:
336,135,68876,6,0,P|186:132|155:123,1,140,0|2,0:0|0:0,0:0:0:0:
228,161,69497,1,0,0:0:0:0:
380,189,69808,1,0,0:0:0:0:
323,347,69994,1,0,0:0:0:0:
206,326,70180,1,0,0:0:0:0:
256,192,70367,12,2,71205,0:0:0:0:
182,113,71485,5,0,0:0:0:0:
311,248,71671,1,0,0:0:0:0:
328,109,71857,1,0,0:0:0:0:
387,187,72044,1,0,0:0:0:0:
371,292,72230,1,0,0:0:0:0:
276,335,72416,1,0,0:0:0:0:
122,304,72789,1,2,0:0:0:0:
59,159,73162,1,0,0:0:0:0:
136,74,73534,1,0,0:0:0:0:
376,83,73907,1,0,0:0:0:0:
255,250,74093,1,0,0:0:0:0:
136,74,74466,1,2,0:0:0:0:
226,55,74839,5,0,0:0:0:0:
347,93,75025,1,0,0:0:0:0:
151,163,75211,1,0,0:0:0:0:
402,200,75398,1,0,0:0:0:0:
167,291,75770,1,2,0:0:0:0:
69,189,76143,1,0,0:0:0:0:
165,51,76516,1,0,0:0:0:0:
326,112,76702,1,0,0:0:0:0:
110,189,76888,1,0,0:0:0:0:
391,217,77075,1,0,0:0:0:0:
278,19,77261,1,0,0:0:0:0:
157,275,77447,1,0,0:0:0:0:
88,33,77634,1,0,0:0:0:0:
85,93,77820,5,0,0:0:0:0:
85,93,78006,1,0,0:0:0:0:
85,93,78193,1,0,0:0:0:0:
85,93,78379,1,0,0:0:0:0:
129,148,78752,1,2,0:0:0:0:
163,213,79124,2,0,P|312:211|340:226,1,140
300,116,79870,2,0,L|219:96,1,70
202,193,80429,1,2,0:0:0:0:
159,105,80801,5,0,0:0:0:0:
241,202,80988,1,0,0:0:0:0:
292,58,81174,1,0,0:0:0:0:
335,146,81360,1,0,0:0:0:0:
294,223,81733,1,2,0:0:0:0:
187,242,82106,1,0,0:0:0:0:
173,134,82479,1,0,0:0:0:0:
276,45,82665,1,0,0:0:0:0:
304,157,82851,1,0,0:0:0:0:
171,54,83038,6,8,L|201:56,5,17.5
188,55,83410,1,2,0:0:0:0:
190,128,83597,2,8,L|189:171,2,35
284,141,84156,1,0,0:0:0:0:
186,195,84528,1,0,0:0:0:0:
64,113,84715,1,0,0:0:0:0:
61,262,84901,1,2,0:0:0:0:
187,201,85274,1,0,0:0:0:0:
64,113,85460,1,0,0:0:0:0:
61,262,85646,1,2,0:0:0:0:
154,118,86019,1,0,0:0:0:0:
201,258,86205,1,0,0:0:0:0:
302,38,86392,1,0,0:0:0:0:
347,281,86578,1,2,0:0:0:0:
396,238,86951,5,0,0:0:0:0:
452,38,87323,1,0,0:0:0:0:
361,89,87510,1,0,0:0:0:0:
237,125,87696,1,0,0:0:0:0:
127,113,87882,1,0,0:0:0:0:
326,151,88069,1,2,0:0:0:0:
45,207,88255,1,0,0:0:0:0:
381,247,88441,1,0,0:0:0:0:
296,73,88628,1,0,0:0:0:0:
201,283,88814,1,0,0:0:0:0:
69,45,89000,1,2,0:0:0:0:
228,112,89373,5,0,0:0:0:0:
228,112,89559,2,8,L|266:109,2,35
121,103,90118,1,0,0:0:0:0:
67,174,90491,1,0,0:0:0:0:
221,181,90677,1,0,0:0:0:0:
79,281,90864,1,2,0:0:0:0:
435,286,91236,1,0,0:0:0:0:
295,179,91423,1,0,0:0:0:0:
472,177,91609,1,2,0:0:0:0:
193,72,91982,1,0,0:0:0:0:
128,203,92168,1,0,0:0:0:0:
281,186,92354,1,0,0:0:0:0:
193,72,92541,1,0,0:0:0:0:
104,48,92913,1,2,0:0:0:0:
251,42,93286,1,0,0:0:0:0:
366,47,93472,1,0,0:0:0:0:
406,122,93659,1,0,0:0:0:0:
415,208,93845,1,0,0:0:0:0:
385,319,94031,1,0,0:0:0:0:
256,192,94218,12,2,94777,0:0:0:0:
254,132,95149,5,0,0:0:0:0:
166,232,95336,1,0,0:0:0:0:
306,250,95522,1,0,0:0:0:0:
380,254,95708,2,0,P|376:112|362:93,1,140,0|2,0:0|0:0,0:0:0:0:
249,237,96454,1,0,0:0:0:0:
146,114,96640,1,0,0:0:0:0:
326,105,96826,1,2,0:0:0:0:
171,199,97199,1,0,0:0:0:0:
224,89,97385,1,0,0:0:0:0:
296,183,97572,1,2,0:0:0:0:
224,219,97944,2,8,L|225:146,2,70
137,187,98503,1,0,0:0:0:0:
310,182,98876,5,2,0:0:0:0:
426,47,99249,1,0,0:0:0:0:
418,152,99435,1,0,0:0:0:0:
350,258,99621,1,0,0:0:0:0:
242,297,99808,1,0,0:0:0:0:
118,282,99994,1,2,0:0:0:0:
43,182,100180,1,0,0:0:0:0:
101,59,100367,1,0,0:0:0:0:
301,62,100553,1,0,0:0:0:0:
111,168,100739,1,0,0:0:0:0:
301,244,100926,2,0,P|213:239|143:251,1,140,0|2,0:0|0:0,0:0:0:0:
210,101,101485,6,8,L|270:99,2,35
230,99,102044,1,0,0:0:0:0:
125,83,102416,1,0,0:0:0:0:
118,262,102603,1,0,0:0:0:0:
253,177,102789,1,2,0:0:0:0:
346,65,103162,1,0,0:0:0:0:
345,261,103348,1,0,0:0:0:0:
232,174,103534,1,4,0:0:0:0:
112,248,103907,1,0,0:0:0:0:
175,132,104093,1,0,0:0:0:0:
280,284,104280,1,0,0:0:0:0:
365,79,104466,1,0,0:0:0:0:
365,79,104839,5,2,0:0:0:0:
263,68,105211,1,0,0:0:0:0:
207,77,105398,1,0,0:0:0:0:
145,104,105584,1,0,0:0:0:0:
89,173,105770,1,0,0:0:0:0:
105,267,105957,1,0,0:0:0:0:
195,272,106143,2,0,P|348:99|350:83,1,210,0|2,0:0|0:0,0:0:0:0:
184,109,107261,6,0,L|202:183,1,70
216,248,107634,1,0,0:0:0:0:
158,32,107820,1,0,0:0:0:0:
297,127,108006,1,0,0:0:0:0:
71,176,108193,1,0,0:0:0:0:
71,176,108565,1,2,0:0:0:0:
96,214,108938,1,0,0:0:0:0:
154,255,109311,1,0,0:0:0:0:
187,174,109683,1,0,0:0:0:0:
361,184,109870,1,0,0:0:0:0:
272,34,110242,1,2,0:0:0:0:
139,78,110615,5,0,0:0:0:0:
194,163,110801,1,0,0:0:0:0:
317,167,110988,1,0,0:0:0:0:
262,50,111174,1,0,0:0:0:0:
257,133,111547,1,2,0:0:0:0:
260,243,111920,1,0,0:0:0:0:
150,230,112292,1,0,0:0:0:0:
108,158,112479,1,0,0:0:0:0:
127,58,112665,1,0,0:0:0:0:
306,105,112851,1,0,0:0:0:0:
145,168,113038,1,0,0:0:0:0:
222,17,113224,1,0,0:0:0:0:
256,175,113410,1,2,0:0:0:0:
317,176,113597,6,0,L|386:144,1,70
401,216,113969,1,0,0:0:0:0:
293,267,114156,2,0,L|144:263,1,140
199,175,114901,1,0,0:0:0:0:
326,143,115274,1,2,0:0:0:0:
185,127,115646,2,0,L|178:210,1,70
110,227,116205,1,2,0:0:0:0:
205,185,116578,5,0,0:0:0:0:
267,91,116764,1,0,0:0:0:0:
309,248,116951,1,0,0:0:0:0:
376,79,117137,1,0,0:0:0:0:
425,178,117510,1,2,0:0:0:0:
386,274,117882,1,0,0:0:0:0:
295,196,118255,1,0,0:0:0:0:
201,278,118441,1,0,0:0:0:0:
156,91,118628,1,0,0:0:0:0:
67,254,118814,1,2,0:0:0:0:
168,245,119187,6,8,L|188:246,5,17.5
247,194,119559,5,0,0:0:0:0:
272,284,119746,1,0,0:0:0:0:
333,112,119932,1,0,0:0:0:0:
393,292,120118,1,0,0:0:0:0:
426,153,120305,2,0,P|283:154|251:173,1,140,2|0,0:0|0:0,0:0:0:0:
59,173,120864,2,0,P|203:177|225:189,1,140
206,254,121423,1,0,0:0:0:0:
88,64,121609,1,2,0:0:0:0:
336,136,121795,1,0,0:0:0:0:
236,61,121982,2,0,P|241:204|260:218,1,140
128,76,122541,5,0,0:0:0:0:
294,113,122913,1,2,0:0:0:0:
96,220,123286,1,0,0:0:0:0:
364,275,123659,1,2,0:0:0:0:
33,168,124031,1,0,0:0:0:0:
465,26,124404,1,2,0:0:0:0:
230,289,124777,1,0,0:0:0:0:
252,189,125149,1,2,0:0:0:0:
98,68,125522,5,0,0:0:0:0:
116,227,125708,1,0,0:0:0:0:
248,23,125895,1,0,0:0:0:0:
282,282,126081,1,2,0:0:0:0:
385,72,126267,1,0,0:0:0:0:
221,111,126454,2,8,L|223:38,2,70
372,76,127199,5,0,0:0:0:0:
221,111,127385,1,0,0:0:0:0:
407,263,127572,1,0,0:0:0:0:
131,274,127758,1,2,0:0:0:0:
70,53,127944,2,0,P|221:52|268:27,1,140
390,65,128503,6,0,P|392:208|389:213,1,140,0|2,0:0|0:0,0:0:0:0:
305,139,129249,1,0,0:0:0:0:
204,92,129435,2,8,L|205:126,2,35
114,113,129808,1,0,0:0:0:0:
153,235,129994,2,8,L|232:231,2,70
223,151,130739,2,8,L|151:147,2,70
226,81,131485,5,0,0:0:0:0:
145,247,131671,1,0,0:0:0:0:
333,177,131857,1,0,0:0:0:0:
108,109,132044,1,0,0:0:0:0:
255,244,132230,2,0,P|334:243|339:232,1,70,2|0,0:0|0:0,0:0:0:0:
331,117,132789,2,0,P|189:113|186:114,1,140
193,111,133348,1,0,0:0:0:0:
85,262,133534,1,2,0:0:0:0:
336,237,133721,1,0,0:0:0:0:
196,33,133907,2,0,P|340:35|350:31,1,140
119,113,134466,5,0,0:0:0:0:
261,125,134839,1,2,0:0:0:0:
95,210,135211,1,0,0:0:0:0:
289,248,135584,1,2,0:0:0:0:
366,79,135957,1,0,0:0:0:0:
101,103,136329,1,2,0:0:0:0:
247,254,136702,1,0,0:0:0:0:
58,283,137075,1,2,0:0:0:0:
162,207,137447,5,0,0:0:0:0:
209,77,137634,1,0,0:0:0:0:
366,127,137820,1,0,0:0:0:0:
236,155,138006,1,2,0:0:0:0:
358,261,138193,2,8,L|281:260,2,70
171,255,138752,1,0,0:0:0:0:
101,85,139124,1,0,0:0:0:0:
163,250,139311,1,0,0:0:0:0:
346,18,139497,1,2,0:0:0:0:
400,298,139683,1,0,0:0:0:0:
138,47,139870,2,0,P|278:49|279:48,1,140
341,55,140429,5,0,0:0:0:0:
104,83,140801,1,0,0:0:0:0:
335,243,140988,1,0,0:0:0:0:
330,106,141360,1,2,0:0:0:0:
92,246,141547,1,0,0:0:0:0:
377,247,141733,1,0,0:0:0:0:
360,162,141920,2,0,P|66:160|61:190,1,420,0|2,0:0|0:0,0:0:0:0:
96,224,143410,6,8,L|96:96,2,70
160,96,143969,1,0,0:0:0:0:
256,128,144342,1,0,0:0:0:0:
160,192,144715,1,0,0:0:0:0:
256,224,145087,1,2,0:0:0:0:
160,224,145460,2,0,L|160:128,1,70
192,84,146019,1,2,0:0:0:0:
161,222,146392,1,0,0:0:0:0:
221,256,146578,1,0,0:0:0:0:
297,255,146764,1,0,0:0:0:0:
358,212,146951,1,0,0:0:0:0:
343,137,147323,2,8,L|202:137,2,140,8|2|8,0:0|0:0|0:0,0:0:0:0:
268,295,148255,1,0,0:0:0:0:
248,182,148441,1,0,0:0:0:0:
327,288,148628,1,2,0:0:0:0:
191,241,148814,1,0,0:0:0:0:
125,169,149000,1,0,0:0:0:0:
123,79,149187,1,0,0:0:0:0:
223,75,149373,6,8,L|221:160,3,70
306,147,150305,1,0,0:0:0:0:
256,221,150677,1,2,0:0:0:0:
149,222,151050,1,0,0:0:0:0:
206,165,151423,2,0,L|203:84,1,70
201,95,151982,1,2,0:0:0:0:
335,93,152354,2,8,L|335:186,3,70
334,163,153286,1,0,0:0:0:0:
334,163,153659,1,2,0:0:0:0:
277,235,154031,1,0,0:0:0:0:
166,236,154218,1,0,0:0:0:0:
89,182,154404,1,0,0:0:0:0:
283,264,154590,2,10,B|280:107|281:92|244:83|182:107|186:165|208:191|233:208|282:183|302:186,1,280,8|2,0:0|0:0,0:0:0:0:
