osu file format v14

[General]
AudioFilename: audio.mp3
AudioLeadIn: 0
PreviewTime: 129653
Countdown: 1
SampleSet: Normal
StackLeniency: 0.7
Mode: 1
LetterboxInBreaks: 0
WidescreenStoryboard: 0

[Editor]
DistanceSpacing: 0.6
BeatDivisor: 4
GridSize: 32
TimelineZoom: 1.9

[Metadata]
Title:Himegami matra ~ Hidden Star in All Seasons.
TitleUnicode:秘神マターラ ~ Hidden Star in All Seasons.
Artist:Zun
ArtistUnicode:Zun
Creator:Best_lolicon
Version:BLc Hell Oni
Source:東方project
Tags:Zun 秘神マターラ ~ Hidden Star in All Seasons. Himegami matra 東方project 東方天空璋 摩多羅隠岐奈
BeatmapID:1386611
BeatmapSetID:654144

[Difficulty]
HPDrainRate:5
CircleSize:5
OverallDifficulty:5
ApproachRate:5
SliderMultiplier:1.4
SliderTickRate:1

[Events]
//Background and Video events
0,0,"64353457_p0.jpg",0,0
//Break Periods
//Storyboard Layer 0 (Background)
//Storyboard Layer 1 (Fail)
//Storyboard Layer 2 (Pass)
//Storyboard Layer 3 (Foreground)
//Storyboard Sound Samples

[TimingPoints]
369,357.142857142857,4,1,0,100,1,0
369,-60.6060606060606,4,1,0,100,0,0
6083,-60.6060606060606,4,1,0,100,0,1
11797,357.142857142857,8,1,0,100,1,8
11797,-60.6060606060606,4,1,0,100,0,0
14654,357.142857142857,4,1,0,100,1,0
14654,-60.6060606060606,4,1,0,100,0,0
127511,357.142857142857,6,1,0,100,1,0
127511,-60.6060606060606,6,1,0,100,0,0
129653,357.142857142857,4,1,0,100,1,0
129653,-60.6060606060606,4,1,0,100,0,1
175367,-60.6060606060606,4,1,0,100,0,0
181081,-60.6060606060606,4,1,0,100,0,1
186795,357.142857142857,8,1,0,100,1,0
186795,-60.6060606060606,4,1,0,100,0,0

[HitObjects]
256,192,369,5,0,0:0:0:0:
256,192,458,1,0,0:0:0:0:
256,192,547,1,0,0:0:0:0:
256,192,607,1,8,0:0:0:0:
256,192,666,1,8,0:0:0:0:
256,192,726,1,0,0:0:0:0:
256,192,785,1,8,0:0:0:0:
256,192,934,1,8,0:0:0:0:
256,192,1053,1,8,0:0:0:0:
256,192,1142,1,0,0:0:0:0:
256,192,1202,1,0,0:0:0:0:
256,192,1261,1,0,0:0:0:0:
256,192,1351,1,0,0:0:0:0:
256,192,1440,1,8,0:0:0:0:
256,192,1529,1,0,0:0:0:0:
256,192,1618,1,0,0:0:0:0:
256,192,1663,1,8,0:0:0:0:
256,192,1708,1,8,0:0:0:0:
256,192,1752,5,0,0:0:0:0:
256,192,1797,1,0,0:0:0:0:
256,192,1886,1,0,0:0:0:0:
256,192,1976,1,0,0:0:0:0:
256,192,2035,1,8,0:0:0:0:
256,192,2095,1,0,0:0:0:0:
256,192,2154,1,0,0:0:0:0:
256,192,2214,1,8,0:0:0:0:
256,192,2363,1,8,0:0:0:0:
256,192,2482,1,0,0:0:0:0:
256,192,2571,1,0,0:0:0:0:
256,192,2630,1,0,0:0:0:0:
256,192,2690,1,0,0:0:0:0:
256,192,2779,1,0,0:0:0:0:
256,192,2868,1,8,0:0:0:0:
256,192,2958,1,0,0:0:0:0:
256,192,3047,1,0,0:0:0:0:
256,192,3092,1,8,0:0:0:0:
256,192,3136,1,8,0:0:0:0:
256,192,3181,1,0,0:0:0:0:
256,192,3226,5,0,0:0:0:0:
256,192,3315,1,0,0:0:0:0:
256,192,3404,1,0,0:0:0:0:
256,192,3464,1,8,0:0:0:0:
256,192,3523,1,8,0:0:0:0:
256,192,3583,1,0,0:0:0:0:
256,192,3642,1,8,0:0:0:0:
256,192,3791,1,8,0:0:0:0:
256,192,3910,1,8,0:0:0:0:
256,192,4000,1,0,0:0:0:0:
256,192,4059,1,0,0:0:0:0:
256,192,4118,1,0,0:0:0:0:
256,192,4208,1,0,0:0:0:0:
256,192,4297,1,8,0:0:0:0:
256,192,4357,1,8,0:0:0:0:
256,192,4416,1,0,0:0:0:0:
256,192,4476,1,0,0:0:0:0:
256,192,4520,1,8,0:0:0:0:
256,192,4565,1,8,0:0:0:0:
256,192,4610,1,0,0:0:0:0:
256,192,4654,5,0,0:0:0:0:
256,192,4743,1,0,0:0:0:0:
256,192,4833,1,0,0:0:0:0:
256,192,4892,1,8,0:0:0:0:
256,192,4952,1,0,0:0:0:0:
256,192,5011,1,0,0:0:0:0:
256,192,5071,1,8,0:0:0:0:
256,192,5220,1,8,0:0:0:0:
256,192,5339,1,0,0:0:0:0:
256,192,5428,1,0,0:0:0:0:
256,192,5488,1,0,0:0:0:0:
256,192,5548,1,0,0:0:0:0:
256,192,5636,1,0,0:0:0:0:
256,192,5726,1,8,0:0:0:0:
256,192,5785,1,8,0:0:0:0:
256,192,5845,1,0,0:0:0:0:
256,192,5904,1,0,0:0:0:0:
256,192,5949,1,8,0:0:0:0:
256,192,5993,1,8,0:0:0:0:
256,192,6038,1,0,0:0:0:0:
256,192,6083,5,0,0:0:0:0:
256,192,6172,1,0,0:0:0:0:
256,192,6261,1,0,0:0:0:0:
256,192,6321,1,8,0:0:0:0:
256,192,6380,1,8,0:0:0:0:
256,192,6440,1,8,0:0:0:0:
256,192,6499,1,0,0:0:0:0:
256,192,6559,1,0,0:0:0:0:
256,192,6618,1,0,0:0:0:0:
256,192,6678,1,8,0:0:0:0:
256,192,6738,1,8,0:0:0:0:
256,192,6797,1,0,0:0:0:0:
256,192,6886,1,0,0:0:0:0:
256,192,6976,1,8,0:0:0:0:
256,192,7065,1,8,0:0:0:0:
256,192,7154,1,0,0:0:0:0:
256,192,7243,1,0,0:0:0:0:
256,192,7333,1,8,0:0:0:0:
256,192,7422,1,8,0:0:0:0:
256,192,7511,5,0,0:0:0:0:
256,192,7601,1,0,0:0:0:0:
256,192,7690,1,0,0:0:0:0:
256,192,7749,1,8,0:0:0:0:
256,192,7809,1,8,0:0:0:0:
256,192,7868,1,0,0:0:0:0:
256,192,7928,1,8,0:0:0:0:
256,192,7988,1,0,0:0:0:0:
256,192,8047,1,0,0:0:0:0:
256,192,8107,1,8,0:0:0:0:
256,192,8166,1,8,0:0:0:0:
256,192,8226,1,0,0:0:0:0:
256,192,8315,1,0,0:0:0:0:
256,192,8404,1,8,0:0:0:0:
256,192,8493,1,8,0:0:0:0:
256,192,8583,1,0,0:0:0:0:
256,192,8672,1,0,0:0:0:0:
256,192,8761,1,8,0:0:0:0:
256,192,8851,1,8,0:0:0:0:
256,192,8940,5,0,0:0:0:0:
256,192,9029,1,0,0:0:0:0:
256,192,9118,1,0,0:0:0:0:
256,192,9178,1,8,0:0:0:0:
256,192,9238,1,8,0:0:0:0:
256,192,9297,1,0,0:0:0:0:
256,192,9357,1,8,0:0:0:0:
256,192,9416,1,8,0:0:0:0:
256,192,9476,1,0,0:0:0:0:
256,192,9535,1,8,0:0:0:0:
256,192,9595,1,8,0:0:0:0:
256,192,9654,1,0,0:0:0:0:
256,192,9743,1,0,0:0:0:0:
256,192,9833,1,8,0:0:0:0:
256,192,9922,1,8,0:0:0:0:
256,192,10011,1,0,0:0:0:0:
256,192,10071,1,0,0:0:0:0:
256,192,10130,1,0,0:0:0:0:
256,192,10190,1,8,0:0:0:0:
256,192,10279,1,8,0:0:0:0:
256,192,10368,5,0,0:0:0:0:
256,192,10458,1,0,0:0:0:0:
256,192,10547,1,8,0:0:0:0:
256,192,10607,1,8,0:0:0:0:
256,192,10666,1,8,0:0:0:0:
256,192,10726,1,0,0:0:0:0:
256,192,10785,1,0,0:0:0:0:
256,192,10845,1,0,0:0:0:0:
256,192,10904,1,8,0:0:0:0:
256,192,10964,1,8,0:0:0:0:
256,192,11023,1,8,0:0:0:0:
256,192,11083,1,0,0:0:0:0:
256,192,11172,1,0,0:0:0:0:
256,192,11261,1,8,0:0:0:0:
256,192,11351,1,8,0:0:0:0:
256,192,11440,1,0,0:0:0:0:
256,192,11499,1,0,0:0:0:0:
256,192,11559,1,0,0:0:0:0:
256,192,11618,1,8,0:0:0:0:
256,192,11708,1,8,0:0:0:0:
256,192,11797,1,0,0:0:0:0:
256,192,11856,1,8,0:0:0:0:
256,192,11945,1,0,0:0:0:0:
256,192,12035,1,8,0:0:0:0:
256,192,12124,1,0,0:0:0:0:
256,192,12213,1,8,0:0:0:0:
256,192,12302,1,8,0:0:0:0:
256,192,12392,1,0,0:0:0:0:
256,192,12481,1,8,0:0:0:0:
256,192,12570,1,0,0:0:0:0:
256,192,12660,1,8,0:0:0:0:
256,192,12749,1,8,0:0:0:0:
256,192,12838,1,0,0:0:0:0:
256,192,12927,1,8,0:0:0:0:
256,192,13017,1,8,0:0:0:0:
256,192,13106,1,0,0:0:0:0:
256,192,13195,1,8,0:0:0:0:
256,192,13284,1,12,0:0:0:0:
256,192,14296,1,0,0:0:0:0:
256,192,14385,1,0,0:0:0:0:
256,192,14475,1,0,0:0:0:0:
256,192,14564,1,0,0:0:0:0:
256,192,14654,1,4,0:0:0:0:
256,192,14742,1,8,0:0:0:0:
256,192,14831,1,0,0:0:0:0:
256,192,15010,1,8,0:0:0:0:
256,192,15188,1,0,0:0:0:0:
256,192,15367,1,8,0:0:0:0:
256,192,15545,1,8,0:0:0:0:
256,192,15724,1,8,0:0:0:0:
256,192,15903,1,0,0:0:0:0:
256,192,16081,1,4,0:0:0:0:
256,192,16170,1,8,0:0:0:0:
256,192,16260,1,0,0:0:0:0:
256,192,16438,1,8,0:0:0:0:
256,192,16617,1,0,0:0:0:0:
256,192,16795,1,8,0:0:0:0:
256,192,16974,1,8,0:0:0:0:
256,192,17153,1,0,0:0:0:0:
256,192,17331,1,8,0:0:0:0:
256,192,17420,1,8,0:0:0:0:
256,192,17511,1,4,0:0:0:0:
256,192,17599,1,8,0:0:0:0:
256,192,17688,1,0,0:0:0:0:
256,192,17867,1,8,0:0:0:0:
256,192,18045,1,0,0:0:0:0:
256,192,18224,1,8,0:0:0:0:
256,192,18403,1,8,0:0:0:0:
256,192,18581,1,8,0:0:0:0:
256,192,18760,1,0,0:0:0:0:
256,192,18938,1,4,0:0:0:0:
256,192,19028,1,8,0:0:0:0:
256,192,19117,1,0,0:0:0:0:
256,192,19295,1,8,0:0:0:0:
256,192,19474,1,0,0:0:0:0:
256,192,19653,1,8,0:0:0:0:
256,192,19831,1,8,0:0:0:0:
256,192,20010,1,8,0:0:0:0:
256,192,20099,1,8,0:0:0:0:
256,192,20188,1,8,0:0:0:0:
256,192,20277,1,8,0:0:0:0:
256,192,20367,1,4,0:0:0:0:
256,192,20456,1,8,0:0:0:0:
256,192,20545,1,0,0:0:0:0:
256,192,20724,1,8,0:0:0:0:
256,192,20902,1,0,0:0:0:0:
256,192,21081,1,8,0:0:0:0:
256,192,21260,1,8,0:0:0:0:
256,192,21438,1,8,0:0:0:0:
256,192,21617,1,0,0:0:0:0:
256,192,21795,1,4,0:0:0:0:
256,192,21885,1,8,0:0:0:0:
256,192,21974,1,0,0:0:0:0:
256,192,22152,1,8,0:0:0:0:
256,192,22331,1,0,0:0:0:0:
256,192,22510,1,8,0:0:0:0:
256,192,22688,1,8,0:0:0:0:
256,192,22867,1,0,0:0:0:0:
256,192,23045,1,8,0:0:0:0:
256,192,23135,1,8,0:0:0:0:
256,192,23225,1,4,0:0:0:0:
256,192,23313,1,8,0:0:0:0:
256,192,23402,1,0,0:0:0:0:
256,192,23581,1,8,0:0:0:0:
256,192,23760,1,0,0:0:0:0:
256,192,23938,1,8,0:0:0:0:
256,192,24117,1,8,0:0:0:0:
256,192,24295,1,8,0:0:0:0:
256,192,24474,1,0,0:0:0:0:
256,192,24652,1,4,0:0:0:0:
256,192,24742,1,8,0:0:0:0:
256,192,24831,1,0,0:0:0:0:
256,192,25010,1,8,0:0:0:0:
256,192,25188,1,0,0:0:0:0:
256,192,25367,1,8,0:0:0:0:
256,192,25545,1,8,0:0:0:0:
256,192,25724,1,8,0:0:0:0:
256,192,25813,1,8,0:0:0:0:
256,192,25902,1,8,0:0:0:0:
256,192,25992,1,8,0:0:0:0:
256,192,26081,1,0,0:0:0:0:
256,192,26170,1,8,0:0:0:0:
256,192,26260,1,0,0:0:0:0:
256,192,26349,1,0,0:0:0:0:
256,192,26438,1,8,0:0:0:0:
256,192,26617,1,8,0:0:0:0:
256,192,26706,1,0,0:0:0:0:
256,192,26795,1,8,0:0:0:0:
256,192,26885,1,8,0:0:0:0:
256,192,26974,1,0,0:0:0:0:
256,192,27063,1,0,0:0:0:0:
256,192,27152,1,8,0:0:0:0:
256,192,27242,1,8,0:0:0:0:
256,192,27331,1,0,0:0:0:0:
256,192,27510,1,0,0:0:0:0:
256,192,27599,1,8,0:0:0:0:
256,192,27688,1,0,0:0:0:0:
256,192,27777,1,0,0:0:0:0:
256,192,27867,1,8,0:0:0:0:
256,192,28045,1,8,0:0:0:0:
256,192,28135,1,0,0:0:0:0:
256,192,28224,1,8,0:0:0:0:
256,192,28313,1,8,0:0:0:0:
256,192,28402,1,0,0:0:0:0:
256,192,28492,1,0,0:0:0:0:
256,192,28581,1,8,0:0:0:0:
256,192,28670,1,0,0:0:0:0:
256,192,28760,1,8,0:0:0:0:
256,192,28849,1,8,0:0:0:0:
256,192,28938,1,0,0:0:0:0:
256,192,29027,1,8,0:0:0:0:
256,192,29117,1,0,0:0:0:0:
256,192,29206,1,0,0:0:0:0:
256,192,29295,1,8,0:0:0:0:
256,192,29474,1,8,0:0:0:0:
256,192,29563,1,0,0:0:0:0:
256,192,29652,1,8,0:0:0:0:
256,192,29742,1,8,0:0:0:0:
256,192,29831,1,0,0:0:0:0:
256,192,29920,1,0,0:0:0:0:
256,192,30010,1,8,0:0:0:0:
256,192,30099,1,8,0:0:0:0:
256,192,30188,1,0,0:0:0:0:
256,192,30367,1,0,0:0:0:0:
256,192,30456,1,8,0:0:0:0:
256,192,30545,1,0,0:0:0:0:
256,192,30635,1,0,0:0:0:0:
256,192,30724,1,8,0:0:0:0:
256,192,30902,1,8,0:0:0:0:
256,192,30992,1,0,0:0:0:0:
256,192,31081,1,8,0:0:0:0:
256,192,31170,1,8,0:0:0:0:
256,192,31260,1,0,0:0:0:0:
256,192,31350,1,8,0:0:0:0:
256,192,31438,1,8,0:0:0:0:
256,192,31527,1,0,0:0:0:0:
256,192,31617,1,0,0:0:0:0:
256,192,31706,1,8,0:0:0:0:
256,192,31795,1,0,0:0:0:0:
256,192,31885,1,8,0:0:0:0:
256,192,31974,1,8,0:0:0:0:
256,192,32063,1,0,0:0:0:0:
256,192,32152,1,8,0:0:0:0:
256,192,32242,1,0,0:0:0:0:
256,192,32331,1,8,0:0:0:0:
256,192,32420,1,0,0:0:0:0:
256,192,32510,1,8,0:0:0:0:
256,192,32599,1,0,0:0:0:0:
256,192,32688,1,8,0:0:0:0:
256,192,32777,1,8,0:0:0:0:
256,192,32867,1,8,0:0:0:0:
256,192,32956,1,0,0:0:0:0:
256,192,33045,1,0,0:0:0:0:
256,192,33135,1,0,0:0:0:0:
256,192,33224,1,0,0:0:0:0:
256,192,33313,1,8,0:0:0:0:
256,192,33403,1,8,0:0:0:0:
256,192,33492,1,0,0:0:0:0:
256,192,33581,1,8,0:0:0:0:
256,192,33670,1,0,0:0:0:0:
256,192,33760,1,8,0:0:0:0:
256,192,33849,1,0,0:0:0:0:
256,192,33938,1,8,0:0:0:0:
256,192,34027,1,0,0:0:0:0:
256,192,34117,1,8,0:0:0:0:
256,192,34207,1,8,0:0:0:0:
256,192,34295,1,8,0:0:0:0:
256,192,34385,1,0,0:0:0:0:
256,192,34474,1,8,0:0:0:0:
256,192,34563,1,8,0:0:0:0:
256,192,34652,1,0,0:0:0:0:
256,192,34742,1,8,0:0:0:0:
256,192,34831,1,8,0:0:0:0:
256,192,34920,1,0,0:0:0:0:
256,192,35010,1,8,0:0:0:0:
256,192,35099,1,0,0:0:0:0:
256,192,35188,1,8,0:0:0:0:
256,192,35277,1,0,0:0:0:0:
256,192,35367,1,8,0:0:0:0:
256,192,35456,1,0,0:0:0:0:
256,192,35545,1,8,0:0:0:0:
256,192,35635,1,8,0:0:0:0:
256,192,35724,1,8,0:0:0:0:
256,192,35813,1,0,0:0:0:0:
256,192,35902,1,0,0:0:0:0:
256,192,35992,1,0,0:0:0:0:
256,192,36081,1,0,0:0:0:0:
256,192,36170,1,8,0:0:0:0:
256,192,36260,1,8,0:0:0:0:
256,192,36349,1,0,0:0:0:0:
256,192,36438,1,8,0:0:0:0:
256,192,36527,1,0,0:0:0:0:
256,192,36617,1,8,0:0:0:0:
256,192,36706,1,0,0:0:0:0:
256,192,36795,1,8,0:0:0:0:
256,192,36885,1,8,0:0:0:0:
256,192,36974,1,0,0:0:0:0:
256,192,37064,1,8,0:0:0:0:
256,192,37152,1,8,0:0:0:0:
256,192,37242,1,8,0:0:0:0:
256,192,37331,1,0,0:0:0:0:
256,192,37420,1,8,0:0:0:0:
256,192,37510,1,0,0:0:0:0:
256,192,37688,1,0,0:0:0:0:
256,192,37867,1,8,0:0:0:0:
256,192,38045,1,0,0:0:0:0:
256,192,38135,1,8,0:0:0:0:
256,192,38313,1,0,0:0:0:0:
256,192,38402,1,8,0:0:0:0:
256,192,38581,1,0,0:0:0:0:
256,192,38760,1,8,0:0:0:0:
256,192,38938,1,8,0:0:0:0:
256,192,39117,1,0,0:0:0:0:
256,192,39295,1,8,0:0:0:0:
256,192,39474,1,0,0:0:0:0:
256,192,39563,1,8,0:0:0:0:
256,192,39742,1,0,0:0:0:0:
256,192,39831,1,8,0:0:0:0:
256,192,40010,1,0,0:0:0:0:
256,192,40188,1,8,0:0:0:0:
256,192,40367,1,8,0:0:0:0:
256,192,40545,1,0,0:0:0:0:
256,192,40724,1,8,0:0:0:0:
256,192,40902,1,0,0:0:0:0:
256,192,40992,1,8,0:0:0:0:
256,192,41081,1,0,0:0:0:0:
256,192,41216,1,8,0:0:0:0:
256,192,41349,1,0,0:0:0:0:
256,192,41438,1,8,0:0:0:0:
256,192,41617,1,0,0:0:0:0:
256,192,41795,1,8,0:0:0:0:
256,192,41885,1,8,0:0:0:0:
256,192,41974,1,8,0:0:0:0:
256,192,42063,1,8,0:0:0:0:
256,192,42152,1,0,0:0:0:0:
256,192,42331,1,8,0:0:0:0:
256,192,42420,1,0,0:0:0:0:
256,192,42510,1,8,0:0:0:0:
256,192,42688,1,8,0:0:0:0:
256,192,42777,1,8,0:0:0:0:
256,192,42956,1,0,0:0:0:0:
256,192,43045,1,8,0:0:0:0:
256,192,43135,1,8,0:0:0:0:
256,192,43224,1,0,0:0:0:0:
256,192,43402,1,0,0:0:0:0:
256,192,43581,1,8,0:0:0:0:
256,192,43760,1,0,0:0:0:0:
256,192,43849,1,8,0:0:0:0:
256,192,44027,1,0,0:0:0:0:
256,192,44117,1,8,0:0:0:0:
256,192,44296,1,8,0:0:0:0:
256,192,44474,1,0,0:0:0:0:
256,192,44653,1,0,0:0:0:0:
256,192,44831,1,0,0:0:0:0:
256,192,45010,1,8,0:0:0:0:
256,192,45188,1,8,0:0:0:0:
256,192,45277,1,0,0:0:0:0:
256,192,45456,1,0,0:0:0:0:
256,192,45545,1,8,0:0:0:0:
256,192,45724,1,8,0:0:0:0:
256,192,45902,1,0,0:0:0:0:
256,192,46081,1,0,0:0:0:0:
256,192,46260,1,0,0:0:0:0:
256,192,46438,1,8,0:0:0:0:
256,192,46617,1,8,0:0:0:0:
256,192,46706,1,0,0:0:0:0:
256,192,46885,1,8,0:0:0:0:
256,192,46974,1,8,0:0:0:0:
256,192,47152,1,8,0:0:0:0:
256,192,47331,1,0,0:0:0:0:
256,192,47510,1,8,0:0:0:0:
256,192,47599,1,8,0:0:0:0:
256,192,47688,1,8,0:0:0:0:
256,192,47749,1,8,0:0:0:0:
256,192,47808,1,8,0:0:0:0:
256,192,47868,1,0,0:0:0:0:
256,192,48046,1,8,0:0:0:0:
256,192,48136,5,8,0:0:0:0:
256,192,48224,1,8,0:0:0:0:
256,192,48314,1,8,0:0:0:0:
256,192,48402,1,0,0:0:0:0:
256,192,48492,1,8,0:0:0:0:
256,192,48581,1,0,0:0:0:0:
256,192,48670,1,0,0:0:0:0:
256,192,48760,1,8,0:0:0:0:
256,192,48849,1,8,0:0:0:0:
256,192,48938,1,0,0:0:0:0:
256,192,49117,1,8,0:0:0:0:
256,192,49206,1,0,0:0:0:0:
256,192,49295,1,0,0:0:0:0:
256,192,49385,1,0,0:0:0:0:
256,192,49474,1,8,0:0:0:0:
256,192,49652,1,0,0:0:0:0:
256,192,49742,1,0,0:0:0:0:
256,192,49831,1,8,0:0:0:0:
256,192,49920,1,0,0:0:0:0:
256,192,50099,1,0,0:0:0:0:
256,192,50188,1,8,0:0:0:0:
256,192,50277,1,8,0:0:0:0:
256,192,50367,1,0,0:0:0:0:
256,192,50545,1,8,0:0:0:0:
256,192,50635,1,0,0:0:0:0:
256,192,50724,1,0,0:0:0:0:
256,192,50813,1,0,0:0:0:0:
256,192,50902,1,8,0:0:0:0:
256,192,51081,1,0,0:0:0:0:
256,192,51170,1,0,0:0:0:0:
256,192,51260,1,8,0:0:0:0:
256,192,51349,1,0,0:0:0:0:
256,192,51527,1,0,0:0:0:0:
256,192,51617,1,8,0:0:0:0:
256,192,51706,1,8,0:0:0:0:
256,192,51795,1,0,0:0:0:0:
256,192,51974,1,8,0:0:0:0:
256,192,52063,1,0,0:0:0:0:
256,192,52152,1,0,0:0:0:0:
256,192,52242,1,0,0:0:0:0:
256,192,52331,1,8,0:0:0:0:
256,192,52510,1,8,0:0:0:0:
256,192,52599,1,0,0:0:0:0:
256,192,52688,1,0,0:0:0:0:
256,192,52777,1,8,0:0:0:0:
256,192,52867,1,0,0:0:0:0:
256,192,52956,1,0,0:0:0:0:
256,192,53045,1,8,0:0:0:0:
256,192,53135,1,0,0:0:0:0:
256,192,53224,1,8,0:0:0:0:
256,192,53313,1,8,0:0:0:0:
256,192,53402,1,0,0:0:0:0:
256,192,53492,1,8,0:0:0:0:
256,192,53581,1,8,0:0:0:0:
256,192,53670,1,0,0:0:0:0:
256,192,53760,1,8,0:0:0:0:
256,192,53849,1,0,0:0:0:0:
256,192,53938,1,8,0:0:0:0:
256,192,54117,1,8,0:0:0:0:
256,192,54206,1,8,0:0:0:0:
256,192,54295,1,8,0:0:0:0:
256,192,54474,1,8,0:0:0:0:
256,192,54653,1,4,0:0:0:0:
256,192,54831,1,0,0:0:0:0:
256,192,54920,1,0,0:0:0:0:
256,192,55099,1,0,0:0:0:0:
256,192,55188,1,8,0:0:0:0:
256,192,55277,1,0,0:0:0:0:
256,192,55367,1,8,0:0:0:0:
256,192,55545,1,0,0:0:0:0:
256,192,55635,1,0,0:0:0:0:
256,192,55724,1,12,0:0:0:0:
256,192,55902,1,12,0:0:0:0:
256,192,56081,1,4,0:0:0:0:
256,192,56260,1,0,0:0:0:0:
256,192,56349,1,0,0:0:0:0:
256,192,56527,1,0,0:0:0:0:
256,192,56617,1,8,0:0:0:0:
256,192,56706,1,0,0:0:0:0:
256,192,56795,1,8,0:0:0:0:
256,192,56974,1,0,0:0:0:0:
256,192,57063,1,0,0:0:0:0:
256,192,57152,1,12,0:0:0:0:
256,192,57331,1,4,0:0:0:0:
256,192,57510,1,4,0:0:0:0:
256,192,57688,1,0,0:0:0:0:
256,192,57777,1,8,0:0:0:0:
256,192,57956,1,0,0:0:0:0:
256,192,58045,1,8,0:0:0:0:
256,192,58224,1,8,0:0:0:0:
256,192,58313,1,0,0:0:0:0:
256,192,58402,1,8,0:0:0:0:
256,192,58492,1,0,0:0:0:0:
256,192,58581,1,8,0:0:0:0:
256,192,58670,1,0,0:0:0:0:
256,192,58760,1,8,0:0:0:0:
256,192,58849,1,8,0:0:0:0:
256,192,58938,1,0,0:0:0:0:
256,192,58998,1,0,0:0:0:0:
256,192,59057,1,0,0:0:0:0:
256,192,59117,1,8,0:0:0:0:
256,192,59206,1,0,0:0:0:0:
256,192,59295,1,0,0:0:0:0:
256,192,59355,1,0,0:0:0:0:
256,192,59414,1,0,0:0:0:0:
256,192,59474,1,8,0:0:0:0:
256,192,59563,1,8,0:0:0:0:
256,192,59652,1,0,0:0:0:0:
256,192,59712,1,0,0:0:0:0:
256,192,59772,1,0,0:0:0:0:
256,192,59831,1,8,0:0:0:0:
256,192,59920,1,8,0:0:0:0:
256,192,60010,1,0,0:0:0:0:
256,192,60069,1,0,0:0:0:0:
256,192,60129,1,0,0:0:0:0:
256,192,60188,1,8,0:0:0:0:
256,192,60248,1,8,0:0:0:0:
256,192,60307,1,8,0:0:0:0:
256,192,60367,1,4,0:0:0:0:
256,192,60456,1,8,0:0:0:0:
256,192,60545,1,0,0:0:0:0:
256,192,60724,1,8,0:0:0:0:
256,192,60902,1,0,0:0:0:0:
256,192,61081,1,8,0:0:0:0:
256,192,61260,1,8,0:0:0:0:
256,192,61438,1,8,0:0:0:0:
256,192,61617,1,0,0:0:0:0:
256,192,61795,1,4,0:0:0:0:
256,192,61885,1,8,0:0:0:0:
256,192,61974,1,0,0:0:0:0:
256,192,62152,1,8,0:0:0:0:
256,192,62331,1,0,0:0:0:0:
256,192,62510,1,8,0:0:0:0:
256,192,62688,1,8,0:0:0:0:
256,192,62867,1,0,0:0:0:0:
256,192,63045,1,8,0:0:0:0:
256,192,63135,1,8,0:0:0:0:
256,192,63224,1,4,0:0:0:0:
256,192,63313,1,8,0:0:0:0:
256,192,63402,1,0,0:0:0:0:
256,192,63581,1,8,0:0:0:0:
256,192,63760,1,0,0:0:0:0:
256,192,63938,1,8,0:0:0:0:
256,192,64117,1,8,0:0:0:0:
256,192,64295,1,8,0:0:0:0:
256,192,64474,1,0,0:0:0:0:
256,192,64653,1,4,0:0:0:0:
256,192,64742,1,8,0:0:0:0:
256,192,64831,1,0,0:0:0:0:
256,192,65010,1,8,0:0:0:0:
256,192,65188,1,0,0:0:0:0:
256,192,65367,1,8,0:0:0:0:
256,192,65545,1,8,0:0:0:0:
256,192,65724,1,8,0:0:0:0:
256,192,65813,1,8,0:0:0:0:
256,192,65902,1,8,0:0:0:0:
256,192,65992,1,8,0:0:0:0:
256,192,66082,1,4,0:0:0:0:
256,192,66170,1,8,0:0:0:0:
256,192,66260,1,0,0:0:0:0:
256,192,66438,1,8,0:0:0:0:
256,192,66617,1,0,0:0:0:0:
256,192,66795,1,8,0:0:0:0:
256,192,66974,1,8,0:0:0:0:
256,192,67152,1,8,0:0:0:0:
256,192,67331,1,0,0:0:0:0:
256,192,67510,1,4,0:0:0:0:
256,192,67599,1,8,0:0:0:0:
256,192,67688,1,0,0:0:0:0:
256,192,67867,1,8,0:0:0:0:
256,192,68045,1,0,0:0:0:0:
256,192,68224,1,8,0:0:0:0:
256,192,68402,1,8,0:0:0:0:
256,192,68581,1,0,0:0:0:0:
256,192,68760,1,8,0:0:0:0:
256,192,68849,1,8,0:0:0:0:
256,192,68939,1,4,0:0:0:0:
256,192,69027,1,8,0:0:0:0:
256,192,69117,1,0,0:0:0:0:
256,192,69295,5,8,0:0:0:0:
256,192,69474,1,0,0:0:0:0:
256,192,69652,1,8,0:0:0:0:
256,192,69831,1,8,0:0:0:0:
256,192,70010,1,8,0:0:0:0:
256,192,70188,1,0,0:0:0:0:
256,192,70367,1,0,0:0:0:0:
256,192,70456,1,0,0:0:0:0:
256,192,70545,1,0,0:0:0:0:
256,192,70635,1,0,0:0:0:0:
256,192,70724,1,8,0:0:0:0:
256,192,70813,1,8,0:0:0:0:
256,192,70902,1,8,0:0:0:0:
256,192,70992,1,0,0:0:0:0:
256,192,71081,1,8,0:0:0:0:
256,192,71170,1,0,0:0:0:0:
256,192,71260,1,0,0:0:0:0:
256,192,71349,1,8,0:0:0:0:
256,192,71438,1,8,0:0:0:0:
256,192,71527,1,0,0:0:0:0:
256,192,71617,1,8,0:0:0:0:
256,192,71706,1,8,0:0:0:0:
256,192,71795,1,0,0:0:0:0:
256,192,71885,1,0,0:0:0:0:
256,192,71974,1,8,0:0:0:0:
256,192,72063,1,0,0:0:0:0:
256,192,72152,1,8,0:0:0:0:
256,192,72242,1,8,0:0:0:0:
256,192,72331,1,0,0:0:0:0:
256,192,72420,1,0,0:0:0:0:
256,192,72510,1,8,0:0:0:0:
256,192,72599,1,0,0:0:0:0:
256,192,72688,1,0,0:0:0:0:
256,192,72777,1,8,0:0:0:0:
256,192,72867,1,0,0:0:0:0:
256,192,72956,1,0,0:0:0:0:
256,192,73045,1,8,0:0:0:0:
256,192,73135,1,0,0:0:0:0:
256,192,73224,1,0,0:0:0:0:
256,192,73313,1,0,0:0:0:0:
256,192,73402,1,8,0:0:0:0:
256,192,73492,1,0,0:0:0:0:
256,192,73581,1,8,0:0:0:0:
256,192,73670,1,8,0:0:0:0:
256,192,73760,1,0,0:0:0:0:
256,192,73849,1,0,0:0:0:0:
256,192,73938,1,8,0:0:0:0:
256,192,74027,1,8,0:0:0:0:
256,192,74117,1,0,0:0:0:0:
256,192,74206,1,8,0:0:0:0:
256,192,74295,1,8,0:0:0:0:
256,192,74385,1,0,0:0:0:0:
256,192,74474,1,8,0:0:0:0:
256,192,74563,1,8,0:0:0:0:
256,192,74652,1,0,0:0:0:0:
256,192,74742,1,0,0:0:0:0:
256,192,74831,1,8,0:0:0:0:
256,192,74920,1,0,0:0:0:0:
256,192,75010,1,8,0:0:0:0:
256,192,75099,1,8,0:0:0:0:
256,192,75188,1,0,0:0:0:0:
256,192,75277,1,0,0:0:0:0:
256,192,75367,1,8,0:0:0:0:
256,192,75456,1,0,0:0:0:0:
256,192,75545,1,0,0:0:0:0:
256,192,75635,1,8,0:0:0:0:
256,192,75724,1,0,0:0:0:0:
256,192,75813,1,0,0:0:0:0:
256,192,75902,1,8,0:0:0:0:
256,192,75992,1,0,0:0:0:0:
256,192,76081,1,0,0:0:0:0:
256,192,76170,1,0,0:0:0:0:
256,192,76260,1,8,0:0:0:0:
256,192,76349,1,0,0:0:0:0:
256,192,76438,1,8,0:0:0:0:
256,192,76527,1,8,0:0:0:0:
256,192,76617,1,0,0:0:0:0:
256,192,76706,1,0,0:0:0:0:
256,192,76795,1,8,0:0:0:0:
256,192,76885,1,8,0:0:0:0:
256,192,76974,1,0,0:0:0:0:
256,192,77063,1,8,0:0:0:0:
256,192,77152,1,8,0:0:0:0:
256,192,77242,1,0,0:0:0:0:
256,192,77331,1,8,0:0:0:0:
256,192,77420,1,8,0:0:0:0:
256,192,77510,1,0,0:0:0:0:
256,192,77599,1,0,0:0:0:0:
256,192,77688,1,8,0:0:0:0:
256,192,77777,1,0,0:0:0:0:
256,192,77867,1,8,0:0:0:0:
256,192,77956,1,8,0:0:0:0:
256,192,78045,1,0,0:0:0:0:
256,192,78135,1,0,0:0:0:0:
256,192,78224,1,8,0:0:0:0:
256,192,78313,1,0,0:0:0:0:
256,192,78402,1,0,0:0:0:0:
256,192,78492,1,8,0:0:0:0:
256,192,78581,1,0,0:0:0:0:
256,192,78670,1,0,0:0:0:0:
256,192,78760,1,8,0:0:0:0:
256,192,78819,1,0,0:0:0:0:
256,192,78879,1,0,0:0:0:0:
256,192,78938,1,0,0:0:0:0:
256,192,79027,1,0,0:0:0:0:
256,192,79117,1,8,0:0:0:0:
256,192,79206,1,0,0:0:0:0:
256,192,79295,1,8,0:0:0:0:
256,192,79385,1,8,0:0:0:0:
256,192,79474,1,0,0:0:0:0:
256,192,79563,1,0,0:0:0:0:
256,192,79652,1,8,0:0:0:0:
256,192,79742,1,8,0:0:0:0:
256,192,79831,1,0,0:0:0:0:
256,192,79920,1,8,0:0:0:0:
256,192,80010,1,8,0:0:0:0:
256,192,80099,1,0,0:0:0:0:
256,192,80188,1,8,0:0:0:0:
256,192,80248,1,8,0:0:0:0:
256,192,80307,1,8,0:0:0:0:
256,192,80367,1,0,0:0:0:0:
256,192,80456,1,0,0:0:0:0:
256,192,80545,1,8,0:0:0:0:
256,192,80635,1,0,0:0:0:0:
256,192,80724,1,8,0:0:0:0:
256,192,80813,1,8,0:0:0:0:
256,192,80902,1,0,0:0:0:0:
256,192,80992,1,0,0:0:0:0:
256,192,81081,1,8,0:0:0:0:
256,192,81170,1,0,0:0:0:0:
256,192,81260,1,0,0:0:0:0:
256,192,81349,1,8,0:0:0:0:
256,192,81438,1,0,0:0:0:0:
256,192,81527,1,0,0:0:0:0:
256,192,81617,1,8,0:0:0:0:
256,192,81676,1,0,0:0:0:0:
256,192,81736,1,0,0:0:0:0:
256,192,81795,1,0,0:0:0:0:
256,192,81885,1,0,0:0:0:0:
256,192,81974,1,8,0:0:0:0:
256,192,82063,1,0,0:0:0:0:
256,192,82152,1,8,0:0:0:0:
256,192,82242,1,8,0:0:0:0:
256,192,82331,1,0,0:0:0:0:
256,192,82420,1,0,0:0:0:0:
256,192,82510,1,8,0:0:0:0:
256,192,82599,1,8,0:0:0:0:
256,192,82688,1,0,0:0:0:0:
256,192,82777,1,8,0:0:0:0:
256,192,82867,1,8,0:0:0:0:
256,192,82956,1,0,0:0:0:0:
256,192,83045,1,8,0:0:0:0:
256,192,83105,1,8,0:0:0:0:
256,192,83164,1,8,0:0:0:0:
256,192,83224,1,0,0:0:0:0:
256,192,83402,1,0,0:0:0:0:
256,192,83581,1,8,0:0:0:0:
256,192,83760,1,0,0:0:0:0:
256,192,83849,1,8,0:0:0:0:
256,192,84027,1,0,0:0:0:0:
256,192,84117,1,8,0:0:0:0:
256,192,84295,1,0,0:0:0:0:
256,192,84474,1,8,0:0:0:0:
256,192,84652,1,8,0:0:0:0:
256,192,84831,1,0,0:0:0:0:
256,192,85010,1,8,0:0:0:0:
256,192,85188,1,0,0:0:0:0:
256,192,85277,1,8,0:0:0:0:
256,192,85456,1,0,0:0:0:0:
256,192,85545,1,8,0:0:0:0:
256,192,85724,1,0,0:0:0:0:
256,192,85902,1,8,0:0:0:0:
256,192,86081,1,8,0:0:0:0:
256,192,86260,1,0,0:0:0:0:
256,192,86438,1,8,0:0:0:0:
256,192,86617,1,0,0:0:0:0:
256,192,86706,1,8,0:0:0:0:
256,192,86795,1,0,0:0:0:0:
256,192,86930,1,8,0:0:0:0:
256,192,87063,1,0,0:0:0:0:
256,192,87152,1,8,0:0:0:0:
256,192,87331,1,0,0:0:0:0:
256,192,87510,1,8,0:0:0:0:
256,192,87599,1,8,0:0:0:0:
256,192,87688,1,8,0:0:0:0:
256,192,87777,1,8,0:0:0:0:
256,192,87867,1,0,0:0:0:0:
256,192,88045,1,8,0:0:0:0:
256,192,88135,1,0,0:0:0:0:
256,192,88224,1,8,0:0:0:0:
256,192,88402,1,8,0:0:0:0:
256,192,88492,1,8,0:0:0:0:
256,192,88670,1,0,0:0:0:0:
256,192,88760,1,8,0:0:0:0:
256,192,88849,1,8,0:0:0:0:
256,192,88938,1,0,0:0:0:0:
256,192,89117,1,0,0:0:0:0:
256,192,89295,1,8,0:0:0:0:
256,192,89474,1,0,0:0:0:0:
256,192,89563,1,8,0:0:0:0:
256,192,89742,1,0,0:0:0:0:
256,192,89831,1,8,0:0:0:0:
256,192,90010,1,8,0:0:0:0:
256,192,90188,1,0,0:0:0:0:
256,192,90367,1,0,0:0:0:0:
256,192,90545,1,0,0:0:0:0:
256,192,90724,1,8,0:0:0:0:
256,192,90902,1,8,0:0:0:0:
256,192,90992,1,0,0:0:0:0:
256,192,91170,1,0,0:0:0:0:
256,192,91260,1,8,0:0:0:0:
256,192,91438,1,8,0:0:0:0:
256,192,91617,1,0,0:0:0:0:
256,192,91795,1,0,0:0:0:0:
256,192,91974,1,0,0:0:0:0:
256,192,92152,1,8,0:0:0:0:
256,192,92331,1,8,0:0:0:0:
256,192,92420,1,0,0:0:0:0:
256,192,92599,1,8,0:0:0:0:
256,192,92688,1,8,0:0:0:0:
256,192,92867,1,8,0:0:0:0:
256,192,93045,1,0,0:0:0:0:
256,192,93224,1,8,0:0:0:0:
256,192,93313,1,8,0:0:0:0:
256,192,93402,1,8,0:0:0:0:
256,192,93463,1,8,0:0:0:0:
256,192,93523,1,8,0:0:0:0:
256,192,93581,1,0,0:0:0:0:
256,192,93760,1,8,0:0:0:0:
256,192,93850,1,8,0:0:0:0:
256,192,93938,1,8,0:0:0:0:
256,192,94028,5,8,0:0:0:0:
256,192,94117,1,0,0:0:0:0:
256,192,94206,1,8,0:0:0:0:
256,192,94295,1,0,0:0:0:0:
256,192,94385,1,0,0:0:0:0:
256,192,94474,1,8,0:0:0:0:
256,192,94563,1,8,0:0:0:0:
256,192,94652,1,0,0:0:0:0:
256,192,94831,1,8,0:0:0:0:
256,192,94920,1,0,0:0:0:0:
256,192,95010,1,0,0:0:0:0:
256,192,95099,1,0,0:0:0:0:
256,192,95188,1,8,0:0:0:0:
256,192,95367,1,0,0:0:0:0:
256,192,95456,1,0,0:0:0:0:
256,192,95545,1,8,0:0:0:0:
256,192,95635,1,0,0:0:0:0:
256,192,95813,1,0,0:0:0:0:
256,192,95902,1,8,0:0:0:0:
256,192,95992,1,8,0:0:0:0:
256,192,96081,1,0,0:0:0:0:
256,192,96260,1,8,0:0:0:0:
256,192,96349,1,0,0:0:0:0:
256,192,96438,1,0,0:0:0:0:
256,192,96527,1,0,0:0:0:0:
256,192,96617,1,8,0:0:0:0:
256,192,96795,1,0,0:0:0:0:
256,192,96885,1,0,0:0:0:0:
256,192,96974,1,8,0:0:0:0:
256,192,97063,1,0,0:0:0:0:
256,192,97242,1,0,0:0:0:0:
256,192,97331,1,8,0:0:0:0:
256,192,97420,1,8,0:0:0:0:
256,192,97510,1,0,0:0:0:0:
256,192,97688,1,8,0:0:0:0:
256,192,97777,1,0,0:0:0:0:
256,192,97867,1,0,0:0:0:0:
256,192,97956,1,0,0:0:0:0:
256,192,98045,1,8,0:0:0:0:
256,192,98224,1,8,0:0:0:0:
256,192,98313,1,0,0:0:0:0:
256,192,98402,1,0,0:0:0:0:
256,192,98492,1,8,0:0:0:0:
256,192,98581,1,0,0:0:0:0:
256,192,98670,1,0,0:0:0:0:
256,192,98760,1,8,0:0:0:0:
256,192,98849,1,0,0:0:0:0:
256,192,98938,1,8,0:0:0:0:
256,192,99027,1,8,0:0:0:0:
256,192,99117,1,0,0:0:0:0:
256,192,99206,1,8,0:0:0:0:
256,192,99295,1,8,0:0:0:0:
256,192,99385,1,0,0:0:0:0:
256,192,99474,1,8,0:0:0:0:
256,192,99563,1,0,0:0:0:0:
256,192,99652,1,8,0:0:0:0:
256,192,99831,1,8,0:0:0:0:
256,192,99920,1,8,0:0:0:0:
256,192,100010,1,8,0:0:0:0:
256,192,100188,1,8,0:0:0:0:
256,192,100367,1,4,0:0:0:0:
256,192,100545,1,0,0:0:0:0:
256,192,100635,1,0,0:0:0:0:
256,192,100813,1,0,0:0:0:0:
256,192,100902,1,8,0:0:0:0:
256,192,100992,1,0,0:0:0:0:
256,192,101081,1,8,0:0:0:0:
256,192,101260,1,0,0:0:0:0:
256,192,101349,1,0,0:0:0:0:
256,192,101438,1,12,0:0:0:0:
256,192,101617,1,12,0:0:0:0:
256,192,101795,1,4,0:0:0:0:
256,192,101974,1,0,0:0:0:0:
256,192,102063,1,0,0:0:0:0:
256,192,102242,1,0,0:0:0:0:
256,192,102331,1,8,0:0:0:0:
256,192,102420,1,0,0:0:0:0:
256,192,102510,1,8,0:0:0:0:
256,192,102688,1,0,0:0:0:0:
256,192,102777,1,0,0:0:0:0:
256,192,102868,1,12,0:0:0:0:
256,192,103045,1,4,0:0:0:0:
256,192,103224,1,4,0:0:0:0:
256,192,103402,1,0,0:0:0:0:
256,192,103492,1,8,0:0:0:0:
256,192,103670,1,0,0:0:0:0:
256,192,103760,1,8,0:0:0:0:
256,192,103938,1,8,0:0:0:0:
256,192,104027,1,0,0:0:0:0:
256,192,104117,1,8,0:0:0:0:
256,192,104206,1,0,0:0:0:0:
256,192,104295,1,8,0:0:0:0:
256,192,104385,1,0,0:0:0:0:
256,192,104474,1,8,0:0:0:0:
256,192,104563,1,8,0:0:0:0:
256,192,104652,1,0,0:0:0:0:
256,192,104712,1,0,0:0:0:0:
256,192,104772,1,0,0:0:0:0:
256,192,104831,1,8,0:0:0:0:
256,192,104920,1,8,0:0:0:0:
256,192,105010,1,0,0:0:0:0:
256,192,105069,1,0,0:0:0:0:
256,192,105129,1,0,0:0:0:0:
256,192,105188,1,8,0:0:0:0:
256,192,105277,1,8,0:0:0:0:
256,192,105367,1,0,0:0:0:0:
256,192,105426,1,0,0:0:0:0:
256,192,105486,1,0,0:0:0:0:
256,192,105545,1,8,0:0:0:0:
256,192,105635,1,8,0:0:0:0:
256,192,105724,1,0,0:0:0:0:
256,192,105783,1,0,0:0:0:0:
256,192,105843,1,0,0:0:0:0:
256,192,105902,1,8,0:0:0:0:
256,192,105962,1,8,0:0:0:0:
256,192,106022,1,8,0:0:0:0:
256,192,106081,1,4,0:0:0:0:
256,192,106170,1,8,0:0:0:0:
256,192,106260,1,0,0:0:0:0:
256,192,106438,1,8,0:0:0:0:
256,192,106617,1,0,0:0:0:0:
256,192,106795,1,8,0:0:0:0:
256,192,106974,1,8,0:0:0:0:
256,192,107152,1,8,0:0:0:0:
256,192,107331,1,0,0:0:0:0:
256,192,107510,1,4,0:0:0:0:
256,192,107599,1,8,0:0:0:0:
256,192,107688,1,0,0:0:0:0:
256,192,107867,1,8,0:0:0:0:
256,192,108045,1,0,0:0:0:0:
256,192,108224,1,8,0:0:0:0:
256,192,108402,1,8,0:0:0:0:
256,192,108581,1,0,0:0:0:0:
256,192,108760,1,8,0:0:0:0:
256,192,108849,1,8,0:0:0:0:
256,192,108938,1,4,0:0:0:0:
256,192,109027,1,8,0:0:0:0:
256,192,109117,1,0,0:0:0:0:
256,192,109295,1,8,0:0:0:0:
256,192,109474,1,0,0:0:0:0:
256,192,109652,1,8,0:0:0:0:
256,192,109831,1,8,0:0:0:0:
256,192,110010,1,8,0:0:0:0:
256,192,110188,1,0,0:0:0:0:
256,192,110367,1,4,0:0:0:0:
256,192,110456,1,8,0:0:0:0:
256,192,110545,1,0,0:0:0:0:
256,192,110724,1,8,0:0:0:0:
256,192,110902,1,0,0:0:0:0:
256,192,111081,1,8,0:0:0:0:
256,192,111260,1,8,0:0:0:0:
256,192,111438,1,8,0:0:0:0:
256,192,111527,1,8,0:0:0:0:
256,192,111617,1,8,0:0:0:0:
256,192,111706,1,8,0:0:0:0:
256,192,111795,1,4,0:0:0:0:
256,192,111885,1,8,0:0:0:0:
256,192,111974,1,0,0:0:0:0:
256,192,112152,1,8,0:0:0:0:
256,192,112331,1,0,0:0:0:0:
256,192,112510,1,8,0:0:0:0:
256,192,112688,1,8,0:0:0:0:
256,192,112867,1,8,0:0:0:0:
256,192,113045,1,0,0:0:0:0:
256,192,113224,1,4,0:0:0:0:
256,192,113313,1,8,0:0:0:0:
256,192,113402,1,0,0:0:0:0:
256,192,113581,1,8,0:0:0:0:
256,192,113760,1,0,0:0:0:0:
256,192,113938,1,8,0:0:0:0:
256,192,114117,1,8,0:0:0:0:
256,192,114295,1,0,0:0:0:0:
256,192,114474,1,8,0:0:0:0:
256,192,114563,1,8,0:0:0:0:
256,192,114652,1,4,0:0:0:0:
256,192,114742,1,8,0:0:0:0:
256,192,114831,1,0,0:0:0:0:
256,192,115010,1,8,0:0:0:0:
256,192,115188,1,0,0:0:0:0:
256,192,115367,1,8,0:0:0:0:
256,192,115545,1,8,0:0:0:0:
256,192,115724,1,8,0:0:0:0:
256,192,115902,1,0,0:0:0:0:
256,192,116081,1,8,0:0:0:0:
256,192,116170,1,0,0:0:0:0:
256,192,116260,1,8,0:0:0:0:
256,192,116349,1,8,0:0:0:0:
256,192,116438,1,8,0:0:0:0:
256,192,116527,1,0,0:0:0:0:
256,192,116617,1,8,0:0:0:0:
256,192,116706,1,8,0:0:0:0:
256,192,116795,1,0,0:0:0:0:
256,192,116885,1,0,0:0:0:0:
256,192,116974,1,8,0:0:0:0:
256,192,117063,1,0,0:0:0:0:
256,192,117152,1,8,0:0:0:0:
256,192,117242,1,0,0:0:0:0:
256,192,117331,1,0,0:0:0:0:
256,192,117420,1,8,0:0:0:0:
256,192,117510,5,0,0:0:0:0:
256,192,117599,1,0,0:0:0:0:
256,192,117688,1,8,0:0:0:0:
256,192,117777,1,0,0:0:0:0:
256,192,117867,1,8,0:0:0:0:
256,192,117956,1,8,0:0:0:0:
256,192,118045,1,0,0:0:0:0:
256,192,118135,1,0,0:0:0:0:
256,192,118224,1,8,0:0:0:0:
256,192,118313,1,0,0:0:0:0:
256,192,118402,1,0,0:0:0:0:
256,192,118492,1,8,0:0:0:0:
256,192,118581,1,0,0:0:0:0:
256,192,118670,1,0,0:0:0:0:
256,192,118760,1,8,0:0:0:0:
256,192,118819,1,0,0:0:0:0:
256,192,118879,1,0,0:0:0:0:
256,192,118938,1,0,0:0:0:0:
256,192,119027,1,0,0:0:0:0:
256,192,119117,1,8,0:0:0:0:
256,192,119206,1,0,0:0:0:0:
256,192,119295,1,8,0:0:0:0:
256,192,119385,1,8,0:0:0:0:
256,192,119474,1,0,0:0:0:0:
256,192,119563,1,0,0:0:0:0:
256,192,119652,1,8,0:0:0:0:
256,192,119742,1,8,0:0:0:0:
256,192,119831,1,0,0:0:0:0:
256,192,119920,1,8,0:0:0:0:
256,192,120010,1,8,0:0:0:0:
256,192,120099,1,0,0:0:0:0:
256,192,120188,1,8,0:0:0:0:
256,192,120248,1,8,0:0:0:0:
256,192,120307,1,8,0:0:0:0:
256,192,120367,1,0,0:0:0:0:
256,192,120456,1,0,0:0:0:0:
256,192,120545,1,8,0:0:0:0:
256,192,120635,1,0,0:0:0:0:
256,192,120724,1,8,0:0:0:0:
256,192,120813,1,8,0:0:0:0:
256,192,120902,1,0,0:0:0:0:
256,192,120992,1,0,0:0:0:0:
256,192,121081,1,8,0:0:0:0:
256,192,121170,1,0,0:0:0:0:
256,192,121260,1,0,0:0:0:0:
256,192,121349,1,8,0:0:0:0:
256,192,121438,1,0,0:0:0:0:
256,192,121527,1,0,0:0:0:0:
256,192,121617,1,8,0:0:0:0:
256,192,121676,1,0,0:0:0:0:
256,192,121736,1,0,0:0:0:0:
256,192,121795,1,0,0:0:0:0:
256,192,121885,1,0,0:0:0:0:
256,192,121974,1,8,0:0:0:0:
256,192,122063,1,0,0:0:0:0:
256,192,122152,1,8,0:0:0:0:
256,192,122242,1,8,0:0:0:0:
256,192,122331,1,0,0:0:0:0:
256,192,122420,1,0,0:0:0:0:
256,192,122510,1,8,0:0:0:0:
256,192,122599,1,8,0:0:0:0:
256,192,122688,1,0,0:0:0:0:
256,192,122777,1,8,0:0:0:0:
256,192,122867,1,8,0:0:0:0:
256,192,122956,1,0,0:0:0:0:
256,192,123045,1,8,0:0:0:0:
256,192,123105,1,8,0:0:0:0:
256,192,123164,1,8,0:0:0:0:
256,192,123224,1,0,0:0:0:0:
256,192,123313,1,0,0:0:0:0:
256,192,123402,1,8,0:0:0:0:
256,192,123492,1,0,0:0:0:0:
256,192,123581,1,8,0:0:0:0:
256,192,123670,1,8,0:0:0:0:
256,192,123760,1,0,0:0:0:0:
256,192,123849,1,0,0:0:0:0:
256,192,123938,1,8,0:0:0:0:
256,192,123998,1,0,0:0:0:0:
256,192,124057,1,0,0:0:0:0:
256,192,124117,1,0,0:0:0:0:
256,192,124206,1,8,0:0:0:0:
256,192,124266,1,0,0:0:0:0:
256,192,124325,1,0,0:0:0:0:
256,192,124385,1,0,0:0:0:0:
256,192,124474,1,8,0:0:0:0:
256,192,124533,1,0,0:0:0:0:
256,192,124593,1,0,0:0:0:0:
256,192,124652,1,0,0:0:0:0:
256,192,124742,1,0,0:0:0:0:
256,192,124831,1,8,0:0:0:0:
256,192,124920,1,0,0:0:0:0:
256,192,125010,1,8,0:0:0:0:
256,192,125099,1,8,0:0:0:0:
256,192,125188,1,0,0:0:0:0:
256,192,125277,1,0,0:0:0:0:
256,192,125367,1,8,0:0:0:0:
256,192,125426,1,8,0:0:0:0:
256,192,125486,1,8,0:0:0:0:
256,192,125545,1,0,0:0:0:0:
256,192,125635,1,8,0:0:0:0:
256,192,125694,1,8,0:0:0:0:
256,192,125754,1,8,0:0:0:0:
256,192,125813,1,0,0:0:0:0:
256,192,125902,1,8,0:0:0:0:
256,192,125962,1,8,0:0:0:0:
256,192,126022,1,8,0:0:0:0:
256,192,126081,1,0,0:0:0:0:
256,192,126170,1,0,0:0:0:0:
256,192,126260,1,8,0:0:0:0:
256,192,126349,1,0,0:0:0:0:
256,192,126438,1,8,0:0:0:0:
256,192,126527,1,8,0:0:0:0:
256,192,126617,1,0,0:0:0:0:
256,192,126706,1,0,0:0:0:0:
256,192,126795,1,8,0:0:0:0:
256,192,126855,1,0,0:0:0:0:
256,192,126914,1,0,0:0:0:0:
256,192,126974,1,0,0:0:0:0:
256,192,127063,1,8,0:0:0:0:
256,192,127123,1,0,0:0:0:0:
256,192,127182,1,0,0:0:0:0:
256,192,127242,1,0,0:0:0:0:
256,192,127331,1,8,0:0:0:0:
256,192,127391,1,0,0:0:0:0:
256,192,127450,1,0,0:0:0:0:
256,192,127510,1,0,0:0:0:0:
256,192,127599,1,0,0:0:0:0:
256,192,127688,1,8,0:0:0:0:
256,192,127777,1,0,0:0:0:0:
256,192,127867,1,8,0:0:0:0:
256,192,127956,1,8,0:0:0:0:
256,192,128045,1,0,0:0:0:0:
256,192,128135,5,0,0:0:0:0:
256,192,128224,1,8,0:0:0:0:
256,192,128313,1,8,0:0:0:0:
256,192,128402,1,0,0:0:0:0:
256,192,128492,1,0,0:0:0:0:
256,192,128581,1,8,0:0:0:0:
256,192,128640,1,0,0:0:0:0:
256,192,128700,1,0,0:0:0:0:
256,192,128760,1,8,0:0:0:0:
256,192,128819,1,8,0:0:0:0:
256,192,128880,1,0,0:0:0:0:
256,192,128939,1,8,0:0:0:0:
256,192,128999,1,8,0:0:0:0:
256,192,129295,5,8,0:0:0:0:
256,192,129355,1,8,0:0:0:0:
256,192,129414,1,8,0:0:0:0:
256,192,129474,1,8,0:0:0:0:
256,192,129533,1,8,0:0:0:0:
256,192,129593,1,8,0:0:0:0:
256,192,129652,1,0,0:0:0:0:
256,192,129830,1,0,0:0:0:0:
256,192,130009,1,0,0:0:0:0:
256,192,130187,1,8,0:0:0:0:
256,192,130366,1,8,0:0:0:0:
256,192,130544,1,0,0:0:0:0:
256,192,130634,1,0,0:0:0:0:
256,192,130723,1,8,0:0:0:0:
256,192,130902,1,8,0:0:0:0:
256,192,131080,1,0,0:0:0:0:
256,192,131169,1,0,0:0:0:0:
256,192,131259,1,8,0:0:0:0:
256,192,131348,1,8,0:0:0:0:
256,192,131437,1,0,0:0:0:0:
256,192,131616,1,8,0:0:0:0:
256,192,131675,1,8,0:0:0:0:
256,192,131735,1,8,0:0:0:0:
256,192,131794,1,0,0:0:0:0:
256,192,131884,1,0,0:0:0:0:
256,192,131973,1,8,0:0:0:0:
256,192,132062,1,8,0:0:0:0:
256,192,132152,1,0,0:0:0:0:
256,192,132330,1,8,0:0:0:0:
256,192,132390,1,8,0:0:0:0:
256,192,132449,1,8,0:0:0:0:
256,192,132509,1,0,0:0:0:0:
256,192,132598,1,0,0:0:0:0:
256,192,132687,1,0,0:0:0:0:
256,192,132777,1,0,0:0:0:0:
256,192,132866,1,8,0:0:0:0:
256,192,133044,1,8,0:0:0:0:
256,192,133134,1,0,0:0:0:0:
256,192,133223,1,8,0:0:0:0:
256,192,133312,1,0,0:0:0:0:
256,192,133402,1,0,0:0:0:0:
256,192,133491,1,8,0:0:0:0:
256,192,133580,1,0,0:0:0:0:
256,192,133669,1,0,0:0:0:0:
256,192,133759,1,8,0:0:0:0:
256,192,133848,1,0,0:0:0:0:
256,192,133937,1,8,0:0:0:0:
256,192,134027,1,8,0:0:0:0:
256,192,134116,1,8,0:0:0:0:
256,192,134205,1,8,0:0:0:0:
256,192,134294,1,8,0:0:0:0:
256,192,134473,1,8,0:0:0:0:
256,192,134562,1,0,0:0:0:0:
256,192,134652,1,8,0:0:0:0:
256,192,134741,1,8,0:0:0:0:
256,192,134830,1,8,0:0:0:0:
256,192,135009,1,8,0:0:0:0:
256,192,135068,1,8,0:0:0:0:
256,192,135128,1,8,0:0:0:0:
256,192,135187,1,8,0:0:0:0:
256,192,135247,1,8,0:0:0:0:
256,192,135306,1,8,0:0:0:0:
256,192,135366,1,0,0:0:0:0:
256,192,135455,1,0,0:0:0:0:
256,192,135634,1,0,0:0:0:0:
256,192,135723,1,8,0:0:0:0:
256,192,135902,1,0,0:0:0:0:
256,192,135991,1,0,0:0:0:0:
256,192,136080,1,8,0:0:0:0:
256,192,136169,1,8,0:0:0:0:
256,192,136259,1,0,0:0:0:0:
256,192,136348,1,8,0:0:0:0:
256,192,136437,1,8,0:0:0:0:
256,192,136527,1,0,0:0:0:0:
256,192,136616,1,8,0:0:0:0:
256,192,136675,1,8,0:0:0:0:
256,192,136735,1,8,0:0:0:0:
256,192,136794,1,0,0:0:0:0:
256,192,136884,1,0,0:0:0:0:
256,192,137062,1,0,0:0:0:0:
256,192,137152,1,8,0:0:0:0:
256,192,137330,1,0,0:0:0:0:
256,192,137419,1,0,0:0:0:0:
256,192,137509,1,8,0:0:0:0:
256,192,137598,1,8,0:0:0:0:
256,192,137777,1,0,0:0:0:0:
256,192,137866,1,8,0:0:0:0:
256,192,137955,1,8,0:0:0:0:
256,192,138044,1,8,0:0:0:0:
256,192,138223,1,0,0:0:0:0:
256,192,138312,1,0,0:0:0:0:
256,192,138402,1,0,0:0:0:0:
256,192,138580,1,8,0:0:0:0:
256,192,138669,1,8,0:0:0:0:
256,192,138759,1,8,0:0:0:0:
256,192,138937,1,0,0:0:0:0:
256,192,138997,1,0,0:0:0:0:
256,192,139056,1,0,0:0:0:0:
256,192,139116,1,0,0:0:0:0:
256,192,139294,1,8,0:0:0:0:
256,192,139354,1,8,0:0:0:0:
256,192,139413,1,8,0:0:0:0:
256,192,139473,1,8,0:0:0:0:
256,192,139652,1,8,0:0:0:0:
256,192,139741,1,0,0:0:0:0:
256,192,139830,1,0,0:0:0:0:
256,192,139919,1,8,0:0:0:0:
256,192,140009,1,0,0:0:0:0:
256,192,140098,1,0,0:0:0:0:
256,192,140187,1,8,0:0:0:0:
256,192,140277,1,8,0:0:0:0:
256,192,140366,1,8,0:0:0:0:
256,192,140455,1,0,0:0:0:0:
256,192,140544,1,0,0:0:0:0:
256,192,140634,1,8,0:0:0:0:
256,192,140723,1,0,0:0:0:0:
256,192,140812,1,0,0:0:0:0:
256,192,140902,1,8,0:0:0:0:
256,192,140991,1,8,0:0:0:0:
256,192,141080,1,0,0:0:0:0:
256,192,141259,1,8,0:0:0:0:
256,192,141437,1,0,0:0:0:0:
256,192,141527,1,8,0:0:0:0:
256,192,141616,1,0,0:0:0:0:
256,192,141794,1,8,0:0:0:0:
256,192,141884,1,8,0:0:0:0:
256,192,141974,1,0,0:0:0:0:
256,192,142062,1,8,0:0:0:0:
256,192,142152,1,8,0:0:0:0:
256,192,142242,1,0,0:0:0:0:
256,192,142330,1,8,0:0:0:0:
256,192,142419,1,0,0:0:0:0:
256,192,142509,1,8,0:0:0:0:
256,192,142598,1,0,0:0:0:0:
256,192,142777,1,8,0:0:0:0:
256,192,142866,1,0,0:0:0:0:
256,192,143044,1,0,0:0:0:0:
256,192,143134,1,8,0:0:0:0:
256,192,143223,1,8,0:0:0:0:
256,192,143312,1,8,0:0:0:0:
256,192,143402,1,8,0:0:0:0:
256,192,143491,1,8,0:0:0:0:
256,192,143580,1,0,0:0:0:0:
256,192,143640,1,8,0:0:0:0:
256,192,143699,1,8,0:0:0:0:
256,192,143759,1,8,0:0:0:0:
256,192,143818,1,8,0:0:0:0:
256,192,143878,1,8,0:0:0:0:
256,192,143937,1,0,0:0:0:0:
256,192,144027,1,8,0:0:0:0:
256,192,144116,1,8,0:0:0:0:
256,192,144205,1,8,0:0:0:0:
256,192,144294,1,0,0:0:0:0:
256,192,144384,1,8,0:0:0:0:
256,192,144473,1,8,0:0:0:0:
256,192,144562,1,8,0:0:0:0:
256,192,144652,1,0,0:0:0:0:
256,192,144741,1,8,0:0:0:0:
256,192,144830,1,8,0:0:0:0:
256,192,144919,1,8,0:0:0:0:
256,192,145009,1,0,0:0:0:0:
256,192,145098,1,0,0:0:0:0:
256,192,145187,1,8,0:0:0:0:
256,192,145277,1,8,0:0:0:0:
256,192,145366,1,8,0:0:0:0:
256,192,145455,1,8,0:0:0:0:
256,192,145544,1,8,0:0:0:0:
256,192,145634,1,8,0:0:0:0:
256,192,145723,1,8,0:0:0:0:
256,192,145902,1,0,0:0:0:0:
256,192,145991,1,8,0:0:0:0:
256,192,146169,1,0,0:0:0:0:
256,192,146259,1,8,0:0:0:0:
256,192,146437,1,8,0:0:0:0:
256,192,146616,1,0,0:0:0:0:
256,192,146794,1,8,0:0:0:0:
256,192,146854,1,8,0:0:0:0:
256,192,146913,1,8,0:0:0:0:
256,192,146973,1,8,0:0:0:0:
256,192,147092,1,8,0:0:0:0:
256,192,147152,1,8,0:0:0:0:
256,192,147241,1,0,0:0:0:0:
256,192,147330,1,8,0:0:0:0:
256,192,147419,1,0,0:0:0:0:
256,192,147509,1,8,0:0:0:0:
256,192,147598,1,8,0:0:0:0:
256,192,147687,1,0,0:0:0:0:
256,192,147777,1,8,0:0:0:0:
256,192,147866,1,8,0:0:0:0:
256,192,147955,1,0,0:0:0:0:
256,192,148044,1,8,0:0:0:0:
256,192,148104,1,0,0:0:0:0:
256,192,148163,1,0,0:0:0:0:
256,192,148223,1,8,0:0:0:0:
256,192,148282,1,8,0:0:0:0:
256,192,148342,1,8,0:0:0:0:
256,192,148402,1,8,0:0:0:0:
256,192,148521,1,8,0:0:0:0:
256,192,148580,1,8,0:0:0:0:
256,192,148669,1,0,0:0:0:0:
256,192,148759,1,8,0:0:0:0:
256,192,148848,1,0,0:0:0:0:
256,192,148937,1,8,0:0:0:0:
256,192,149027,1,8,0:0:0:0:
256,192,149116,1,0,0:0:0:0:
256,192,149205,1,8,0:0:0:0:
256,192,149294,1,8,0:0:0:0:
256,192,149384,1,0,0:0:0:0:
256,192,149473,1,8,0:0:0:0:
256,192,149532,1,8,0:0:0:0:
256,192,149592,1,8,0:0:0:0:
256,192,149652,1,0,0:0:0:0:
256,192,149711,1,0,0:0:0:0:
256,192,149771,1,0,0:0:0:0:
256,192,149830,1,8,0:0:0:0:
256,192,150009,1,0,0:0:0:0:
256,192,150068,1,0,0:0:0:0:
256,192,150128,1,0,0:0:0:0:
256,192,150187,1,8,0:0:0:0:
256,192,150366,1,0,0:0:0:0:
256,192,150425,1,0,0:0:0:0:
256,192,150485,1,0,0:0:0:0:
256,192,150544,1,8,0:0:0:0:
256,192,150723,1,0,0:0:0:0:
256,192,150782,1,0,0:0:0:0:
256,192,150842,1,0,0:0:0:0:
256,192,150902,1,8,0:0:0:0:
256,192,151080,1,8,0:0:0:0:
256,192,151169,1,8,0:0:0:0:
256,192,151259,1,0,0:0:0:0:
256,192,151348,1,0,0:0:0:0:
256,192,151437,1,8,0:0:0:0:
256,192,151527,1,0,0:0:0:0:
256,192,151616,1,8,0:0:0:0:
256,192,151705,1,8,0:0:0:0:
256,192,151794,1,0,0:0:0:0:
256,192,151884,1,0,0:0:0:0:
256,192,151973,1,8,0:0:0:0:
256,192,152062,1,8,0:0:0:0:
256,192,152152,1,0,0:0:0:0:
256,192,152330,1,8,0:0:0:0:
256,192,152509,1,8,0:0:0:0:
256,192,152598,1,0,0:0:0:0:
256,192,152687,1,0,0:0:0:0:
256,192,152777,1,0,0:0:0:0:
256,192,152866,1,0,0:0:0:0:
256,192,152955,1,0,0:0:0:0:
256,192,153044,1,8,0:0:0:0:
256,192,153134,1,0,0:0:0:0:
256,192,153223,1,8,0:0:0:0:
256,192,153312,1,8,0:0:0:0:
256,192,153402,1,8,0:0:0:0:
256,192,153491,1,8,0:0:0:0:
256,192,153580,1,8,0:0:0:0:
256,192,153669,1,8,0:0:0:0:
256,192,153759,1,8,0:0:0:0:
256,192,153848,1,8,0:0:0:0:
256,192,153937,1,0,0:0:0:0:
256,192,154027,1,0,0:0:0:0:
256,192,154116,1,8,0:0:0:0:
256,192,154205,1,8,0:0:0:0:
256,192,154294,1,0,0:0:0:0:
256,192,154384,1,0,0:0:0:0:
256,192,154473,1,8,0:0:0:0:
256,192,154532,1,8,0:0:0:0:
256,192,154592,1,8,0:0:0:0:
256,192,154652,1,0,0:0:0:0:
256,192,154741,1,0,0:0:0:0:
256,192,154830,1,8,0:0:0:0:
256,192,154919,1,8,0:0:0:0:
256,192,155009,1,0,0:0:0:0:
256,192,155098,1,0,0:0:0:0:
256,192,155187,1,8,0:0:0:0:
256,192,155247,1,8,0:0:0:0:
256,192,155306,1,8,0:0:0:0:
256,192,155366,1,0,0:0:0:0:
256,192,155455,1,0,0:0:0:0:
256,192,155544,1,8,0:0:0:0:
256,192,155634,1,0,0:0:0:0:
256,192,155723,1,0,0:0:0:0:
256,192,155812,1,8,0:0:0:0:
256,192,155902,1,0,0:0:0:0:
256,192,155992,1,0,0:0:0:0:
256,192,156080,1,8,0:0:0:0:
256,192,156170,1,8,0:0:0:0:
256,192,156260,1,0,0:0:0:0:
256,192,156348,1,8,0:0:0:0:
256,192,156437,1,0,0:0:0:0:
256,192,156527,1,0,0:0:0:0:
256,192,156616,1,8,0:0:0:0:
256,192,156705,1,0,0:0:0:0:
256,192,156794,1,8,0:0:0:0:
256,192,156884,1,8,0:0:0:0:
256,192,156973,1,8,0:0:0:0:
256,192,157062,1,8,0:0:0:0:
256,192,157152,1,0,0:0:0:0:
256,192,157241,1,0,0:0:0:0:
256,192,157330,1,8,0:0:0:0:
256,192,157419,1,0,0:0:0:0:
256,192,157509,1,8,0:0:0:0:
256,192,157598,1,8,0:0:0:0:
256,192,157687,1,8,0:0:0:0:
256,192,157777,1,8,0:0:0:0:
256,192,157866,1,8,0:0:0:0:
256,192,157925,1,8,0:0:0:0:
256,192,157985,1,8,0:0:0:0:
256,192,158044,1,8,0:0:0:0:
256,192,158104,1,8,0:0:0:0:
256,192,158163,1,8,0:0:0:0:
256,192,158223,1,0,0:0:0:0:
256,192,158312,1,0,0:0:0:0:
256,192,158402,1,0,0:0:0:0:
256,192,158491,1,0,0:0:0:0:
256,192,158580,1,8,0:0:0:0:
256,192,158669,1,0,0:0:0:0:
256,192,158759,1,0,0:0:0:0:
256,192,158848,1,0,0:0:0:0:
256,192,158937,1,8,0:0:0:0:
256,192,159027,1,8,0:0:0:0:
256,192,159116,1,0,0:0:0:0:
256,192,159205,1,8,0:0:0:0:
256,192,159294,1,8,0:0:0:0:
256,192,159384,1,0,0:0:0:0:
256,192,159473,1,8,0:0:0:0:
256,192,159532,1,8,0:0:0:0:
256,192,159592,1,8,0:0:0:0:
256,192,159652,1,0,0:0:0:0:
256,192,159741,1,0,0:0:0:0:
256,192,159830,1,0,0:0:0:0:
256,192,159919,1,0,0:0:0:0:
256,192,160009,1,8,0:0:0:0:
256,192,160098,1,0,0:0:0:0:
256,192,160187,1,0,0:0:0:0:
256,192,160277,1,0,0:0:0:0:
256,192,160366,1,8,0:0:0:0:
256,192,160455,1,8,0:0:0:0:
256,192,160544,1,0,0:0:0:0:
256,192,160634,1,0,0:0:0:0:
256,192,160723,1,8,0:0:0:0:
256,192,160812,1,8,0:0:0:0:
256,192,160902,1,8,0:0:0:0:
256,192,160991,1,8,0:0:0:0:
256,192,161080,1,0,0:0:0:0:
256,192,161169,1,0,0:0:0:0:
256,192,161259,1,0,0:0:0:0:
256,192,161348,1,0,0:0:0:0:
256,192,161437,1,8,0:0:0:0:
256,192,161527,1,8,0:0:0:0:
256,192,161616,1,8,0:0:0:0:
256,192,161705,1,8,0:0:0:0:
256,192,161794,1,0,0:0:0:0:
256,192,161854,1,0,0:0:0:0:
256,192,161913,1,0,0:0:0:0:
256,192,161973,1,0,0:0:0:0:
256,192,162062,1,0,0:0:0:0:
256,192,162152,1,8,0:0:0:0:
256,192,162211,1,8,0:0:0:0:
256,192,162271,1,8,0:0:0:0:
256,192,162330,1,8,0:0:0:0:
256,192,162419,1,8,0:0:0:0:
256,192,162509,1,8,0:0:0:0:
256,192,162598,1,0,0:0:0:0:
256,192,162687,1,0,0:0:0:0:
256,192,162777,1,8,0:0:0:0:
256,192,162866,1,0,0:0:0:0:
256,192,162955,1,0,0:0:0:0:
256,192,163044,1,8,0:0:0:0:
256,192,163134,1,8,0:0:0:0:
256,192,163223,1,8,0:0:0:0:
256,192,163312,1,0,0:0:0:0:
256,192,163402,1,0,0:0:0:0:
256,192,163491,1,8,0:0:0:0:
256,192,163580,1,0,0:0:0:0:
256,192,163669,1,0,0:0:0:0:
256,192,163759,1,8,0:0:0:0:
256,192,163848,1,8,0:0:0:0:
256,192,163937,1,0,0:0:0:0:
256,192,164028,1,8,0:0:0:0:
256,192,164117,1,8,0:0:0:0:
256,192,164206,1,0,0:0:0:0:
256,192,164294,1,0,0:0:0:0:
256,192,164384,1,8,0:0:0:0:
256,192,164473,1,0,0:0:0:0:
256,192,164562,1,0,0:0:0:0:
256,192,164652,1,8,0:0:0:0:
256,192,164741,1,8,0:0:0:0:
256,192,164831,1,0,0:0:0:0:
256,192,164920,1,8,0:0:0:0:
256,192,165010,1,8,0:0:0:0:
256,192,165099,1,0,0:0:0:0:
256,192,165188,1,8,0:0:0:0:
256,192,165277,1,0,0:0:0:0:
256,192,165367,1,8,0:0:0:0:
256,192,165455,1,0,0:0:0:0:
256,192,165544,1,0,0:0:0:0:
256,192,165634,1,8,0:0:0:0:
256,192,165723,1,8,0:0:0:0:
256,192,165813,1,0,0:0:0:0:
256,192,165902,1,0,0:0:0:0:
256,192,165991,1,8,0:0:0:0:
256,192,166080,1,8,0:0:0:0:
256,192,166169,1,8,0:0:0:0:
256,192,166259,1,8,0:0:0:0:
256,192,166348,1,0,0:0:0:0:
256,192,166437,1,0,0:0:0:0:
256,192,166497,1,8,0:0:0:0:
256,192,166556,1,8,0:0:0:0:
256,192,166616,1,8,0:0:0:0:
256,192,166675,1,8,0:0:0:0:
256,192,166735,1,8,0:0:0:0:
256,192,166794,1,0,0:0:0:0:
256,192,166884,1,8,0:0:0:0:
256,192,166973,1,8,0:0:0:0:
256,192,167062,1,8,0:0:0:0:
256,192,167152,1,0,0:0:0:0:
256,192,167241,1,8,0:0:0:0:
256,192,167330,1,8,0:0:0:0:
256,192,167419,1,8,0:0:0:0:
256,192,167509,1,0,0:0:0:0:
256,192,167598,1,8,0:0:0:0:
256,192,167687,1,8,0:0:0:0:
256,192,167777,1,8,0:0:0:0:
256,192,167866,1,0,0:0:0:0:
256,192,167955,1,8,0:0:0:0:
256,192,168044,1,0,0:0:0:0:
256,192,168134,1,8,0:0:0:0:
256,192,168223,1,8,0:0:0:0:
256,192,168312,1,8,0:0:0:0:
256,192,168402,1,8,0:0:0:0:
256,192,168491,1,8,0:0:0:0:
256,192,168580,1,8,0:0:0:0:
256,192,168669,1,0,0:0:0:0:
256,192,168759,1,0,0:0:0:0:
256,192,168848,1,8,0:0:0:0:
256,192,168937,1,8,0:0:0:0:
256,192,169027,1,0,0:0:0:0:
256,192,169116,1,8,0:0:0:0:
256,192,169206,1,8,0:0:0:0:
256,192,169295,1,8,0:0:0:0:
256,192,169384,1,0,0:0:0:0:
256,192,169473,1,0,0:0:0:0:
256,192,169562,1,0,0:0:0:0:
256,192,169652,1,8,0:0:0:0:
256,192,169711,1,8,0:0:0:0:
256,192,169771,1,8,0:0:0:0:
256,192,169890,1,8,0:0:0:0:
256,192,169949,1,8,0:0:0:0:
256,192,170009,1,8,0:0:0:0:
256,192,170128,1,8,0:0:0:0:
256,192,170187,1,8,0:0:0:0:
256,192,170247,1,0,0:0:0:0:
256,192,170366,1,8,0:0:0:0:
256,192,170455,1,8,0:0:0:0:
256,192,170544,1,0,0:0:0:0:
256,192,170634,1,8,0:0:0:0:
256,192,170723,1,8,0:0:0:0:
256,192,170812,1,0,0:0:0:0:
256,192,170901,1,8,0:0:0:0:
256,192,170961,1,0,0:0:0:0:
256,192,171021,1,0,0:0:0:0:
256,192,171080,1,8,0:0:0:0:
256,192,171140,1,8,0:0:0:0:
256,192,171199,1,8,0:0:0:0:
256,192,171318,1,8,0:0:0:0:
256,192,171378,1,8,0:0:0:0:
256,192,171437,1,8,0:0:0:0:
256,192,171556,1,8,0:0:0:0:
256,192,171616,1,8,0:0:0:0:
256,192,171675,1,0,0:0:0:0:
256,192,171794,1,8,0:0:0:0:
256,192,171884,1,8,0:0:0:0:
256,192,171973,1,0,0:0:0:0:
256,192,172062,1,8,0:0:0:0:
256,192,172151,1,8,0:0:0:0:
256,192,172241,1,0,0:0:0:0:
256,192,172330,1,8,0:0:0:0:
256,192,172390,1,0,0:0:0:0:
256,192,172449,1,0,0:0:0:0:
256,192,172509,1,8,0:0:0:0:
256,192,172687,1,8,0:0:0:0:
256,192,172866,1,8,0:0:0:0:
256,192,172985,1,8,0:0:0:0:
256,192,173104,1,8,0:0:0:0:
256,192,173223,1,8,0:0:0:0:
256,192,173312,1,8,0:0:0:0:
256,192,173401,1,8,0:0:0:0:
256,192,173491,1,8,0:0:0:0:
256,192,173580,1,8,0:0:0:0:
256,192,173640,1,8,0:0:0:0:
256,192,173699,1,8,0:0:0:0:
256,192,173759,1,8,0:0:0:0:
256,192,173818,1,8,0:0:0:0:
256,192,173878,1,8,0:0:0:0:
256,192,173937,1,0,0:0:0:0:
256,192,173997,1,0,0:0:0:0:
256,192,174056,1,0,0:0:0:0:
256,192,174116,1,8,0:0:0:0:
256,192,174205,1,8,0:0:0:0:
256,192,174294,1,0,0:0:0:0:
256,192,174354,1,0,0:0:0:0:
256,192,174413,1,0,0:0:0:0:
256,192,174473,1,8,0:0:0:0:
256,192,174562,1,8,0:0:0:0:
256,192,174651,1,0,0:0:0:0:
256,192,174711,1,0,0:0:0:0:
256,192,174771,1,0,0:0:0:0:
256,192,174830,1,8,0:0:0:0:
256,192,174919,1,8,0:0:0:0:
256,192,175009,1,0,0:0:0:0:
256,192,175068,1,0,0:0:0:0:
256,192,175128,1,0,0:0:0:0:
256,192,175187,1,8,0:0:0:0:
256,192,175247,1,8,0:0:0:0:
256,192,175306,1,8,0:0:0:0:
256,192,175366,5,0,0:0:0:0:
256,192,175455,1,0,0:0:0:0:
256,192,175544,1,0,0:0:0:0:
256,192,175604,1,8,0:0:0:0:
256,192,175663,1,8,0:0:0:0:
256,192,175723,1,0,0:0:0:0:
256,192,175782,1,8,0:0:0:0:
256,192,175931,1,8,0:0:0:0:
256,192,176051,1,8,0:0:0:0:
256,192,176141,1,0,0:0:0:0:
256,192,176200,1,0,0:0:0:0:
256,192,176260,1,0,0:0:0:0:
256,192,176349,1,0,0:0:0:0:
256,192,176438,1,8,0:0:0:0:
256,192,176527,1,0,0:0:0:0:
256,192,176617,1,0,0:0:0:0:
256,192,176660,1,8,0:0:0:0:
256,192,176705,1,8,0:0:0:0:
256,192,176750,1,0,0:0:0:0:
256,192,176794,5,0,0:0:0:0:
256,192,176884,1,0,0:0:0:0:
256,192,176973,1,0,0:0:0:0:
256,192,177032,1,8,0:0:0:0:
256,192,177092,1,0,0:0:0:0:
256,192,177151,1,0,0:0:0:0:
256,192,177211,1,8,0:0:0:0:
256,192,177360,1,8,0:0:0:0:
256,192,177480,1,0,0:0:0:0:
256,192,177569,1,0,0:0:0:0:
256,192,177629,1,0,0:0:0:0:
256,192,177688,1,0,0:0:0:0:
256,192,177776,1,0,0:0:0:0:
256,192,177866,1,8,0:0:0:0:
256,192,177955,1,0,0:0:0:0:
256,192,178044,1,0,0:0:0:0:
256,192,178089,1,8,0:0:0:0:
256,192,178134,1,8,0:0:0:0:
256,192,178178,1,0,0:0:0:0:
256,192,178223,5,0,0:0:0:0:
256,192,178312,1,0,0:0:0:0:
256,192,178401,1,0,0:0:0:0:
256,192,178461,1,8,0:0:0:0:
256,192,178521,1,8,0:0:0:0:
256,192,178580,1,0,0:0:0:0:
256,192,178640,1,8,0:0:0:0:
256,192,178788,1,8,0:0:0:0:
256,192,178908,1,8,0:0:0:0:
256,192,178998,1,0,0:0:0:0:
256,192,179058,1,0,0:0:0:0:
256,192,179117,1,0,0:0:0:0:
256,192,179206,1,0,0:0:0:0:
256,192,179294,1,8,0:0:0:0:
256,192,179355,1,8,0:0:0:0:
256,192,179414,1,0,0:0:0:0:
256,192,179473,1,0,0:0:0:0:
256,192,179518,1,8,0:0:0:0:
256,192,179562,1,8,0:0:0:0:
256,192,179607,1,0,0:0:0:0:
256,192,179651,5,0,0:0:0:0:
256,192,179741,1,0,0:0:0:0:
256,192,179830,1,0,0:0:0:0:
256,192,179890,1,8,0:0:0:0:
256,192,179949,1,0,0:0:0:0:
256,192,180009,1,0,0:0:0:0:
256,192,180068,1,8,0:0:0:0:
256,192,180217,1,8,0:0:0:0:
256,192,180337,1,0,0:0:0:0:
256,192,180426,1,0,0:0:0:0:
256,192,180485,1,0,0:0:0:0:
256,192,180545,1,0,0:0:0:0:
256,192,180635,1,0,0:0:0:0:
256,192,180723,1,8,0:0:0:0:
256,192,180783,1,8,0:0:0:0:
256,192,180843,1,0,0:0:0:0:
256,192,180901,1,0,0:0:0:0:
256,192,180946,1,8,0:0:0:0:
256,192,180991,1,8,0:0:0:0:
256,192,181035,1,0,0:0:0:0:
256,192,181081,5,0,0:0:0:0:
256,192,181170,1,0,0:0:0:0:
256,192,181260,1,0,0:0:0:0:
256,192,181319,1,8,0:0:0:0:
256,192,181379,1,8,0:0:0:0:
256,192,181438,1,8,0:0:0:0:
256,192,181498,1,0,0:0:0:0:
256,192,181557,1,0,0:0:0:0:
256,192,181617,1,0,0:0:0:0:
256,192,181676,1,8,0:0:0:0:
256,192,181736,1,8,0:0:0:0:
256,192,181795,1,0,0:0:0:0:
256,192,181885,1,0,0:0:0:0:
256,192,181974,1,8,0:0:0:0:
256,192,182063,1,8,0:0:0:0:
256,192,182152,1,0,0:0:0:0:
256,192,182242,1,0,0:0:0:0:
256,192,182331,1,8,0:0:0:0:
256,192,182420,1,8,0:0:0:0:
256,192,182510,5,0,0:0:0:0:
256,192,182599,1,0,0:0:0:0:
256,192,182688,1,0,0:0:0:0:
256,192,182748,1,8,0:0:0:0:
256,192,182807,1,8,0:0:0:0:
256,192,182867,1,0,0:0:0:0:
256,192,182926,1,8,0:0:0:0:
256,192,182986,1,0,0:0:0:0:
256,192,183045,1,0,0:0:0:0:
256,192,183105,1,8,0:0:0:0:
256,192,183164,1,8,0:0:0:0:
256,192,183224,1,0,0:0:0:0:
256,192,183313,1,0,0:0:0:0:
256,192,183402,1,8,0:0:0:0:
256,192,183492,1,8,0:0:0:0:
256,192,183581,1,0,0:0:0:0:
256,192,183670,1,0,0:0:0:0:
256,192,183760,1,8,0:0:0:0:
256,192,183849,1,8,0:0:0:0:
256,192,183938,5,0,0:0:0:0:
256,192,184027,1,0,0:0:0:0:
256,192,184117,1,0,0:0:0:0:
256,192,184176,1,8,0:0:0:0:
256,192,184236,1,8,0:0:0:0:
256,192,184295,1,0,0:0:0:0:
256,192,184355,1,8,0:0:0:0:
256,192,184414,1,8,0:0:0:0:
256,192,184474,1,0,0:0:0:0:
256,192,184533,1,8,0:0:0:0:
256,192,184593,1,8,0:0:0:0:
256,192,184652,1,0,0:0:0:0:
256,192,184742,1,0,0:0:0:0:
256,192,184831,1,8,0:0:0:0:
256,192,184920,1,8,0:0:0:0:
256,192,185010,1,0,0:0:0:0:
256,192,185069,1,0,0:0:0:0:
256,192,185129,1,0,0:0:0:0:
256,192,185188,1,8,0:0:0:0:
256,192,185277,1,8,0:0:0:0:
256,192,185367,5,0,0:0:0:0:
256,192,185456,1,0,0:0:0:0:
256,192,185545,1,8,0:0:0:0:
256,192,185605,5,8,0:0:0:0:
256,192,185664,1,8,0:0:0:0:
256,192,185724,1,0,0:0:0:0:
256,192,185783,1,0,0:0:0:0:
256,192,185843,1,0,0:0:0:0:
256,192,185902,1,8,0:0:0:0:
256,192,185962,1,8,0:0:0:0:
256,192,186022,1,8,0:0:0:0:
256,192,186081,1,0,0:0:0:0:
256,192,186170,1,0,0:0:0:0:
256,192,186260,1,8,0:0:0:0:
256,192,186349,1,8,0:0:0:0:
256,192,186438,1,0,0:0:0:0:
256,192,186498,1,0,0:0:0:0:
256,192,186557,1,0,0:0:0:0:
256,192,186617,1,8,0:0:0:0:
256,192,186706,1,8,0:0:0:0:
256,192,186794,5,0,0:0:0:0:
256,192,186854,1,8,0:0:0:0:
256,192,186943,1,0,0:0:0:0:
256,192,187032,1,8,0:0:0:0:
256,192,187122,1,0,0:0:0:0:
256,192,187211,1,8,0:0:0:0:
256,192,187300,1,8,0:0:0:0:
256,192,187390,1,0,0:0:0:0:
256,192,187479,1,8,0:0:0:0:
256,192,187568,1,0,0:0:0:0:
256,192,187657,1,8,0:0:0:0:
256,192,187747,1,8,0:0:0:0:
256,192,187836,1,0,0:0:0:0:
256,192,187925,1,8,0:0:0:0:
256,192,188015,1,8,0:0:0:0:
256,192,188104,1,0,0:0:0:0:
256,192,188193,1,8,0:0:0:0:
256,192,188282,1,12,0:0:0:0:
