osu file format v14

[General]
AudioFilename: audio.mp3
AudioLeadIn: 1500
PreviewTime: 42418
Countdown: 0
SampleSet: Normal
StackLeniency: 0.7
Mode: 1
LetterboxInBreaks: 0
WidescreenStoryboard: 1

[Editor]
DistanceSpacing: 1.3
BeatDivisor: 4
GridSize: 32
TimelineZoom: 1.8

[Metadata]
Title:Connect - Jazz Funk Mix -
TitleUnicode:コネクト - Jazz Funk Mix -
Artist:ZuikakuP
ArtistUnicode:瑞鶴P
Creator:Backstep
Version:Oni
Source:魔法少女まどか☆マギカ
Tags:ずいかくP Claris Mahou Shoujo Madoka Magica
BeatmapID:1029943
BeatmapSetID:482695

[Difficulty]
HPDrainRate:6
CircleSize:2
OverallDifficulty:5
ApproachRate:5
SliderMultiplier:1.4
SliderTickRate:2

[Events]
//Background and Video events
0,0,"connect-BG.jpg",0,0
//Break Periods
//Storyboard Layer 0 (Background)
//Storyboard Layer 1 (Fail)
//Storyboard Layer 2 (Pass)
//Storyboard Layer 3 (Foreground)
//Storyboard Sound Samples

[TimingPoints]
98,315.822718180861,4,1,0,60,1,0
42418,-95.2380952380952,4,1,0,60,0,0
43049,-95.2380952380952,4,1,0,60,0,1
63262,-90.9090909090909,4,1,0,60,0,0

[HitObjects]
192,160,98,5,0,0:0:0:0:
192,160,729,1,0,0:0:0:0:
192,160,1203,1,2,0:0:0:0:
192,160,1519,1,0,0:0:0:0:
192,160,1677,1,0,0:0:0:0:
192,160,1835,1,0,0:0:0:0:
192,160,1992,1,2,0:0:0:0:
192,160,2150,1,0,0:0:0:0:
192,160,2624,1,4,0:0:0:0:
192,160,2940,1,2,0:0:0:0:
192,160,3256,1,2,0:0:0:0:
192,160,3414,1,2,0:0:0:0:
192,160,3572,1,0,0:0:0:0:
192,160,3729,1,2,0:0:0:0:
192,160,3887,1,0,0:0:0:0:
192,160,4203,1,2,0:0:0:0:
192,160,4361,1,2,0:0:0:0:
192,160,4519,1,0,0:0:0:0:
192,160,4677,1,2,0:0:0:0:
192,160,4993,1,2,0:0:0:0:
192,160,5151,1,0,0:0:0:0:
192,160,5466,1,2,0:0:0:0:
192,160,5782,1,2,0:0:0:0:
192,160,5940,1,0,0:0:0:0:
192,160,6098,1,0,0:0:0:0:
192,160,6256,1,2,0:0:0:0:
192,160,6414,1,0,0:0:0:0:
192,160,6730,1,0,0:0:0:0:
192,160,6888,1,0,0:0:0:0:
192,160,7204,1,2,0:0:0:0:
192,160,7361,1,0,0:0:0:0:
192,160,7519,1,0,0:0:0:0:
192,160,7677,1,2,0:0:0:0:
192,160,7993,1,0,0:0:0:0:
192,160,8309,1,2,0:0:0:0:
192,160,8467,1,2,0:0:0:0:
192,160,8625,1,0,0:0:0:0:
192,160,8783,1,2,0:0:0:0:
192,160,9098,1,0,0:0:0:0:
192,160,9256,1,0,0:0:0:0:
192,160,9414,1,2,0:0:0:0:
192,160,9730,1,0,0:0:0:0:
192,160,9888,1,0,0:0:0:0:
192,160,10046,1,2,0:0:0:0:
192,160,10204,1,0,0:0:0:0:
192,160,10520,1,0,0:0:0:0:
192,160,10835,1,2,0:0:0:0:
192,160,10993,1,2,0:0:0:0:
192,160,11151,1,0,0:0:0:0:
192,160,11467,1,2,0:0:0:0:
192,160,11783,1,0,0:0:0:0:
192,160,11941,1,0,0:0:0:0:
192,160,12099,1,2,0:0:0:0:
192,160,12257,1,0,0:0:0:0:
192,160,12336,1,0,0:0:0:0:
192,160,12415,1,0,0:0:0:0:
192,160,12572,1,2,0:0:0:0:
192,160,12730,1,0,0:0:0:0:
192,160,13046,1,2,0:0:0:0:
192,160,13362,1,2,0:0:0:0:
192,160,13520,1,2,0:0:0:0:
192,160,13678,1,0,0:0:0:0:
192,160,13836,1,2,0:0:0:0:
192,160,13994,1,0,0:0:0:0:
192,160,14310,1,2,0:0:0:0:
192,160,14467,1,0,0:0:0:0:
192,160,14625,1,0,0:0:0:0:
192,160,14783,1,2,0:0:0:0:
192,160,15099,1,0,0:0:0:0:
192,160,15257,1,0,0:0:0:0:
192,160,15573,1,2,0:0:0:0:
192,160,15889,1,2,0:0:0:0:
192,160,16047,1,2,0:0:0:0:
192,160,16204,1,0,0:0:0:0:
192,160,16362,1,2,0:0:0:0:
192,160,16520,1,0,0:0:0:0:
192,160,16836,1,0,0:0:0:0:
192,160,16994,1,0,0:0:0:0:
192,160,17310,1,2,0:0:0:0:
192,160,17468,1,0,0:0:0:0:
192,160,17626,1,0,0:0:0:0:
192,160,17784,1,2,0:0:0:0:
192,160,18099,1,0,0:0:0:0:
192,160,18415,1,2,0:0:0:0:
192,160,18573,1,2,0:0:0:0:
192,160,18731,1,0,0:0:0:0:
192,160,18889,1,0,0:0:0:0:
192,160,19047,1,2,0:0:0:0:
192,160,19205,1,2,0:0:0:0:
192,160,19363,1,0,0:0:0:0:
192,160,19679,1,0,0:0:0:0:
192,160,19836,1,0,0:0:0:0:
192,160,19994,1,2,0:0:0:0:
192,160,20152,1,2,0:0:0:0:
192,160,20310,1,0,0:0:0:0:
192,160,20626,1,0,0:0:0:0:
192,160,20784,1,2,0:0:0:0:
192,160,21100,1,2,0:0:0:0:
192,160,21258,1,0,0:0:0:0:
192,160,21573,1,4,0:0:0:0:
192,160,21889,1,0,0:0:0:0:
192,160,22205,1,0,0:0:0:0:
192,160,22363,1,0,0:0:0:0:
192,160,22442,1,0,0:0:0:0:
192,160,22521,1,2,0:0:0:0:
192,160,22679,1,0,0:0:0:0:
192,160,22837,1,6,0:0:0:0:
192,160,23153,1,0,0:0:0:0:
192,160,23310,1,0,0:0:0:0:
192,160,23468,1,0,0:0:0:0:
192,160,23784,1,2,0:0:0:0:
192,160,23942,1,2,0:0:0:0:
192,160,24100,1,0,0:0:0:0:
192,160,24258,1,0,0:0:0:0:
192,160,24337,1,0,0:0:0:0:
192,160,24416,1,2,0:0:0:0:
192,160,24574,1,0,0:0:0:0:
192,160,24732,1,2,0:0:0:0:
192,160,24890,1,2,0:0:0:0:
192,160,25047,1,0,0:0:0:0:
192,160,25363,1,2,0:0:0:0:
192,160,25679,1,0,0:0:0:0:
192,160,25837,1,0,0:0:0:0:
192,160,25995,1,0,0:0:0:0:
192,160,26311,1,2,0:0:0:0:
192,160,26627,1,2,0:0:0:0:
192,160,26785,1,0,0:0:0:0:
192,160,26863,1,2,0:0:0:0:
192,160,26942,1,2,0:0:0:0:
192,160,27100,1,0,0:0:0:0:
192,160,27258,1,2,0:0:0:0:
192,160,27416,1,2,0:0:0:0:
192,160,27574,1,0,0:0:0:0:
192,160,27732,1,0,0:0:0:0:
192,160,27890,1,2,0:0:0:0:
192,160,28206,1,0,0:0:0:0:
192,160,28364,1,0,0:0:0:0:
192,160,28522,1,2,0:0:0:0:
192,160,28837,1,2,0:0:0:0:
192,160,29153,1,2,0:0:0:0:
192,160,29469,1,0,0:0:0:0:
192,160,29627,1,0,0:0:0:0:
192,160,29785,1,2,0:0:0:0:
192,160,30101,1,2,0:0:0:0:
192,160,30416,1,2,0:0:0:0:
192,160,30732,1,0,0:0:0:0:
192,160,30890,1,0,0:0:0:0:
192,160,31048,1,2,0:0:0:0:
192,160,31364,1,2,0:0:0:0:
192,160,31443,1,0,0:0:0:0:
192,160,31522,1,2,0:0:0:0:
192,160,31680,1,0,0:0:0:0:
192,160,31838,1,2,0:0:0:0:
192,160,31996,1,2,0:0:0:0:
192,160,32154,1,0,0:0:0:0:
192,160,32311,1,2,0:0:0:0:
192,160,32469,1,0,0:0:0:0:
192,160,32548,1,0,0:0:0:0:
192,160,32627,1,0,0:0:0:0:
192,160,32733,1,0,0:0:0:0:
192,160,32838,1,0,0:0:0:0:
192,160,32943,1,2,0:0:0:0:
192,160,33259,1,0,0:0:0:0:
192,160,33417,1,0,0:0:0:0:
192,160,33575,1,0,0:0:0:0:
192,160,33891,1,2,0:0:0:0:
192,160,34048,1,2,0:0:0:0:
192,160,34206,1,0,0:0:0:0:
192,160,34522,1,0,0:0:0:0:
192,160,34838,1,0,0:0:0:0:
192,160,34996,1,2,0:0:0:0:
192,160,35154,1,2,0:0:0:0:
192,160,35312,1,2,0:0:0:0:
192,160,35470,1,0,0:0:0:0:
192,160,35785,1,0,0:0:0:0:
192,160,35943,1,0,0:0:0:0:
192,160,36101,1,2,0:0:0:0:
192,160,36417,1,0,0:0:0:0:
192,160,36733,1,2,0:0:0:0:
192,160,36891,1,2,0:0:0:0:
192,160,37049,1,0,0:0:0:0:
192,160,37207,1,0,0:0:0:0:
192,160,37365,1,2,0:0:0:0:
192,160,37522,1,0,0:0:0:0:
192,160,37680,1,2,0:0:0:0:
192,160,37838,1,0,0:0:0:0:
192,160,37996,1,2,0:0:0:0:
192,160,38154,1,0,0:0:0:0:
192,160,38312,1,0,0:0:0:0:
192,160,38470,1,2,0:0:0:0:
192,160,38628,1,2,0:0:0:0:
192,160,38786,1,0,0:0:0:0:
192,160,38944,1,0,0:0:0:0:
192,160,39102,1,2,0:0:0:0:
192,160,39260,1,0,0:0:0:0:
192,160,39417,1,0,0:0:0:0:
192,160,39575,1,2,0:0:0:0:
192,160,39733,1,2,0:0:0:0:
192,160,39891,1,0,0:0:0:0:
192,160,40049,1,2,0:0:0:0:
192,160,40207,1,0,0:0:0:0:
192,160,40365,1,2,0:0:0:0:
192,160,40523,1,0,0:0:0:0:
192,160,40602,1,0,0:0:0:0:
192,160,40681,1,0,0:0:0:0:
192,160,40760,1,0,0:0:0:0:
192,160,40839,1,0,0:0:0:0:
192,160,40918,1,0,0:0:0:0:
192,160,40997,1,0,0:0:0:0:
192,160,41075,1,0,0:0:0:0:
192,160,41154,1,0,0:0:0:0:
192,160,41233,1,0,0:0:0:0:
192,160,41312,1,0,0:0:0:0:
192,160,41391,1,0,0:0:0:0:
192,160,41470,1,0,0:0:0:0:
192,160,41549,1,0,0:0:0:0:
192,160,41628,1,0,0:0:0:0:
192,160,41707,1,0,0:0:0:0:
192,160,41786,2,0,L|352:160,1,140
160,160,42418,1,0,0:0:0:0:
160,160,42576,1,0,0:0:0:0:
160,160,42734,1,0,0:0:0:0:
160,160,42891,1,0,0:0:0:0:
160,160,43049,1,6,0:0:0:0:
160,160,43523,1,0,0:0:0:0:
160,160,43681,1,0,0:0:0:0:
160,160,43839,1,2,0:0:0:0:
160,160,44155,1,0,0:0:0:0:
160,160,44313,1,0,0:0:0:0:
160,160,44471,1,2,0:0:0:0:
160,160,44786,1,2,0:0:0:0:
160,160,44944,1,2,0:0:0:0:
160,160,45102,1,2,0:0:0:0:
160,160,45260,1,0,0:0:0:0:
160,160,45418,1,2,0:0:0:0:
160,160,45576,1,0,0:0:0:0:
160,160,45892,1,2,0:0:0:0:
160,160,46050,1,0,0:0:0:0:
160,160,46208,1,0,0:0:0:0:
160,160,46366,1,2,0:0:0:0:
160,160,46681,1,2,0:0:0:0:
160,160,46760,1,2,0:0:0:0:
160,160,46839,1,0,0:0:0:0:
160,160,46997,1,0,0:0:0:0:
160,160,47155,1,2,0:0:0:0:
160,160,47313,1,2,0:0:0:0:
160,160,47629,1,0,0:0:0:0:
160,160,47708,1,0,0:0:0:0:
160,160,47787,1,2,0:0:0:0:
160,160,47945,1,0,0:0:0:0:
160,160,48103,1,2,0:0:0:0:
160,160,48576,1,0,0:0:0:0:
160,160,48734,1,0,0:0:0:0:
160,160,48892,1,2,0:0:0:0:
160,160,49208,1,0,0:0:0:0:
160,160,49366,1,0,0:0:0:0:
160,160,49524,1,2,0:0:0:0:
160,160,49840,1,2,0:0:0:0:
160,160,49997,1,0,0:0:0:0:
160,160,50155,1,0,0:0:0:0:
160,160,50313,1,2,0:0:0:0:
160,160,50471,1,2,0:0:0:0:
160,160,50629,1,0,0:0:0:0:
160,160,50945,1,0,0:0:0:0:
160,160,51261,1,0,0:0:0:0:
160,160,51419,1,0,0:0:0:0:
160,160,51577,1,2,0:0:0:0:
160,160,51656,1,2,0:0:0:0:
160,160,51735,1,2,0:0:0:0:
160,160,51813,1,2,0:0:0:0:
160,160,52050,1,0,0:0:0:0:
160,160,52208,1,0,0:0:0:0:
160,160,52366,1,2,0:0:0:0:
160,160,52524,1,2,0:0:0:0:
160,160,52682,1,0,0:0:0:0:
160,160,52761,1,0,0:0:0:0:
160,160,52840,1,0,0:0:0:0:
160,160,52998,1,0,0:0:0:0:
160,160,53156,1,6,0:0:0:0:
160,160,53629,1,0,0:0:0:0:
160,160,53787,1,0,0:0:0:0:
160,160,53945,1,2,0:0:0:0:
160,160,54261,1,0,0:0:0:0:
160,160,54419,1,0,0:0:0:0:
160,160,54577,1,2,0:0:0:0:
160,160,54893,1,2,0:0:0:0:
160,160,55051,1,0,0:0:0:0:
160,160,55209,1,0,0:0:0:0:
160,160,55366,1,2,0:0:0:0:
160,160,55524,1,2,0:0:0:0:
160,160,55603,1,2,0:0:0:0:
160,160,55682,1,2,0:0:0:0:
160,160,55998,1,4,0:0:0:0:
160,160,56156,1,2,0:0:0:0:
160,160,56314,1,2,0:0:0:0:
160,160,56472,1,0,0:0:0:0:
160,160,56788,1,2,0:0:0:0:
160,160,56946,1,2,0:0:0:0:
160,160,57104,1,0,0:0:0:0:
160,160,57261,1,0,0:0:0:0:
160,160,57419,1,2,0:0:0:0:
160,160,57498,1,2,0:0:0:0:
160,160,57577,1,0,0:0:0:0:
160,160,57735,1,0,0:0:0:0:
160,160,58051,1,6,0:0:0:0:
160,160,58209,1,0,0:0:0:0:
160,160,58525,1,0,0:0:0:0:
160,160,58683,1,0,0:0:0:0:
160,160,58841,1,2,0:0:0:0:
160,160,59156,1,0,0:0:0:0:
160,160,59472,1,2,0:0:0:0:
160,160,59788,1,0,0:0:0:0:
160,160,59946,1,0,0:0:0:0:
160,160,60104,1,2,0:0:0:0:
160,160,60262,1,2,0:0:0:0:
160,160,60578,1,2,0:0:0:0:
160,160,60657,1,2,0:0:0:0:
160,160,60735,1,2,0:0:0:0:
160,160,60893,1,0,0:0:0:0:
160,160,61051,1,0,0:0:0:0:
160,160,61209,1,2,0:0:0:0:
160,160,61367,1,2,0:0:0:0:
160,160,61525,1,0,0:0:0:0:
160,160,61841,1,0,0:0:0:0:
160,160,61999,1,2,0:0:0:0:
160,160,62315,1,0,0:0:0:0:
160,160,62472,1,0,0:0:0:0:
160,160,62630,1,2,0:0:0:0:
160,160,62788,1,2,0:0:0:0:
160,160,62946,1,0,0:0:0:0:
160,160,63262,1,6,0:0:0:0:
256,192,63578,12,0,65394,0:0:0:0:
