osu file format v14

[General]
AudioFilename: audio.mp3
AudioLeadIn: 1500
PreviewTime: 42418
Countdown: 0
SampleSet: Soft
StackLeniency: 0.7
Mode: 0
LetterboxInBreaks: 0
WidescreenStoryboard: 1

[Editor]
DistanceSpacing: 0.8
BeatDivisor: 4
GridSize: 4
TimelineZoom: 2.4

[Metadata]
Title:Connect - Jazz Funk Mix -
TitleUnicode:コネクト - Jazz Funk Mix -
Artist:ZuikakuP
ArtistUnicode:瑞鶴P
Creator:Backstep
Version:Normal
Source:魔法少女まどか☆マギカ
Tags:ずいかくP Claris Mahou Shoujo Madoka Magica
BeatmapID:1033446
BeatmapSetID:482695

[Difficulty]
HPDrainRate:4
CircleSize:3
OverallDifficulty:4
ApproachRate:5
SliderMultiplier:1.2
SliderTickRate:2

[Events]
//Background and Video events
0,0,"connect-BG.jpg",0,0
//Break Periods
//Storyboard Layer 0 (Background)
//Storyboard Layer 1 (Fail)
//Storyboard Layer 2 (Pass)
//Storyboard Layer 3 (Foreground)
//Storyboard Sound Samples

[TimingPoints]
98,315.822718180861,4,2,0,60,1,0
43049,-100,4,2,0,60,0,1
63262,-100,4,2,0,60,0,0

[Colours]
Combo1 : 233,233,233
Combo2 : 255,128,192
Combo3 : 255,60,60
Combo4 : 255,255,128

[HitObjects]
72,204,98,6,0,P|72:84|152:116,1,240,0|0,1:0|1:0,0:0:0:0:
252,208,1203,2,0,P|328:220|440:180,1,180,2|0,0:0|0:0,0:0:0:0:
460,100,1992,1,2,0:0:0:0:
460,100,2150,1,0,0:0:0:0:
332,36,2624,6,0,P|316:108|332:180,1,120,4|0,0:0|1:0,0:0:0:0:
360,240,3256,1,2,0:0:0:0:
360,240,3414,2,0,P|424:236|492:248,1,120,0|2,0:0|0:0,0:0:0:0:
380,352,4203,1,2,0:0:0:0:
380,352,4361,2,0,P|316:356|248:344,1,120,0|2,0:0|0:0,0:0:0:0:
176,304,4993,6,0,B|164:224|164:224|176:120,1,180,2|0,0:0|1:0,0:0:0:0:
80,124,5782,2,0,L|72:192,1,60
164,216,6256,2,0,P|224:224|288:216,1,120,2|0,0:0|0:0,0:0:0:0:
364,168,6888,2,0,P|423:161|482:169,2,120,0|2|0,0:0|0:0|0:0,0:0:0:0:
332,132,7677,5,2,0:0:0:0:
256,72,7993,1,0,1:0:0:0:
184,132,8309,1,0,0:0:0:0:
184,132,8467,2,0,P|176:208|188:256,1,120,0|2,0:0|0:0,0:0:0:0:
256,316,9098,1,0,0:0:0:0:
164,336,9414,2,0,P|100:344|36:328,2,120,2|0|2,0:0|0:0|0:0,0:0:0:0:
212,328,10204,6,0,P|284:320|344:328,1,120,0|0,0:0|1:0,0:0:0:0:
408,268,10835,2,0,P|400:196|408:136,1,120,2|0,0:0|1:0,0:0:0:0:
332,88,11467,2,0,P|260:96|200:88,1,120,2|0,0:0|1:0,0:0:0:0:
136,148,12099,2,0,P|144:220|136:280,2,120,2|0|0,0:0|1:0|0:0,0:0:0:0:
56,96,13046,5,0,1:0:0:0:
0,176,13362,1,2,0:0:0:0:
0,176,13520,2,0,L|12:304,1,120,0|2,0:0|0:0,0:0:0:0:
143,335,14310,1,0,1:0:0:0:
143,335,14467,2,0,L|132:216,1,120,0|2,0:0|0:0,0:0:0:0:
200,148,15099,6,0,B|248:128|292:148|292:148|336:168|384:140,1,180,2|0,0:0|1:0,0:0:0:0:
400,52,15889,1,2,0:0:0:0:
400,52,16047,2,0,P|448:88|468:144,1,120,0|2,0:0|0:0,0:0:0:0:
504,284,16836,2,0,P|492:316|492:352,1,60,0|0,1:0|0:0,0:0:0:0:
401,314,17310,2,0,P|344:300|289:326,1,120,2|0,0:0|0:0,0:0:0:0:
292,324,17784,6,0,B|260:348|260:348|180:340,1,120,2|0,0:0|1:0,0:0:0:0:
96,292,18415,1,2,0:0:0:0:
96,292,18573,2,0,P|84:224|104:172,1,120,0|2,0:0|0:0,0:0:0:0:
176,120,19205,2,0,L|248:108,1,60,0|0,0:0|1:0,0:0:0:0:
352,192,19836,6,0,L|392:144,2,60,0|0|0,0:0|1:0|0:0,0:0:0:0:
320,228,20310,2,0,P|328:304|420:352,2,180,2|2|0,0:0|0:0|1:0,0:0:0:0:
252,160,21573,6,0,P|192:152|128:164,1,120,4|0,0:0|1:0,0:0:0:0:
48,276,22363,2,0,L|44:336,2,60,0|0|0,3:0|3:0|0:0,0:0:0:0:
28,232,22837,6,0,L|36:84,1,120,4|0,0:0|0:0,0:0:0:0:
108,52,23468,1,0,1:0:0:0:
196,84,23784,2,0,L|264:88,1,60,0|2,0:0|0:0,0:0:0:0:
324,156,24258,2,0,L|392:160,1,60
472,120,24732,2,0,P|476:180|448:236,1,120,0|0,1:0|0:0,0:0:0:0:
384,304,25363,6,0,P|308:296|256:304,1,120,2|0,3:2|0:0,0:0:0:0:
172,332,25995,1,0,1:0:0:0:
92,280,26311,2,0,L|76:220,1,60
148,156,26785,2,0,L|148:96,1,60
240,76,27258,2,0,L|260:20,2,60,0|0|0,1:0|0:0|0:0,0:0:0:0:
316,136,27890,6,0,B|376:144|376:144|456:132,1,120,2|0,0:0|0:0,0:0:0:0:
484,220,28522,1,0,1:0:0:0:
484,220,28679,2,0,P|496:288|480:336,2,120,0|2|2,0:0|0:0|0:0,0:0:0:0:
348,272,29785,1,0,1:0:0:0:
348,272,29943,2,0,P|288:284|216:272,1,120,0|2,0:0|0:0,0:0:0:0:
192,252,30416,5,0,0:0:0:0:
128,180,30732,2,0,L|60:184,2,60,0|0|0,0:0|0:0|1:0,0:0:0:0:
196,112,31364,2,0,P|224:108|256:112,1,60,2|0,0:0|0:0,0:0:0:0:
328,176,31838,2,0,P|357:179|387:175,1,60,0|0,0:0|1:0,0:0:0:0:
460,112,32311,2,0,P|476:176|464:232,1,120,0|0,1:0|0:0,0:0:0:0:
420,312,32943,6,0,B|348:312|348:312|300:296,1,120,4|0,0:0|0:0,0:0:0:0:
208,272,33575,1,0,1:0:0:0:
112,292,33891,2,0,P|108:260|116:232,1,60,2|0,0:0|0:0,0:0:0:0:
160,148,34364,2,0,P|164:116|156:88,1,60
88,20,34838,1,0,1:0:0:0:
68,112,35154,1,0,0:0:0:0:
160,148,35470,6,0,P|224:156|288:148,1,120,2|0,0:0|0:0,0:0:0:0:
324,140,35943,2,0,L|352:16,2,120,2|0|2,0:0|0:0|0:0,0:0:0:0:
400,264,37049,2,0,L|464:272,2,60,0|0|0,0:0|0:0|1:0,0:0:0:0:
320,316,37680,1,0,0:0:0:0:
232,280,37996,6,0,B|164:256|72:288|72:288|24:252|28:204,1,240,2|0,0:0|1:0,0:0:0:0:
100,48,39260,2,0,B|168:72|260:40|260:40|308:76|304:124,1,240,2|0,0:0|1:0,0:0:0:0:
256,192,40523,12,0,41786,0:0:0:0:
256,192,43049,5,4,0:0:0:0:
208,328,43523,2,0,L|148:312,2,60,0|0|2,0:0|1:0|0:0,0:0:0:0:
304,328,44155,2,0,L|364:312,2,60,0|0|2,0:0|0:0|0:0,0:0:0:0:
256,244,44786,2,0,L|256:120,1,120
192,52,45418,5,2,0:0:0:0:
24,156,46050,2,0,L|16:220,2,60,0|0|2,0:0|1:0|0:0,0:0:0:0:
112,196,46681,2,0,B|104:268|104:268|156:332|264:292,1,240,0|2,0:0|0:0,0:0:0:0:
344,248,47629,2,0,P|372:256|408:248,2,60
308,216,48103,5,2,0:0:0:0:
388,96,48576,2,0,L|448:88,2,60,0|0|2,0:0|1:0|0:0,0:0:0:0:
304,48,49208,2,0,L|244:56,2,60,0|0|2,0:0|0:0|0:0,0:0:0:0:
308,144,49840,2,0,P|240:160|188:144,1,120,2|0,0:0|0:0,0:0:0:0:
100,124,50471,2,0,B|52:116|8:128|8:128|-8:188|16:228,1,180,2|0,0:0|1:0,0:0:0:0:
80,280,51261,6,0,P|84:312|80:340,1,60,0|0,1:0|0:0,0:0:0:0:
172,368,51735,2,0,P|240:368|292:328,1,120,2|0,0:0|3:0,0:0:0:0:
308,300,52208,2,0,L|316:176,1,120,0|0,3:0|1:0,0:0:0:0:
256,104,52840,1,0,1:0:0:0:
160,104,53156,5,4,0:0:0:0:
76,220,53629,2,0,P|48:224|12:220,2,60,0|0|2,0:0|1:0|0:0,0:0:0:0:
160,268,54261,2,0,P|188:272|224:268,2,60,0|0|2,0:0|0:0|0:0,0:0:0:0:
96,340,54893,2,0,P|36:344|-24:336,2,120,0|0|2,0:0|0:0|0:0,0:0:0:0:
132,372,55682,6,0,P|196:364|260:372,1,120,0|4,0:0|0:0,0:0:0:0:
332,320,56314,2,0,L|336:256,1,60,0|0,1:0|0:0,0:0:0:0:
264,196,56788,2,0,L|256:128,2,60,0|0|0,0:0|0:0|1:0,0:0:0:0:
332,320,57577,1,0,1:0:0:0:
332,320,57735,2,0,P|400:328|456:320,1,120,0|4,1:0|0:0,0:0:0:0:
212,320,58841,6,0,P|144:312|88:320,1,120,0|0,1:0|0:0,0:0:0:0:
24,252,59472,2,0,P|16:184|28:128,1,120,2|0,0:0|0:0,0:0:0:0:
68,112,59946,2,0,L|192:100,1,120,0|2,0:0|0:0,0:0:0:0:
256,168,60578,2,0,L|316:164,1,60
508,160,61367,5,0,1:0:0:0:
392,316,61999,1,2,0:0:0:0:
236,208,62630,1,0,1:0:0:0:
352,52,63262,1,4,0:0:0:0:
256,192,63578,12,0,65394,0:0:0:0:
