osu file format v14

[General]
AudioFilename: audio.mp3
AudioLeadIn: 1500
PreviewTime: 42418
Countdown: 0
SampleSet: Normal
StackLeniency: 0.7
Mode: 1
LetterboxInBreaks: 0
WidescreenStoryboard: 0

[Editor]
DistanceSpacing: 1.3
BeatDivisor: 4
GridSize: 32
TimelineZoom: 1.6

[Metadata]
Title:Connect - Jazz Funk Mix -
TitleUnicode:コネクト - Jazz Funk Mix -
Artist:ZuikakuP
ArtistUnicode:瑞鶴P
Creator:Backstep
Version:Muzukashii
Source:魔法少女まどか☆マギカ
Tags:ずいかくP Claris Mahou Shoujo Madoka Magica
BeatmapID:1029942
BeatmapSetID:482695

[Difficulty]
HPDrainRate:5
CircleSize:2
OverallDifficulty:4
ApproachRate:5
SliderMultiplier:1.4
SliderTickRate:2

[Events]
//Background and Video events
0,0,"connect-BG.jpg",0,0
//Break Periods
//Storyboard Layer 0 (Background)
//Storyboard Layer 1 (Fail)
//Storyboard Layer 2 (Pass)
//Storyboard Layer 3 (Foreground)
//Storyboard Sound Samples

[TimingPoints]
98,315.822718180861,4,1,0,60,1,0
43049,-100,4,1,0,60,0,1
63262,-100,4,1,0,60,0,0

[HitObjects]
160,160,98,5,0,0:0:0:0:
160,160,729,1,0,0:0:0:0:
160,160,1203,1,2,0:0:0:0:
160,160,1677,1,0,0:0:0:0:
160,160,1992,1,2,0:0:0:0:
160,160,2150,1,0,0:0:0:0:
160,160,2624,1,4,0:0:0:0:
160,160,2940,1,2,0:0:0:0:
160,160,3256,1,0,0:0:0:0:
160,160,3414,1,0,0:0:0:0:
160,160,3729,1,2,0:0:0:0:
160,160,4203,1,0,0:0:0:0:
160,160,4361,1,0,0:0:0:0:
160,160,4677,1,2,0:0:0:0:
160,160,4993,1,0,0:0:0:0:
160,160,5466,1,2,0:0:0:0:
160,160,5782,1,0,0:0:0:0:
160,160,5940,1,2,0:0:0:0:
160,160,6256,1,0,0:0:0:0:
160,160,7204,1,0,0:0:0:0:
160,160,7519,1,2,0:0:0:0:
160,160,7677,1,0,0:0:0:0:
160,160,7993,1,0,0:0:0:0:
160,160,8309,1,2,0:0:0:0:
160,160,8467,1,0,0:0:0:0:
160,160,8783,1,2,0:0:0:0:
160,160,9098,1,2,0:0:0:0:
160,160,9414,1,0,0:0:0:0:
160,160,9730,1,0,0:0:0:0:
160,160,10046,1,2,0:0:0:0:
160,160,10204,1,0,0:0:0:0:
160,160,10835,1,2,0:0:0:0:
160,160,11467,1,0,0:0:0:0:
160,160,12099,1,2,0:0:0:0:
160,160,13046,1,2,0:0:0:0:
160,160,13362,1,0,0:0:0:0:
160,160,13520,1,0,0:0:0:0:
160,160,13836,1,2,0:0:0:0:
160,160,14310,1,0,0:0:0:0:
160,160,14467,1,0,0:0:0:0:
160,160,14783,1,2,0:0:0:0:
160,160,15099,1,0,0:0:0:0:
160,160,15573,1,2,0:0:0:0:
160,160,15889,1,0,0:0:0:0:
160,160,16047,1,0,0:0:0:0:
160,160,16362,1,2,0:0:0:0:
160,160,17310,1,2,0:0:0:0:
160,160,17626,1,0,0:0:0:0:
160,160,17784,1,0,0:0:0:0:
160,160,18099,1,0,0:0:0:0:
160,160,18415,1,2,0:0:0:0:
160,160,18573,1,0,0:0:0:0:
160,160,18889,1,2,0:0:0:0:
160,160,19205,1,2,0:0:0:0:
160,160,19363,1,2,0:0:0:0:
160,160,19836,1,0,0:0:0:0:
160,160,19994,1,0,0:0:0:0:
160,160,20310,1,2,0:0:0:0:
160,160,20784,1,0,0:0:0:0:
160,160,21258,1,0,0:0:0:0:
160,160,21573,1,6,0:0:0:0:
160,160,22837,1,4,0:0:0:0:
160,160,23468,1,0,0:0:0:0:
160,160,23784,1,2,0:0:0:0:
160,160,23942,1,2,0:0:0:0:
160,160,24258,1,0,0:0:0:0:
160,160,24416,1,0,0:0:0:0:
160,160,24732,1,2,0:0:0:0:
160,160,25363,1,0,0:0:0:0:
160,160,25995,1,0,0:0:0:0:
160,160,26469,1,2,0:0:0:0:
160,160,26942,1,0,0:0:0:0:
160,160,27416,1,2,0:0:0:0:
160,160,27574,1,2,0:0:0:0:
160,160,27890,1,0,0:0:0:0:
160,160,28522,1,2,0:0:0:0:
160,160,28679,1,2,0:0:0:0:
160,160,28995,1,0,0:0:0:0:
160,160,29311,1,0,0:0:0:0:
160,160,29785,1,2,0:0:0:0:
160,160,29943,1,2,0:0:0:0:
160,160,30259,1,0,0:0:0:0:
160,160,31048,1,0,0:0:0:0:
160,160,31364,1,2,0:0:0:0:
160,160,31522,1,2,0:0:0:0:
160,160,31838,1,0,0:0:0:0:
160,160,31996,1,0,0:0:0:0:
160,160,32311,1,0,0:0:0:0:
160,160,32627,1,2,0:0:0:0:
160,160,32943,1,6,0:0:0:0:
160,160,33575,1,0,0:0:0:0:
160,160,33891,1,2,0:0:0:0:
160,160,34048,1,2,0:0:0:0:
160,160,34364,1,0,0:0:0:0:
160,160,34522,1,0,0:0:0:0:
160,160,34838,1,0,0:0:0:0:
160,160,35470,1,2,0:0:0:0:
160,160,35785,1,0,0:0:0:0:
160,160,35943,1,0,0:0:0:0:
160,160,36259,1,2,0:0:0:0:
160,160,36575,1,2,0:0:0:0:
160,160,36891,1,0,0:0:0:0:
160,160,37049,1,0,0:0:0:0:
160,160,37365,1,2,0:0:0:0:
160,160,37680,1,2,0:0:0:0:
160,160,37996,1,0,0:0:0:0:
160,160,38628,1,0,0:0:0:0:
160,160,39260,1,0,0:0:0:0:
160,160,39891,1,0,0:0:0:0:
160,160,40523,2,0,B|448:160|448:160|448:352|448:352|352:352,1,543.99998664856
160,160,42418,5,0,0:0:0:0:
160,160,42734,1,0,0:0:0:0:
160,160,43049,1,6,0:0:0:0:
160,160,43523,1,0,0:0:0:0:
160,160,43681,1,0,0:0:0:0:
160,160,43839,1,2,0:0:0:0:
160,160,44155,1,0,0:0:0:0:
160,160,44313,1,0,0:0:0:0:
160,160,44471,1,2,0:0:0:0:
160,160,44786,1,2,0:0:0:0:
160,160,45102,1,2,0:0:0:0:
160,160,45418,1,0,0:0:0:0:
160,160,46050,1,0,0:0:0:0:
160,160,46208,1,0,0:0:0:0:
160,160,46366,1,2,0:0:0:0:
160,160,46681,1,2,0:0:0:0:
160,160,46839,1,2,0:0:0:0:
160,160,47155,1,2,0:0:0:0:
160,160,47471,1,0,0:0:0:0:
160,160,48103,1,2,0:0:0:0:
160,160,48576,1,0,0:0:0:0:
160,160,48734,1,0,0:0:0:0:
160,160,48892,1,2,0:0:0:0:
160,160,49208,1,0,0:0:0:0:
160,160,49366,1,0,0:0:0:0:
160,160,49524,1,2,0:0:0:0:
160,160,49840,1,2,0:0:0:0:
160,160,50155,1,0,0:0:0:0:
160,160,50471,1,2,0:0:0:0:
160,160,50945,1,8,0:0:0:0:
160,160,51419,1,0,0:0:0:0:
160,160,51735,1,2,0:0:0:0:
160,160,52050,1,0,0:0:0:0:
160,160,52208,1,0,0:0:0:0:
160,160,52524,1,2,0:0:0:0:
160,160,52840,1,2,0:0:0:0:
160,160,53156,1,4,0:0:0:0:
160,160,53629,1,0,0:0:0:0:
160,160,53787,1,0,0:0:0:0:
160,160,53945,1,2,0:0:0:0:
160,160,54261,1,0,0:0:0:0:
160,160,54419,1,0,0:0:0:0:
160,160,54577,1,2,0:0:0:0:
160,160,54893,1,2,0:0:0:0:
160,160,55209,1,2,0:0:0:0:
160,160,55524,1,2,0:0:0:0:
160,160,55998,1,6,0:0:0:0:
160,160,56314,1,0,0:0:0:0:
160,160,56472,1,2,0:0:0:0:
160,160,56788,1,0,0:0:0:0:
160,160,56946,1,2,0:0:0:0:
160,160,57104,1,0,0:0:0:0:
160,160,57577,1,0,0:0:0:0:
160,160,57735,1,0,0:0:0:0:
160,160,58051,1,6,0:0:0:0:
160,160,58841,1,2,0:0:0:0:
160,160,59472,1,2,0:0:0:0:
160,160,59788,1,0,0:0:0:0:
160,160,59946,1,0,0:0:0:0:
160,160,60262,1,2,0:0:0:0:
160,160,60578,1,2,0:0:0:0:
160,160,60735,1,0,0:0:0:0:
160,160,61367,1,0,0:0:0:0:
160,160,61999,1,2,0:0:0:0:
160,160,62630,1,0,0:0:0:0:
160,160,63262,1,6,0:0:0:0:
256,192,63578,12,0,65394,0:0:0:0:
