osu file format v14

[General]
AudioFilename: audio.mp3
AudioLeadIn: 1500
PreviewTime: 42418
Countdown: 0
SampleSet: Soft
StackLeniency: 0.7
Mode: 0
LetterboxInBreaks: 0
WidescreenStoryboard: 1

[Editor]
DistanceSpacing: 2
BeatDivisor: 4
GridSize: 4
TimelineZoom: 2.4

[Metadata]
Title:Connect - Jazz Funk Mix -
TitleUnicode:コネクト - Jazz Funk Mix -
Artist:ZuikakuP
ArtistUnicode:瑞鶴P
Creator:Backstep
Version:Insane
Source:魔法少女まどか☆マギカ
Tags:ずいかくP Claris Mahou Shoujo Madoka Magica
BeatmapID:1029987
BeatmapSetID:482695

[Difficulty]
HPDrainRate:7
CircleSize:4.2
OverallDifficulty:7.4
ApproachRate:9.2
SliderMultiplier:1.8
SliderTickRate:2

[Events]
//Background and Video events
0,0,"connect-BG.jpg",0,0
//Break Periods
//Storyboard Layer 0 (Background)
//Storyboard Layer 1 (Fail)
//Storyboard Layer 2 (Pass)
//Storyboard Layer 3 (Foreground)
//Storyboard Sound Samples

[TimingPoints]
98,315.822718180861,4,2,0,60,1,0
43049,-100,4,2,0,60,0,1
63262,-100,4,2,0,60,0,0

[Colours]
Combo1 : 233,233,233
Combo2 : 255,128,192
Combo3 : 255,60,60
Combo4 : 255,255,128

[HitObjects]
216,52,98,5,0,1:0:0:0:
280,140,729,1,0,1:0:0:0:
224,196,1203,2,0,P|308:216|360:140,1,180,2|0,0:0|0:0,0:0:0:0:
280,140,1677,5,0,0:0:0:0:
336,312,1835,1,0,0:0:0:0:
508,256,1992,1,2,0:0:0:0:
452,84,2150,1,0,0:0:0:0:
452,84,2624,6,0,P|400:76|348:88,1,90,4|0,0:0|0:0,0:0:0:0:
191,138,2940,2,0,P|243:146|295:134,1,90,0|0,1:0|0:0,0:0:0:0:
236,60,3256,1,2,0:0:0:0:
408,160,3414,2,0,P|424:204|416:252,1,90,0|0,0:0|1:0,0:0:0:0:
344,296,3729,6,0,P|428:256|500:324,1,180,2|0,0:0|0:0,0:0:0:0:
420,356,4203,1,0,1:0:0:0:
276,232,4361,2,0,B|244:268|256:320|256:320|208:300|152:316,1,180,0|2,0:0|0:0,0:0:0:0:
0,341,4835,2,0,P|39:348|92:336,1,90,0|2,1:0|0:0,0:0:0:0:
120,256,5151,2,0,L|136:72,1,180,0|0,0:0|1:0,0:0:0:0:
48,52,5624,1,0,0:0:0:0:
180,176,5782,1,2,0:0:0:0:
76,164,5940,1,0,0:0:0:0:
228,68,6098,2,0,P|272:60|324:72,1,90,0|2,1:0|0:0,0:0:0:0:
420,200,6414,5,0,0:0:0:0:
392,112,6572,1,0,0:0:0:0:
484,136,6730,1,0,1:0:0:0:
468,276,6888,2,0,B|420:294|380:274|380:274|340:258|292:274,1,180,0|2,0:0|0:0,0:0:0:0:
340,352,7361,1,0,1:0:0:0:
420,200,7519,1,0,0:0:0:0:
248,204,7677,6,0,P|204:216|160:204,1,90,2|0,0:0|0:0,0:0:0:0:
5,149,7993,2,0,P|47:137|91:147,1,90,0|0,1:0|0:0,0:0:0:0:
212,284,8309,1,0,0:0:0:0:
156,72,8467,2,0,L|248:64,1,90,0|0,0:0|1:0,0:0:0:0:
336,56,8783,5,2,0:0:0:0:
340,72,8941,1,0,0:0:0:0:
344,88,9098,1,2,0:0:0:0:
348,104,9256,1,0,1:0:0:0:
496,208,9414,5,2,0:0:0:0:
492,224,9572,1,0,0:0:0:0:
488,240,9730,1,2,0:0:0:0:
484,256,9888,1,0,1:0:0:0:
312,316,10046,5,2,0:0:0:0:
388,268,10204,2,0,P|304:232|236:276,1,180,0|0,0:0|1:0,0:0:0:0:
180,348,10678,1,0,0:0:0:0:
92,124,10835,2,0,L|100:304,1,180,2|0,0:0|1:0,0:0:0:0:
32,364,11309,1,0,0:0:0:0:
235,276,11467,6,0,L|227:96,1,180,2|0,0:0|1:0,0:0:0:0:
292,32,11941,1,0,0:0:0:0:
356,96,12099,2,0,P|396:104|448:92,1,90,2|2,0:0|0:0,0:0:0:0:
276,196,12415,2,0,P|236:188|184:200,1,90,0|0,1:0|0:0,0:0:0:0:
124,260,12730,1,0,0:0:0:0:
112,264,13046,6,0,L|-4:276,1,90,0|0,1:0|0:0,0:0:0:0:
184,320,13362,1,2,0:0:0:0:
184,320,13520,2,0,P|200:240|124:172,1,180,2|2,0:0|0:0,0:0:0:0:
48,168,13994,2,0,P|152:164|176:92,1,180,0|0,0:0|1:0,0:0:0:0:
88,84,14467,1,0,0:0:0:0:
116,260,14625,1,0,0:0:0:0:
256,148,14783,1,2,0:0:0:0:
74,67,14941,1,0,1:0:0:0:
108,279,15099,1,2,0:0:0:0:
276,144,15257,6,0,L|288:272,1,90
372,252,15573,2,0,P|401:157|344:93,1,180,0|2,1:0|0:0,0:0:0:0:
276,56,16047,1,2,0:0:0:0:
276,56,16204,2,0,P|232:68|180:48,1,90,0|2,1:0|0:0,0:0:0:0:
14,59,16520,2,0,P|57:47|100:60,1,90
152,132,16836,1,0,1:0:0:0:
152,132,16994,2,0,B|156:192|156:192|180:240|180:240|188:336,1,180,0|2,0:0|0:0,0:0:0:0:
100,272,17468,1,0,1:0:0:0:
240,160,17626,1,2,0:0:0:0:
272,336,17784,6,0,L|460:344,1,180,2|0,0:0|1:0,0:0:0:0:
500,268,18257,1,0,0:0:0:0:
456,188,18415,2,0,P|444:144|464:92,2,90,2|0|0,0:0|0:0|1:0,0:0:0:0:
384,240,18889,2,0,L|204:232,1,180,2|0,0:0|0:0,0:0:0:0:
128,280,19363,2,0,P|112:224|144:176,1,90,0|0,1:0|0:0,0:0:0:0:
280,184,19679,2,0,P|296:240|264:288,1,90
136,368,19994,5,0,1:0:0:0:
60,236,20152,1,2,0:0:0:0:
128,100,20310,1,0,0:0:0:0:
112,104,20626,2,0,L|16:116,1,90,0|0,1:0|0:0,0:0:0:0:
216,232,21100,2,0,L|305:220,1,90,0|0,0:0|1:0,0:0:0:0:
384,264,21416,1,0,0:0:0:0:
456,208,21573,2,0,P|472:120|400:56,2,180,4|0|0,0:0|0:0|0:0,0:0:0:0:
384,264,22363,1,0,0:0:0:0:
380,284,22442,1,0,0:0:0:0:
376,304,22521,1,0,0:0:0:0:
304,356,22679,1,0,0:0:0:0:
220,320,22837,6,0,P|168:236|216:152,1,180,4|0,0:0|2:0,0:0:0:0:
260,232,23310,1,0,3:0:0:0:
84,264,23468,1,0,1:0:0:0:
84,264,23784,2,0,L|76:168,1,90,2|0,0:0|0:0,0:0:0:0:
28,88,24100,2,0,P|72:76|128:84,1,90
188,136,24416,1,0,0:0:0:0:
332,28,24574,1,0,0:0:0:0:
284,200,24732,1,0,1:0:0:0:
228,28,24890,1,0,0:0:0:0:
376,132,25047,1,2,0:0:0:0:
400,156,25363,5,2,3:2:0:0:
424,180,25679,1,0,0:0:0:0:
424,180,25837,2,0,B|432:232|432:232|468:288|468:288|480:352,2,180,2|0|2,0:0|0:0|0:0,0:0:0:0:
372,320,26627,2,0,P|328:332|280:320,1,90
216,264,26942,1,0,3:0:0:0:
348,144,27100,1,0,0:0:0:0:
372,320,27258,1,0,1:0:0:0:
196,268,27416,1,0,0:0:0:0:
355,124,27574,1,2,0:0:0:0:
384,335,27732,1,0,0:0:0:0:
176,272,27890,6,0,B|108:300|48:264|48:264|32:208,1,180,2|0,3:0|0:0,0:0:0:0:
124,196,28364,1,0,0:0:0:0:
52,360,28522,1,0,1:0:0:0:
52,360,28679,2,0,P|136:372|228:340,2,180,0|2|2,0:0|0:0|0:0,0:0:0:0:
20,276,29469,2,0,L|12:184,1,90
68,116,29785,1,0,1:0:0:0:
144,164,29943,2,0,B|204:164|204:164|256:152|256:152|344:152,1,180,2|2,0:0|0:0,0:0:0:0:
280,232,30416,5,2,3:0:0:0:
192,76,30574,1,0,0:0:0:0:
372,76,30732,1,0,0:0:0:0:
364,288,30890,1,0,0:0:0:0:
276,132,31048,1,0,1:0:0:0:
456,132,31206,1,0,0:0:0:0:
452,348,31364,5,2,0:0:0:0:
364,192,31522,1,2,0:0:0:0:
272,348,31680,1,0,0:0:0:0:
364,288,31838,1,0,1:0:0:0:
276,132,31996,1,0,1:0:0:0:
184,288,32154,1,2,0:0:0:0:
276,232,32311,1,0,1:0:0:0:
188,76,32469,1,2,0:0:0:0:
96,232,32627,6,0,L|8:244,2,60,0|0|0,1:0|0:0|0:0,0:0:0:0:
140,192,32943,2,0,B|160:160|160:160|248:180|280:88,1,180,4|0,0:0|0:0,0:0:0:0:
188,76,33417,1,0,0:0:0:0:
360,128,33575,2,0,B|408:140|408:140|460:124|460:124|496:152|488:196,1,180,0|2,1:0|0:0,0:0:0:0:
408,232,34048,1,2,0:0:0:0:
408,52,34206,2,0,P|360:40|316:52,1,90
185,121,34522,2,0,P|228:133|272:124,1,90
132,48,34838,2,0,P|89:36|45:45,1,90,0|0,1:0|0:0,0:0:0:0:
4,128,35154,1,0,0:0:0:0:
48,208,35312,1,0,0:0:0:0:
140,208,35470,6,0,P|208:208|272:124,1,180,2|0,0:0|0:0,0:0:0:0:
228,44,35943,1,0,0:0:0:0:
188,124,36101,2,0,P|233:198|319:207,1,180,0|0,1:0|0:0,0:0:0:0:
392,156,36575,1,2,0:0:0:0:
464,208,36733,2,0,P|472:256|464:300,1,90
392,156,37049,2,0,P|384:108|392:64,1,90
472,112,37365,1,0,1:0:0:0:
384,256,37522,1,0,0:0:0:0:
384,256,37680,2,0,L|260:268,1,90
204,280,37996,5,2,0:0:0:0:
120,248,38154,1,0,0:0:0:0:
225,288,38312,1,0,0:0:0:0:
98,240,38470,2,0,B|84:152|84:152|100:60,1,180
168,120,38944,1,0,0:0:0:0:
16,216,39102,1,2,0:0:0:0:
192,120,39260,2,0,B|248:120|248:120|308:96|308:96|396:96,1,180
328,176,39733,1,0,0:0:0:0:
216,36,39891,1,0,1:0:0:0:
148,204,40049,2,0,B|136:248|152:272|152:272|220:276|256:304,1,180,2|0,0:0|0:0,0:0:0:0:
332,352,40523,6,0,L|380:360,3,45
428,260,40839,2,0,L|472:240,3,45
412,140,41154,5,0,1:0:0:0:
400,120,41233,1,0,0:0:0:0:
384,104,41312,1,0,0:0:0:0:
364,92,41391,1,0,0:0:0:0:
344,84,41470,1,0,0:0:0:0:
320,80,41549,1,0,0:0:0:0:
296,80,41628,1,2,0:0:0:0:
276,88,41707,1,0,0:0:0:0:
256,100,41786,2,0,P|216:124|156:124,2,90,0|2|0,0:0|0:0|0:0,0:0:0:0:
192,36,42260,1,0,1:0:0:0:
127,204,42418,5,0,1:0:0:0:
305,176,42576,1,0,0:0:0:0:
204,136,42734,1,0,1:0:0:0:
39,208,42891,1,0,0:0:0:0:
184,314,43049,2,0,B|248:312|248:312|304:344|304:344|384:348,1,180,4|0,0:0|0:0,0:0:0:0:
424,288,43523,5,0,0:0:0:0:
428,108,43681,1,0,1:0:0:0:
276,208,43839,1,2,0:0:0:0:
251,209,44155,5,0,0:0:0:0:
441,84,44313,1,0,0:0:0:0:
436,309,44471,1,2,0:0:0:0:
360,360,44629,6,0,P|304:348|256:360,1,90
92,360,44944,2,0,P|130:317|144:269,1,90,0|0,1:0|0:0,0:0:0:0:
220,124,45260,2,0,P|237:178|272:214,1,90
344,228,45576,2,0,P|432:208|500:264,1,180
412,288,46050,5,0,0:0:0:0:
412,108,46208,1,0,1:0:0:0:
258,203,46366,1,2,0:0:0:0:
232,203,46681,5,0,0:0:0:0:
232,203,46760,1,0,0:0:0:0:
232,203,46839,1,0,0:0:0:0:
424,85,46997,1,2,0:0:0:0:
424,310,47155,1,0,0:0:0:0:
300,112,47313,2,0,P|204:92|136:136,1,180,2|0,0:0|0:0,0:0:0:0:
116,172,47708,1,0,0:0:0:0:
116,172,47787,2,0,L|20:184,1,90,2|0,0:0|0:0,0:0:0:0:
192,260,48103,6,0,L|380:248,1,180,2|0,0:0|0:0,0:0:0:0:
432,180,48576,1,0,0:0:0:0:
276,92,48734,1,0,1:0:0:0:
128,196,48892,1,2,0:0:0:0:
111,200,49208,5,0,0:0:0:0:
275,84,49366,1,0,0:0:0:0:
448,182,49524,1,2,0:0:0:0:
484,264,49682,6,0,P|436:268|388:244,1,90
220,276,49997,2,0,P|240:232|285:202,1,90,0|0,1:0|0:0,0:0:0:0:
336,36,50313,2,0,P|363:75|366:129,1,90
312,320,50629,2,0,P|230:376|147:348,1,180,0|2,0:0|1:2,0:0:0:0:
103,285,51103,1,0,0:0:0:0:
92,196,51261,2,0,L|0:208,1,90,0|0,1:0|0:0,0:0:0:0:
168,144,51577,1,0,0:0:0:0:
168,144,51735,2,0,L|352:128,1,180,2|0,0:0|3:0,0:0:0:0:
436,120,52208,5,0,1:0:0:0:
452,208,52366,1,0,0:0:0:0:
364,220,52524,1,2,0:0:0:0:
447,81,52682,1,0,0:0:0:0:
447,81,52761,1,0,0:0:0:0:
447,81,52840,1,0,1:0:0:0:
473,223,52998,1,0,0:0:0:0:
331,243,53156,2,0,P|237:249|153:219,1,180,4|0,0:0|0:0,0:0:0:0:
104,148,53629,5,0,0:0:0:0:
104,148,53787,1,0,1:0:0:0:
308,48,53945,1,2,0:0:0:0:
204,48,54261,5,0,0:0:0:0:
204,48,54419,1,0,0:0:0:0:
408,148,54577,1,2,0:0:0:0:
448,228,54735,6,0,P|460:272|452:320,1,90
254,267,55051,2,0,P|209:255|172:224,1,90,0|0,1:0|0:0,0:0:0:0:
317,80,55366,2,0,P|349:47|394:30,1,90
472,68,55682,2,0,B|472:132|472:132|452:172|452:172|452:248,1,180,0|4,0:0|0:0,0:0:0:0:
361,310,56156,5,0,0:0:0:0:
269,243,56314,1,0,1:0:0:0:
304,136,56472,1,2,0:0:0:0:
289,116,56788,5,0,0:0:0:0:
474,250,56946,1,0,0:0:0:0:
246,250,57104,1,0,1:0:0:0:
431,116,57261,1,0,0:0:0:0:
361,334,57419,1,0,0:0:0:0:
289,116,57577,2,0,L|256:28,1,90,0|0,1:0|1:0,0:0:0:0:
248,16,58051,6,0,P|160:48|68:32,1,180,4|0,0:0|0:0,0:0:0:0:
24,108,58525,2,0,L|12:200,1,90
80,256,58841,2,0,B|124:236|168:264|168:264|224:256|252:224,1,180,0|0,1:0|0:0,0:0:0:0:
180,168,59314,1,0,0:0:0:0:
312,288,59472,6,0,B|346:260|346:260|417:261|448:176,1,180,2|0,0:0|0:0,0:0:0:0:
432,92,59946,2,0,P|448:188|520:232,2,180,0|2|0,0:0|0:0|0:0,0:0:0:0:
400,60,60657,1,0,0:0:0:0:
400,60,60735,2,0,P|348:52|304:60,1,90
44,100,61051,2,0,P|88:108|132:102,1,90
220,80,61367,1,0,1:0:0:0:
276,152,61525,2,0,B|276:216|276:216|300:256|300:256|300:328,1,180,2|0,0:0|0:0,0:0:0:0:
216,300,61999,5,0,0:0:0:0:
356,188,62157,1,0,0:0:0:0:
176,192,62315,1,0,0:0:0:0:
328,288,62472,1,0,0:0:0:0:
256,124,62630,1,0,1:0:0:0:
240,92,62946,5,2,0:0:0:0:
224,60,63262,5,4,0:0:0:0:
256,192,63578,12,0,65394,0:0:0:0:
