osu file format v14

[General]
AudioFilename: audio.mp3
AudioLeadIn: 1500
PreviewTime: 42418
Countdown: 0
SampleSet: Soft
StackLeniency: 0.7
Mode: 0
LetterboxInBreaks: 0
WidescreenStoryboard: 1

[Editor]
DistanceSpacing: 1.2
BeatDivisor: 4
GridSize: 4
TimelineZoom: 2.4

[Metadata]
Title:Connect - Jazz Funk Mix -
TitleUnicode:コネクト - Jazz Funk Mix -
Artist:ZuikakuP
ArtistUnicode:瑞鶴P
Creator:Backstep
Version:Hard
Source:魔法少女まどか☆マギカ
Tags:ずいかくP Claris Mahou Shoujo Madoka Magica
BeatmapID:1049453
BeatmapSetID:482695

[Difficulty]
HPDrainRate:5
CircleSize:3.5
OverallDifficulty:6
ApproachRate:7
SliderMultiplier:1.5
SliderTickRate:2

[Events]
//Background and Video events
0,0,"connect-BG.jpg",0,0
//Break Periods
//Storyboard Layer 0 (Background)
//Storyboard Layer 1 (Fail)
//Storyboard Layer 2 (Pass)
//Storyboard Layer 3 (Foreground)
//Storyboard Sound Samples

[TimingPoints]
98,315.822718180861,4,2,0,60,1,0
43049,-100,4,2,0,60,0,1
63262,-100,4,2,0,60,0,0

[Colours]
Combo1 : 233,233,233
Combo2 : 255,128,192
Combo3 : 255,60,60
Combo4 : 255,255,128

[HitObjects]
148,280,98,5,0,1:0:0:0:
148,280,729,2,0,B|199:309|256:280|256:280|312:316|377:276,1,225,0|2,1:0|0:0,0:0:0:0:
320,172,1519,2,0,L|344:92,1,75,0|0,3:0|0:0,0:0:0:0:
192,172,1992,2,0,L|168:92,1,75,2|0,0:2|0:0,0:0:0:0:
164,280,2624,6,0,P|248:272|296:216,1,150,4|0,0:0|1:0,0:0:0:0:
356,60,3256,2,0,P|352:100|356:136,1,75,2|0,0:0|0:0,0:0:0:0:
440,172,3572,2,0,P|444:132|440:96,1,75,0|2,1:0|0:0,0:0:0:0:
260,96,3887,2,0,B|216:96|216:96|156:84|156:84|108:84,1,150,0|0,0:0|1:0,0:0:0:0:
44,24,4361,2,0,P|24:100|64:160,1,150,0|2,0:0|0:0,0:0:0:0:
108,232,4835,2,0,P|134:206|148:172,1,75,0|2,1:0|0:0,0:0:0:0:
28,276,5151,5,0,0:0:0:0:
196,340,5466,1,0,1:0:0:0:
360,264,5782,1,2,0:0:0:0:
344,176,5940,2,0,L|328:96,1,75,0|0,0:0|1:0,0:0:0:0:
416,84,6256,2,0,L|452:252,1,150,2|0,0:0|0:0,0:0:0:0:
432,320,6730,1,0,1:0:0:0:
348,356,6888,2,0,B|300:356|300:356|252:364|252:364|196:364,1,150,0|2,0:0|0:0,0:0:0:0:
116,332,7361,1,0,1:0:0:0:
28,304,7519,1,0,0:0:0:0:
28,304,7677,6,0,P|112:288|132:228,1,150,2|0,0:0|1:0,0:0:0:0:
32,84,8309,1,0,0:0:0:0:
80,160,8467,2,0,P|156:152|216:200,1,150,2|2,0:0|0:0,0:0:0:0:
371,55,9098,2,0,P|340:125|269:153,1,150,2|2,0:0|0:0,0:0:0:0:
316,360,9730,2,0,P|271:298|282:222,1,150,2|2,0:0|0:0,0:0:0:0:
356,276,10204,5,0,0:0:0:0:
192,348,10520,1,0,1:0:0:0:
68,220,10835,1,2,0:0:0:0:
168,68,11151,1,0,1:0:0:0:
168,68,11309,1,0,0:0:0:0:
168,68,11467,1,2,0:0:0:0:
348,92,11783,5,0,1:0:0:0:
348,92,12099,2,0,P|392:96|432:88,1,75,2|2,0:0|0:0,0:0:0:0:
304,172,12415,2,0,P|260:168|220:176,1,75,0|0,1:0|0:0,0:0:0:0:
200,260,12730,2,0,P|144:200|152:124,1,150,0|0,0:0|1:0,0:0:0:0:
76,304,13362,1,0,0:0:0:0:
148,356,13520,2,0,B|196:356|196:356|248:368|248:368|304:368,1,150,2|2,0:0|0:0,0:0:0:0:
364,308,13994,6,0,P|376:256|360:156,1,150,0|0,0:0|1:0,0:0:0:0:
320,80,14467,2,0,P|356:156|428:176,1,150,2|2,0:0|0:0,0:0:0:0:
440,264,14941,2,0,P|488:256|532:268,1,75,0|2,1:0|0:0,0:0:0:0:
364,308,15257,6,0,P|288:320|204:300,1,150,0|0,0:0|1:0,0:0:0:0:
136,264,15731,1,0,0:0:0:0:
136,264,15889,2,0,L|128:176,1,75,2|0,0:0|0:0,0:0:0:0:
216,172,16204,2,0,L|228:80,1,75,0|2,1:0|0:0,0:0:0:0:
292,36,16520,5,0,0:0:0:0:
412,168,16836,1,0,1:0:0:0:
344,229,16994,2,0,P|412:255|480:228,2,150,0|2|0,0:0|0:0|0:0,0:0:0:0:
332,336,17784,6,0,P|263:309|193:333,1,150,2|0,0:0|1:0,0:0:0:0:
108,360,18257,1,0,0:0:0:0:
40,300,18415,2,0,L|36:224,1,75,2|0,0:0|0:0,0:0:0:0:
124,208,18731,2,0,L|132:124,1,75,0|2,1:0|0:0,0:0:0:0:
220,132,19047,6,0,L|236:28,1,75
316,28,19363,1,0,1:0:0:0:
452,148,19679,1,0,0:0:0:0:
452,148,19836,1,0,0:0:0:0:
428,236,19994,2,0,P|384:228|336:240,1,75,0|2,1:0|0:0,0:0:0:0:
280,284,20310,5,0,0:0:0:0:
264,304,20626,2,0,L|180:316,1,75,0|2,1:0|0:0,0:0:0:0:
172,332,21100,2,0,L|87:342,1,75,0|0,0:0|1:0,0:0:0:0:
80,360,21573,5,4,0:0:0:0:
4,196,21889,1,0,1:0:0:0:
184,216,22205,1,0,1:0:0:0:
140,296,22363,2,0,P|168:304|220:296,2,75,2|2|0,0:0|0:0|0:0,0:0:0:0:
96,216,22837,6,0,L|88:64,1,150,4|0,0:0|0:0,0:0:0:0:
160,12,23310,1,0,0:0:0:0:
232,64,23468,2,0,P|312:80|404:52,1,150,0|0,1:0|0:0,0:0:0:0:
244,188,23942,6,0,P|164:172|72:200,1,150,2|0,0:0|0:0,0:0:0:0:
32,248,24416,2,0,L|24:328,1,75
116,272,24732,2,0,L|108:352,1,75,0|0,1:0|0:0,0:0:0:0:
196,288,25047,1,0,0:0:0:0:
208,292,25363,6,0,P|284:308|356:300,1,150,2|0,3:2|0:0,0:0:0:0:
432,252,25837,2,0,L|436:96,2,150,0|0|2,0:0|0:0|0:0,0:0:0:0:
448,340,26627,6,0,L|360:356,1,75
344,220,26942,2,0,L|300:304,1,75
168,220,27258,2,0,L|212:304,1,75,0|0,1:0|0:0,0:0:0:0:
64,340,27574,2,0,L|152:356,1,75,2|0,0:0|0:0,0:0:0:0:
256,368,27890,5,2,3:2:0:0:
256,188,28206,2,0,L|256:112,1,75
304,36,28522,1,0,1:0:0:0:
304,36,28679,2,0,L|464:28,2,150,2|2|2,0:0|0:0|0:0,0:0:0:0:
212,36,29469,2,0,L|116:28,1,75
48,20,29785,1,0,1:0:0:0:
4,100,29943,2,0,P|76:120|96:200,1,150,2|0,0:0|0:0,0:0:0:0:
8,188,30416,5,0,3:0:0:0:
184,144,30732,2,0,P|192:188|184:228,1,75
120,280,31048,2,0,P|192:308|260:272,1,150,0|2,1:0|0:0,0:0:0:0:
324,224,31522,1,2,0:0:0:0:
396,276,31680,6,0,L|412:352,2,75,0|0|0,0:0|1:0|1:0,0:0:0:0:
444,200,32154,2,0,L|528:184,2,75,0|0|0,0:0|1:0|0:0,0:0:0:0:
372,148,32627,2,0,L|352:60,1,75,0|0,1:0|1:0,0:0:0:0:
280,124,32943,6,0,P|208:152|136:120,1,150,4|0,0:0|0:0,0:0:0:0:
72,72,33417,1,0,0:0:0:0:
8,132,33575,2,0,L|0:292,1,150,0|2,1:0|0:0,0:0:0:0:
64,344,34048,1,2,0:0:0:0:
136,288,34206,6,0,P|168:284|216:288,1,75
376,312,34522,2,0,P|344:316|296:312,1,75,0|0,3:0|0:0,0:0:0:0:
276,228,34838,2,0,P|296:152|272:72,1,150,0|2,1:0|0:0,0:0:0:0:
208,28,35312,1,0,0:0:0:0:
132,80,35470,6,0,P|56:96|-20:72,1,150,2|0,3:2|0:0,0:0:0:0:
136,64,35943,2,0,L|120:224,1,150,2|2,0:0|0:0,0:0:0:0:
36,184,36417,2,0,L|24:280,1,75,0|2,0:0|0:0,0:0:0:0:
116,292,36733,6,0,B|168:292|168:292|216:308|216:308|268:308,1,150
348,340,37207,1,0,0:0:0:0:
348,340,37365,2,0,P|416:312|492:348,1,150,0|2,1:0|0:0,0:0:0:0:
328,248,37996,6,0,P|260:276|184:240,1,150,2|0,3:2|0:0,0:0:0:0:
128,184,38470,1,0,0:0:0:0:
68,248,38628,2,0,L|60:328,2,75,0|0|0,1:0|0:0|0:0,0:0:0:0:
4,180,39102,6,0,L|16:24,1,150,2|0,0:0|0:0,0:0:0:0:
96,68,39575,2,0,P|132:76|172:68,1,75
180,160,39891,2,0,P|215:148|245:122,1,75,0|2,1:0|0:0,0:0:0:0:
296,200,40207,2,0,P|320:172|334:134,1,75
256,192,40523,12,2,41786,0:0:0:0:
292,56,42418,6,0,P|252:60|212:56,1,75,0|0,1:0|0:0,0:0:0:0:
52,52,42734,2,0,P|92:48|132:52,1,75,0|0,1:0|0:0,0:0:0:0:
168,132,43049,2,0,P|156:208|168:288,1,150,4|0,0:0|0:0,0:0:0:0:
236,336,43523,6,0,L|316:344,2,75,0|0|2,0:0|1:0|0:0,0:0:0:0:
80,244,44155,6,0,L|0:252,2,75,0|0|2,0:0|0:0|0:0,0:0:0:0:
248,304,44786,6,0,P|268:232|248:152,2,150,0|0|2,0:0|0:0|0:0,0:0:0:0:
172,352,45576,2,0,P|96:336|24:352,1,150
12,260,46050,5,0,0:0:0:0:
12,260,46208,2,0,L|8:160,1,75,0|2,1:0|0:0,0:0:0:0:
124,48,46681,1,0,0:0:0:0:
124,140,46839,2,0,P|80:128|52:104,2,75,2|0|0,0:0|0:0|0:0,0:0:0:0:
204,100,47313,2,0,P|260:84|352:96,1,150,2|0,0:0|0:0,0:0:0:0:
432,136,47787,2,0,L|512:128,1,75
456,224,48103,2,0,L|292:236,1,150,2|0,0:0|0:0,0:0:0:0:
248,300,48576,6,0,L|252:376,2,75,0|0|2,0:0|1:0|0:0,0:0:0:0:
84,224,49208,6,0,L|8:232,2,75,0|0|2,0:0|0:0|0:0,0:0:0:0:
264,212,49840,6,0,P|256:136|272:56,2,150,2|2|0,0:0|0:0|0:0,0:0:0:0:
332,268,50629,2,0,P|416:256|492:276,2,150,0|2|0,0:0|0:0|1:0,0:0:0:0:
248,300,51419,2,0,L|228:372,2,75,0|0|2,0:0|0:0|0:0,0:0:0:0:
108,188,52050,1,8,0:3:0:0:
176,128,52208,2,0,P|212:132|256:128,1,75,0|0,1:0|0:0,0:0:0:0:
324,80,52524,2,0,P|364:76|408:80,1,75,2|0,0:0|0:0,0:0:0:0:
472,132,52840,2,0,L|452:208,1,75,0|0,1:0|0:0,0:0:0:0:
504,280,53156,2,0,P|436:244|360:264,1,150,4|0,0:0|0:0,0:0:0:0:
300,320,53629,5,0,0:0:0:0:
208,320,53787,2,0,L|120:320,1,75,0|2,1:0|0:0,0:0:0:0:
312,304,54261,5,0,0:0:0:0:
246,238,54419,2,0,L|183:175,1,75,0|2,0:0|0:0,0:0:0:0:
328,280,54893,6,0,L|328:108,2,150,0|2|2,0:0|0:0|0:0,0:0:0:0:
260,340,55682,2,0,P|168:352|96:336,1,150,0|4,0:0|0:0,0:0:0:0:
40,284,56156,2,0,L|36:204,2,75,0|0|0,0:0|1:0|0:0,0:0:0:0:
180,172,56788,1,0,0:0:0:0:
240,240,56946,2,0,P|276:244|328:240,1,75,2|0,0:0|1:0,0:0:0:0:
380,180,57261,2,0,P|388:132|380:96,1,75
320,44,57577,2,0,P|272:36|236:44,1,75,0|0,1:0|1:0,0:0:0:0:
476,192,58051,6,0,P|464:272|476:344,1,150,4|0,0:0|0:0,0:0:0:0:
388,368,58525,2,0,L|308:360,1,75
240,308,58841,2,0,B|196:288|120:300|120:300|88:324|88:324|16:268|48:196,2,300,0|2|0,1:0|0:0|1:0,0:0:0:0:
292,236,60262,2,0,P|376:256|448:236,1,150,2|0,0:0|0:0,0:0:0:0:
504,184,60735,6,0,L|508:32,1,150,2|0,0:0|0:0,0:0:0:0:
420,16,61209,1,0,0:0:0:0:
332,36,61367,2,0,P|296:44|256:32,1,75,0|0,1:0|0:0,0:0:0:0:
95,38,61683,2,0,P|132:30|168:40,1,75
216,116,61999,6,0,L|224:268,1,150,2|0,0:0|0:0,0:0:0:0:
140,300,62472,1,0,0:0:0:0:
204,364,62630,1,0,1:0:0:0:
292,344,62788,1,0,0:0:0:0:
316,256,62946,1,2,0:0:0:0:
188,128,63262,5,4,0:0:0:0:
256,192,63578,12,0,65394,0:0:0:0:
