osu file format v14

[General]
AudioFilename: audio.mp3
AudioLeadIn: 0
PreviewTime: 67917
Countdown: 0
SampleSet: Soft
StackLeniency: 0.7
Mode: 0
LetterboxInBreaks: 0
WidescreenStoryboard: 1

[Editor]
Bookmarks: 10208,31623,49837,68049,85193,95908,114122,132336,149478,166621,181621
DistanceSpacing: 1.5
BeatDivisor: 4
GridSize: 4
TimelineZoom: 2.399999

[Metadata]
Title:Hao Yun Lai
TitleUnicode:好运来
Artist:Zu Hai
ArtistUnicode:祖海
Creator:kanor
Version:Normal
Source:
Tags:好运来 抽卡专用BGM Sandrew UjiMatcha Lobelia Koiyuki -ClariS- papple104 yorita_yoshino Chinese Pop Novelty
BeatmapID:2348769
BeatmapSetID:1090501

[Difficulty]
HPDrainRate:3
CircleSize:3.2
OverallDifficulty:4
ApproachRate:5
SliderMultiplier:1.1
SliderTickRate:1

[Events]
//Background and Video events
0,0,"96000.png",0,0
//Break Periods
2,29680,30423
2,166821,173993
//Storyboard Layer 0 (Background)
//Storyboard Layer 1 (Fail)
//Storyboard Layer 2 (Pass)
//Storyboard Layer 3 (Foreground)
//Storyboard Layer 4 (Overlay)
//Storyboard Sound Samples

[TimingPoints]
1623,535.714285714286,4,2,1,40,1,0
10194,-100,4,2,1,60,0,0
29480,-100,4,2,1,40,0,0
31623,-100,4,2,1,50,0,0
49837,535.714285714286,4,2,1,50,1,0
68051,535.714285714286,4,2,1,65,1,0
85193,-100,4,2,1,55,0,0
91622,-100,4,2,1,60,0,0
95908,-100,4,2,1,50,0,0
114122,535.714285714286,4,2,1,50,1,0
132336,535.714285714286,4,2,1,65,1,0
166621,-100,4,2,1,60,0,0
181621,-100,4,2,1,65,0,0
201911,-100,4,2,1,5,0,0
201978,-100,4,2,1,65,0,0
202916,-100,4,2,1,5,0,0
203050,-100,4,2,1,65,0,0

[Colours]
Combo1 : 128,210,255
Combo2 : 0,255,64
Combo3 : 199,141,141
Combo4 : 255,43,43

[HitObjects]
20,79,10194,6,0,P|59:59|131:77,1,110,4|2,0:0|0:0,0:0:0:0:
196,106,10998,1,0,0:0:0:0:
196,106,11265,2,0,L|196:237,1,110,2|10,0:0|0:0,0:0:0:0:
128,264,12069,1,2,0:0:0:0:
128,264,12337,2,0,B|66:250|88:297|9:284,2,110,2|2|2,0:0|0:0|0:0,0:0:0:0:
266,354,13944,1,10,0:0:0:0:
354,214,14480,6,0,B|389:228|389:228|474:215,1,110,2|2,0:0|0:0,0:0:0:0:
504,147,15283,1,0,0:0:0:0:
504,147,15551,2,0,B|469:133|469:133|384:146,1,110,2|10,0:0|0:0,0:0:0:0:
325,114,16355,1,2,0:0:0:0:
325,114,16623,2,0,B|310:47|355:73|332:-13,2,110,2|2|2,0:0|0:0|0:0,0:0:0:0:
260,166,17962,1,0,0:0:0:0:
189,123,18230,2,0,L|116:116,1,55,8|8,0:0|0:3,0:0:0:0:
78,57,18765,6,0,P|52:112|72:172,1,110,4|2,0:0|0:0,0:0:0:0:
38,239,19569,1,0,0:0:0:0:
38,239,19837,2,0,L|158:233,1,110,2|10,0:0|0:0,0:0:0:0:
149,320,20640,1,2,0:0:0:0:
149,320,20908,2,0,L|39:325,2,110,2|2|2,0:0|0:0|0:0,0:0:0:0:
254,193,22515,1,8,0:0:0:0:
326,341,23051,6,0,P|374:344|413:289,1,110,2|2,0:0|0:0,0:0:0:0:
421,222,23855,1,0,0:0:0:0:
421,222,24123,2,0,L|490:230,3,55,2|0|10|2,0:0|0:0|0:0|0:0,0:0:0:0:
508,152,25194,6,0,L|395:135,1,110,2|2,0:0|0:0,0:0:0:0:
280,21,26265,2,0,L|167:38,1,110,0|8,0:0|0:0,0:0:0:0:
97,74,27069,2,0,L|28:69,1,55,8|4,0:3|0:0,0:0:0:0:
256,192,27605,12,4,29480,0:0:0:0:
0,196,31623,6,0,B|74:194|30:228|125:216,1,110,4|10,0:0|0:0,0:0:0:0:
149,149,32426,1,0,0:0:0:0:
149,149,32694,2,0,P|192:186|182:243,1,110,0|8,0:0|0:0,0:0:0:0:
313,341,33765,2,0,P|269:303|279:246,1,110,0|8,0:0|0:0,0:0:0:0:
341,207,34569,1,0,0:0:0:0:
341,207,34837,2,0,B|415:205|371:239|466:227,1,110,8|10,0:3|0:0,0:0:0:0:
436,146,35640,1,8,0:3:0:0:
359,114,35908,6,0,B|311:122|311:122|254:101,2,110,0|8|2,0:0|0:0|0:0,0:0:0:0:
499,27,37515,1,8,0:0:0:0:
490,192,38051,2,0,L|494:265,1,55,0|0,0:0|0:0,0:0:0:0:
437,308,38587,2,0,L|433:381,2,55,8|0|8,0:0|0:0|0:3,0:0:0:0:
367,263,39390,1,8,0:3:0:0:
285,274,39658,2,0,L|222:271,1,55,8|8,0:0|0:3,0:0:0:0:
171,330,40194,6,0,P|117:334|67:299,1,110,2|8,0:0|0:0,0:0:0:0:
18,241,40998,1,0,0:0:0:0:
18,241,41265,2,0,L|24:130,1,110,0|10,0:0|0:0,0:0:0:0:
150,24,42337,2,0,P|203:20|254:55,1,110,0|8,0:0|0:0,0:0:0:0:
282,131,43141,1,0,0:0:0:0:
282,131,43408,2,0,L|276:242,1,110,8|10,0:3|0:0,0:0:0:0:
224,305,44212,1,8,0:3:0:0:
287,357,44480,6,0,P|341:367|391:333,2,110,0|8|0,0:0|0:0|0:0,0:0:0:0:
327,285,45819,1,2,0:0:0:0:
397,242,46087,2,0,L|474:246,2,55,10|2|4,0:0|0:0|0:0,0:0:0:0:
80,142,47694,6,0,L|91:32,1,110,6|10,0:0|0:0,0:0:0:0:
177,28,48498,1,0,0:0:0:0:
177,28,48765,2,0,L|167:106,1,55,10|0,0:0|0:0,0:0:0:0:
175,165,49301,1,8,0:0:0:0:
253,192,49569,1,8,0:3:0:0:
314,137,49837,6,0,P|357:112|425:120,1,110,4|8,0:0|0:0,0:0:0:0:
484,170,50640,1,0,0:0:0:0:
484,170,50908,2,0,P|441:195|373:187,1,110,0|8,0:0|0:0,0:0:0:0:
217,198,51979,2,0,P|192:241|200:309,1,110,0|8,0:0|0:0,0:0:0:0:
250,368,52782,1,0,0:0:0:0:
250,368,53051,2,0,P|275:325|267:257,1,110,0|10,0:0|0:0,0:0:0:0:
281,184,53854,1,8,0:3:0:0:
232,117,54122,6,0,B|172:133|175:84|109:98,2,110,0|8|0,0:0|0:0|0:0,0:0:0:0:
377,39,55729,1,8,0:0:0:0:
501,147,56265,2,0,L|431:148,1,55,0|0,0:0|0:0,0:0:0:0:
382,200,56801,2,0,L|312:199,2,55,8|0|8,0:0|0:0|3:0,0:0:0:0:
447,250,57604,1,8,0:3:0:0:
471,328,57872,2,0,L|401:329,1,55,8|8,0:0|0:3,0:0:0:0:
344,287,58408,6,0,P|287:280|241:314,1,110,0|8,0:0|0:0,0:0:0:0:
179,356,59212,1,0,0:0:0:0:
179,356,59479,2,0,P|122:363|76:329,1,110,0|8,0:0|0:0,0:0:0:0:
5,187,60551,6,0,P|62:180|108:214,1,110,0|8,0:0|0:0,0:0:0:0:
190,219,61355,1,0,0:0:0:0:
190,219,61622,2,0,P|247:226|293:192,1,110,8|10,0:3|0:0,0:0:0:0:
344,136,62426,1,8,0:3:0:0:
381,62,62694,6,0,P|324:55|278:89,1,110,0|8,0:0|0:0,0:0:0:0:
385,211,63765,2,0,P|442:218|488:184,2,110,0|8|4,0:0|0:3|0:0,0:0:0:0:
112,39,65908,6,0,P|64:29|11:58,1,110,12|8,0:0|0:0,0:0:0:0:
27,221,66979,2,0,L|12:299,2,55,8|8|8,0:0|0:3|0:0,0:0:0:0:
189,187,68051,6,0,B|226:201|226:201|277:193,2,82.5,4|2|2,0:3|0:0|0:0,0:0:0:0:
147,115,69122,2,0,L|157:50,1,55,0|0,0:0|0:3,0:0:0:0:
232,31,69658,2,0,L|295:27,1,55,8|0,0:0|0:0,0:0:0:0:
364,54,70193,2,0,B|350:91|350:91|358:142,2,82.5,2|2|2,0:0|0:0|0:0,0:0:0:0:
445,41,71265,1,8,0:3:0:0:
506,96,71533,1,8,0:3:0:0:
510,178,71801,2,0,L|504:244,1,55,8|8,0:0|0:3,0:0:0:0:
501,315,72336,6,0,B|439:306|451:350|390:330,1,110,2|10,0:0|0:0,0:0:0:0:
340,270,73140,1,0,0:0:0:0:
340,270,73408,2,0,B|278:261|290:305|229:285,1,110,2|10,0:0|0:0,0:0:0:0:
168,335,74211,1,2,0:0:0:0:
168,335,74479,2,0,B|122:353|122:353|40:342,2,110,2|10|0,0:0|0:0|0:0,0:0:0:0:
144,255,75818,1,0,0:0:0:0:
83,199,76086,2,0,L|94:139,1,55,8|8,0:0|0:3,0:0:0:0:
95,62,76622,6,0,L|0:51,2,82.5,6|2|2,0:0|0:0|0:0,0:0:0:0:
176,73,77693,2,0,L|172:18,1,55,0|0,0:0|0:0,0:0:0:0:
255,10,78229,2,0,L|259:78,1,55,8|0,0:0|0:0,0:0:0:0:
303,134,78765,2,0,L|398:123,2,82.5,2|2|2,0:0|0:0|0:0,0:0:0:0:
220,133,79836,1,8,0:3:0:0:
145,169,80104,1,8,0:3:0:0:
129,250,80372,2,0,L|133:318,1,55,8|8,0:0|0:3,0:0:0:0:
201,350,80908,6,0,P|246:359|304:328,1,110,2|10,0:0|0:0,0:0:0:0:
308,252,81711,1,2,0:0:0:0:
308,252,81979,2,0,P|353:243|411:274,1,110,2|10,0:0|0:0,0:0:0:0:
467,336,82783,1,2,0:0:0:0:
467,336,83051,2,0,B|492:307|492:307|487:215,2,110,2|10|0,0:0|0:0|0:0,0:0:0:0:
387,314,84390,1,0,0:0:0:0:
301,331,84658,2,0,L|229:320,1,55,8|8,0:0|0:3,0:0:0:0:
168,348,85193,6,0,L|67:361,2,82.5,6|2|2,0:0|0:0|0:0,0:0:0:0:
111,198,86533,1,8,0:3:0:0:
111,198,86801,2,0,L|36:187,1,55,8|0,0:0|0:0,0:0:0:0:
26,266,87336,2,0,L|127:279,2,82.5,2|2|2,0:0|0:0|0:0,0:0:0:0:
27,105,88676,1,0,0:0:0:0:
27,105,88944,2,0,L|102:94,1,55,8|8,0:0|0:3,0:0:0:0:
158,66,89479,6,0,L|163:143,1,55,2|2,0:0|0:0,0:0:0:0:
302,32,90283,1,8,0:3:0:0:
302,32,90551,2,0,L|307:109,1,55,2|2,0:0|0:0,0:0:0:0:
464,43,91354,5,8,0:3:0:0:
464,43,91622,2,0,L|469:120,1,55,2|2,0:0|0:0,0:0:0:0:
322,173,92426,1,8,0:3:0:0:
322,173,92694,2,0,L|327:250,1,55,2|2,0:0|0:0,0:0:0:0:
451,342,93497,5,8,0:3:0:0:
451,342,93765,2,0,L|456:265,1,55,12|12,0:0|0:0,0:0:0:0:
129,343,95104,2,0,L|134:266,1,55,4|4,0:0|0:0,0:0:0:0:
0,188,95908,6,0,B|74:190|30:156|125:168,1,110,4|8,0:0|0:0,0:0:0:0:
152,240,96711,1,0,0:0:0:0:
152,240,96979,2,0,P|195:202|185:145,1,110,0|8,0:0|0:0,0:0:0:0:
313,43,98050,2,0,P|269:80|279:137,1,110,0|8,0:0|0:0,0:0:0:0:
343,181,98854,1,0,0:0:0:0:
343,181,99122,2,0,B|417:183|373:149|468:161,1,110,0|10,0:0|0:0,0:0:0:0:
439,241,99926,1,8,0:3:0:0:
366,278,100193,6,0,B|318:270|318:270|261:291,2,110,0|8|0,0:0|0:0|0:0,0:0:0:0:
505,366,101800,1,8,0:0:0:0:
505,200,102336,2,0,L|509:127,1,55,0|0,0:0|0:0,0:0:0:0:
452,84,102872,2,0,L|448:11,2,55,8|0|8,0:0|0:0|0:3,0:0:0:0:
379,123,103676,1,8,0:3:0:0:
305,85,103943,2,0,L|242:88,1,55,8|8,0:3|0:3,0:0:0:0:
174,54,104479,6,0,P|120:49|70:85,1,110,0|8,0:0|0:0,0:0:0:0:
19,140,105283,1,0,0:0:0:0:
19,140,105550,2,0,L|25:251,1,110,0|8,0:0|0:0,0:0:0:0:
147,362,106622,2,0,P|200:366|251:331,1,110,0|8,0:0|0:0,0:0:0:0:
275,261,107426,1,0,0:0:0:0:
275,261,107693,2,0,L|269:150,1,110,8|10,0:3|0:0,0:0:0:0:
218,85,108497,1,8,0:3:0:0:
282,33,108765,6,0,P|331:23|385:57,2,110,0|8|0,0:0|0:0|0:0,0:0:0:0:
320,105,110104,1,2,0:0:0:0:
394,141,110372,2,0,L|471:137,2,55,8|2|4,0:0|0:0|0:0,0:0:0:0:
80,242,111979,6,0,L|91:351,1,110,6|8,0:0|0:0,0:0:0:0:
177,356,112783,1,8,0:3:0:0:
177,356,113050,2,0,L|168:279,1,55,8|8,0:3|0:3,0:0:0:0:
159,219,113586,1,8,0:0:0:0:
241,210,113854,1,8,0:3:0:0:
314,247,114122,6,0,P|357:272|425:264,1,110,4|8,0:0|0:0,0:0:0:0:
484,214,114925,1,0,0:0:0:0:
484,214,115193,2,0,P|441:189|373:197,1,110,0|8,0:0|0:0,0:0:0:0:
217,186,116264,2,0,P|192:143|200:75,1,110,0|8,0:0|0:0,0:0:0:0:
250,16,117067,1,0,0:0:0:0:
250,16,117336,2,0,P|275:59|267:127,1,110,0|8,0:0|0:0,0:0:0:0:
268,200,118139,1,8,0:3:0:0:
235,276,118407,6,0,B|175:260|178:309|112:295,2,110,0|8|0,0:0|0:0|0:0,0:0:0:0:
381,352,120014,1,8,0:0:0:0:
501,237,120550,2,0,L|431:236,1,55,0|0,0:0|0:0,0:0:0:0:
382,184,121086,2,0,L|312:185,2,55,8|0|8,0:0|0:0|0:3,0:0:0:0:
451,139,121889,1,8,0:3:0:0:
479,61,122157,2,0,L|409:60,1,55,8|8,0:0|0:3,0:0:0:0:
345,87,122693,6,0,P|288:94|242:60,1,110,0|8,0:0|0:0,0:0:0:0:
179,28,123497,1,0,0:0:0:0:
179,28,123764,2,0,P|122:21|76:55,1,110,0|8,0:0|0:0,0:0:0:0:
5,197,124836,2,0,P|62:204|108:170,1,110,0|8,0:0|0:0,0:0:0:0:
190,165,125640,1,0,0:0:0:0:
190,165,125907,2,0,P|247:158|293:192,1,110,8|10,0:3|0:0,0:0:0:0:
347,244,126711,1,8,0:3:0:0:
376,321,126979,6,0,P|326:324|280:290,1,110,0|8,0:0|0:0,0:0:0:0:
396,172,128050,2,0,P|453:165|499:199,2,110,8|8|4,0:3|0:0|0:0,0:0:0:0:
112,345,130193,6,0,P|64:355|11:326,1,110,12|8,0:0|0:0,0:0:0:0:
27,163,131264,2,0,L|12:85,2,55,8|8|8,0:0|0:3|0:0,0:0:0:0:
189,197,132336,6,0,B|226:183|226:183|277:191,2,82.5,4|2|2,0:3|0:0|0:0,0:0:0:0:
176,278,133407,2,0,L|172:341,1,55,8|8,0:3|0:3,0:0:0:0:
253,348,133943,2,0,L|316:352,1,55,8|0,0:0|0:0,0:0:0:0:
377,307,134478,2,0,B|363:270|363:270|371:219,2,82.5,2|2|2,0:0|0:0|0:0,0:0:0:0:
439,361,135550,1,8,0:3:0:0:
484,291,135818,1,0,0:0:0:0:
508,212,136086,2,0,L|502:146,1,55,8|8,0:0|0:3,0:0:0:0:
505,74,136621,6,0,B|443:83|455:39|394:59,1,110,2|10,0:0|0:0,0:0:0:0:
340,114,137425,1,0,0:0:0:0:
340,114,137693,2,0,B|278:123|290:79|229:99,1,110,2|10,0:0|0:0,0:0:0:0:
168,49,138496,1,2,0:0:0:0:
168,49,138764,2,0,B|122:31|122:31|40:42,2,110,2|10|2,0:0|0:0|0:0,0:0:0:0:
179,130,140103,1,0,0:0:0:0:
111,178,140371,2,0,L|117:247,1,55,8|8,0:0|0:3,0:0:0:0:
83,309,140907,6,0,L|-12:320,2,82.5,4|2|2,0:0|0:0|0:0,0:0:0:0:
165,309,141978,2,0,L|161:363,1,55,0|0,0:0|0:0,0:0:0:0:
244,364,142514,2,0,L|248:296,1,55,8|0,0:0|0:0,0:0:0:0:
309,254,143050,2,0,L|404:265,2,82.5,2|2|2,0:0|0:0|0:0,0:0:0:0:
237,213,144121,1,8,0:3:0:0:
154,213,144389,1,0,0:0:0:0:
129,134,144657,2,0,L|133:66,1,55,8|8,0:0|0:3,0:0:0:0:
201,34,145193,6,0,P|246:25|304:56,1,110,2|10,0:0|0:0,0:0:0:0:
309,139,145996,1,0,0:0:0:0:
309,139,146264,2,0,P|354:148|412:117,1,110,2|10,0:0|0:0,0:0:0:0:
469,62,147068,1,2,0:0:0:0:
469,62,147336,2,0,B|494:91|494:91|489:183,2,110,2|10|0,0:0|0:0|0:0,0:0:0:0:
399,17,148675,1,0,0:0:0:0:
317,26,148943,2,0,L|311:88,1,55,8|8,0:0|0:3,0:0:0:0:
251,137,149478,6,0,P|209:121|148:131,2,82.5,4|2|2,0:3|0:0|0:0,0:0:0:0:
329,164,150550,2,0,L|322:245,1,55,8|8,0:3|0:3,0:0:0:0:
406,207,151086,2,0,L|399:288,1,55,8|0,0:0|0:0,0:0:0:0:
429,339,151621,2,0,P|471:323|532:333,2,82.5,2|2|2,0:0|0:0|0:0,0:0:0:0:
347,325,152693,1,8,0:3:0:0:
268,362,152961,1,8,0:3:0:0:
268,362,153229,2,0,L|261:281,1,55,8|8,0:0|0:3,0:0:0:0:
181,294,153764,6,0,L|51:302,1,110,2|10,0:0|0:0,0:0:0:0:
52,220,154568,1,0,0:0:0:0:
52,220,154836,2,0,L|161:213,1,110,2|10,0:0|0:0,0:0:0:0:
159,134,155639,1,2,0:0:0:0:
159,134,155907,2,0,L|49:140,2,110,2|10|0,0:0|0:0|0:0,0:0:0:0:
202,63,157246,1,0,0:0:0:0:
279,35,157514,2,0,L|356:44,1,55,8|8,0:0|0:3,0:0:0:0:
395,96,158050,6,0,B|435:102|435:102|498:85,2,82.5,4|2|2,0:0|0:0|0:0,0:0:0:0:
326,141,159121,2,0,L|318:203,1,55,8|8,0:3|0:3,0:0:0:0:
240,171,159657,2,0,L|232:233,1,55,8|0,0:0|0:0,0:0:0:0:
265,301,160193,2,0,B|225:307|225:307|162:290,2,82.5,2|2|2,0:0|0:0|0:0,0:0:0:0:
336,342,161264,1,8,0:3:0:0:
420,364,161532,1,8,0:3:0:0:
420,364,161800,2,0,L|412:302,1,55,8|8,0:0|0:3,0:0:0:0:
455,238,162336,6,0,L|467:119,1,110,2|10,0:0|0:0,0:0:0:0:
449,52,163139,1,2,0:0:0:0:
449,52,163407,2,0,P|399:29|345:44,1,110,2|10,0:0|0:0,0:0:0:0:
273,74,164211,1,2,0:0:0:0:
273,74,164478,2,0,B|267:115|267:115|287:183,2,110,2|10|0,0:0|0:0|0:0,0:0:0:0:
196,42,165818,1,0,0:0:0:0:
118,14,166086,2,0,P|68:-1|19:27,1,110,8|4,0:0|0:0,0:0:0:0:
256,192,175193,12,4,179478,0:0:0:0:
134,154,180550,6,0,P|90:224|125:307,1,165,4|0,0:0|0:0,0:0:0:0:
168,358,181621,6,0,P|220:370|270:349,1,110,4|8,0:3|0:0,0:0:0:0:
318,283,182425,1,0,0:0:0:0:
318,283,182692,2,0,L|318:152,1,110,8|8,0:3|0:0,0:0:0:0:
383,121,183496,1,0,0:0:0:0:
383,121,183764,2,0,B|445:135|423:88|502:101,2,110,2|10|8,0:0|0:0|0:3,0:0:0:0:
319,68,185103,1,8,0:3:0:0:
236,72,185371,2,0,L|227:140,1,55,8|8,0:0|0:3,0:0:0:0:
158,170,185907,6,0,B|123:156|123:156|38:169,1,110,2|10,0:0|0:0,0:0:0:0:
7,238,186710,1,0,0:0:0:0:
7,238,186978,2,0,B|42:252|42:252|127:239,1,110,2|10,0:0|0:0,0:0:0:0:
194,276,187782,1,2,0:0:0:0:
194,276,188050,2,0,B|209:343|164:317|187:403,2,110,2|10|0,0:0|0:0|0:0,0:0:0:0:
252,218,189389,1,0,0:0:0:0:
323,261,189657,2,0,L|396:268,1,55,8|8,0:0|0:3,0:0:0:0:
434,327,190192,6,0,P|460:272|440:212,1,110,4|10,0:0|0:0,0:0:0:0:
466,148,190996,1,0,0:0:0:0:
466,148,191264,2,0,L|346:154,1,110,2|10,0:0|0:0,0:0:0:0:
355,75,192067,1,2,0:0:0:0:
355,75,192335,2,0,L|464:69,2,110,2|10|2,0:0|0:0|0:0,0:0:0:0:
307,142,193675,1,8,0:3:0:0:
230,172,193943,2,0,L|221:113,1,55,8|8,0:0|0:3,0:0:0:0:
186,43,194478,6,0,P|137:39|99:95,1,110,2|10,0:0|0:0,0:0:0:0:
69,161,195282,1,2,0:0:0:0:
69,161,195550,2,0,L|0:153,3,55,2|2|10|2,0:0|0:0|0:0|0:0,0:0:0:0:
7,236,196621,6,0,L|122:248,1,110,2|10,0:0|0:0,0:0:0:0:
165,320,197425,1,0,0:0:0:0:
165,320,197692,2,0,L|278:303,1,110,0|8,0:0|0:0,0:0:0:0:
353,326,198496,1,8,0:3:0:0:
424,367,198764,6,0,P|433:327|402:259,1,110,4|8,0:0|0:0,0:0:0:0:
423,183,199568,2,0,P|414:143|445:75,1,110,0|0,0:0|0:0,0:0:0:0:
505,31,200371,1,8,0:0:0:0:
256,192,200907,12,4,203050,0:0:0:0:
22,119,204389,5,0,0:0:0:0:
22,119,204657,2,0,L|15:186,1,55,8|0,0:0|0:0,0:0:0:0:
33,254,205193,2,0,B|179:212|109:322|242:288,1,220,0|0,0:0|0:0,0:0:0:0:
312,258,206532,1,0,0:0:0:0:
392,277,206800,2,0,L|398:205,2,55,8|0|4,0:0|0:0|0:0,0:0:0:0:
320,128,207871,6,0,L|326:56,2,55,4|4|4,0:0|0:0|0:3,0:0:0:0:
