osu file format v14

[General]
AudioFilename: audio.mp3
AudioLeadIn: 0
PreviewTime: 67917
Countdown: 0
SampleSet: Soft
StackLeniency: 0.2
Mode: 0
LetterboxInBreaks: 0
WidescreenStoryboard: 1

[Editor]
Bookmarks: 10208,31623,49837,68049,85193,95908,114122,132336,149478,166621,181621
DistanceSpacing: 1.3
BeatDivisor: 4
GridSize: 4
TimelineZoom: 1.799999

[Metadata]
Title:Hao Yun Lai
TitleUnicode:好运来
Artist:Zu Hai
ArtistUnicode:祖海
Creator:kanor
Version:Collab Hard
Source:
Tags:好运来 抽卡专用BGM Sandrew UjiMatcha Lobelia Koiyuki -ClariS- papple104 yorita_yoshino Chinese Pop Novelty
BeatmapID:2295573
BeatmapSetID:1090501

[Difficulty]
HPDrainRate:6
CircleSize:4
OverallDifficulty:6
ApproachRate:7
SliderMultiplier:2
SliderTickRate:1

[Events]
//Background and Video events
0,0,"96000.png",0,0
//Break Periods
//Storyboard Layer 0 (Background)
//Storyboard Layer 1 (Fail)
//Storyboard Layer 2 (Pass)
//Storyboard Layer 3 (Foreground)
//Storyboard Layer 4 (Overlay)
//Storyboard Sound Samples

[TimingPoints]
1623,535.714285714286,4,2,1,40,1,0
10194,-100,4,2,1,60,0,0
29480,-200,4,2,1,40,0,0
31623,-111.111111111111,4,2,1,50,0,0
47158,-111.111111111111,4,2,1,30,0,0
47694,-111.111111111111,4,2,1,50,0,0
49837,535.714285714286,4,2,1,50,1,0
49837,-111.111111111111,4,2,1,50,0,0
64837,-142.857142857143,4,2,1,50,0,0
66444,-125,4,2,1,50,0,0
66979,-111.111111111111,4,2,1,50,0,0
68051,535.714285714286,4,2,1,65,1,0
68051,-83.3333333333333,4,2,1,65,0,1
69658,-100,4,2,1,65,0,1
70193,-83.3333333333333,4,2,1,65,0,1
71801,-100,4,2,1,65,0,1
76622,-83.3333333333333,4,2,1,65,0,1
78229,-100,4,2,1,65,0,1
78765,-83.3333333333333,4,2,1,65,0,1
80372,-100,4,2,1,65,0,1
85193,-83.3333333333333,4,2,1,55,0,0
86533,-100,4,2,1,55,0,0
87336,-83.3333333333333,4,2,1,55,0,0
88676,-100,4,2,1,55,0,0
91622,-100,4,2,1,60,0,0
95908,-111.111111111111,4,2,1,50,0,0
114122,535.714285714286,4,2,1,50,1,0
114122,-111.111111111111,4,2,1,50,0,0
129122,-142.857142857143,4,2,1,50,0,0
130729,-125,4,2,1,50,0,0
131264,-111.111111111111,4,2,1,50,0,0
132336,535.714285714286,4,2,1,65,1,0
132336,-83.3333333333333,4,2,1,65,0,1
134478,-83.3333333333333,4,2,1,65,0,1
136086,-100,4,2,1,65,0,1
140907,-83.3333333333333,4,2,1,65,0,1
142514,-100,4,2,1,65,0,1
143050,-83.3333333333333,4,2,1,65,0,1
144657,-100,4,2,1,65,0,1
149478,-83.3333333333333,4,2,1,65,0,1
151086,-100,4,2,1,65,0,1
151621,-83.3333333333333,4,2,1,65,0,1
153228,-100,4,2,1,65,0,1
158050,-83.3333333333333,4,2,1,65,0,1
159657,-100,4,2,1,65,0,1
160193,-83.3333333333333,4,2,1,65,0,1
161800,-100,4,2,1,65,0,1
166621,-83.3333333333333,4,2,1,60,0,0
181621,-83.3333333333333,4,2,1,65,0,1
198764,-100,4,2,1,65,0,0
201911,-100,4,2,1,5,0,0
201978,-100,4,2,1,65,0,0
202916,-100,4,2,1,5,0,0
203050,-100,4,2,1,65,0,0

[Colours]
Combo1 : 128,210,255
Combo2 : 0,255,64
Combo3 : 199,141,141
Combo4 : 255,43,43

[HitObjects]
23,164,10194,6,0,P|12:223|35:283,1,100,4|0,0:0|0:0,0:0:0:0:
109,220,10730,2,0,P|120:279|97:339,1,100,2|0,0:0|0:0,0:0:0:0:
210,168,11265,2,0,P|199:227|222:287,1,100,2|0,0:0|0:0,0:0:0:0:
297,218,11801,1,10,0:0:0:0:
292,318,12069,1,2,0:0:0:0:
378,275,12337,6,0,B|414:260|414:260|499:265,1,100,2|0,0:0|0:0,0:0:0:0:
297,218,12873,2,0,B|261:203|261:203|176:208,1,100,2|0,0:0|0:0,0:0:0:0:
378,161,13408,1,2,0:0:0:0:
319,85,13676,1,0,0:0:0:0:
319,85,13810,1,0,0:0:0:0:
319,85,13944,2,0,L|204:74,1,100,10|2,0:0|0:0,0:0:0:0:
140,100,14480,6,0,P|139:50|194:-2,1,100,2|0,0:0|0:0,0:0:0:0:
83,160,15015,2,0,P|57:117|78:44,1,100,2|0,0:0|0:0,0:0:0:0:
65,241,15551,2,0,P|21:216|3:143,1,100,2|0,0:0|0:0,0:0:0:0:
140,217,16087,1,10,0:0:0:0:
76,327,16355,1,2,0:0:0:0:
163,304,16623,6,0,B|216:289|216:289|281:310,1,100,2|0,0:0|0:0,0:0:0:0:
363,216,17158,2,0,B|310:201|310:201|245:222,1,100,2|0,0:0|0:0,0:0:0:0:
361,306,17694,1,2,0:0:0:0:
385,299,17827,1,8,0:3:0:0:
409,292,17961,1,0,0:0:0:0:
432,297,18095,1,8,0:3:0:0:
457,305,18230,2,0,L|479:229,3,50,8|8|8|8,0:0|0:3|0:3|0:3,0:0:0:0:
464,216,18765,6,0,P|484:157|467:107,1,100,4|0,0:0|0:0,0:0:0:0:
395,54,19301,2,0,P|333:66|299:105,1,100,2|0,0:0|0:0,0:0:0:0:
297,189,19837,2,0,P|338:235|389:246,1,100,2|0,0:0|0:0,0:0:0:0:
386,153,20373,1,10,0:0:0:0:
221,129,20640,1,2,0:0:0:0:
297,189,20908,6,0,B|313:222|313:222|305:323,1,100,2|0,0:0|0:0,0:0:0:0:
198,373,21444,2,0,B|214:340|214:340|206:239,1,100,2|0,0:0|0:0,0:0:0:0:
99,189,21980,1,2,0:0:0:0:
78,326,22248,1,0,0:0:0:0:
78,326,22381,1,8,0:3:0:0:
78,326,22515,2,0,P|39:281|37:221,1,100,8|8,0:0|0:3,0:0:0:0:
131,118,23051,6,0,L|310:108,1,150,2|0,0:0|0:0,0:0:0:0:
306,128,23587,2,0,P|318:180|294:241,1,100,2|0,0:0|0:0,0:0:0:0:
236,292,24123,1,2,0:0:0:0:
374,292,24390,1,0,0:0:0:0:
305,223,24658,1,10,0:0:0:0:
305,361,24926,1,2,0:0:0:0:
384,280,25194,6,0,P|401:221|386:176,1,100,2|0,0:0|0:0,0:0:0:0:
356,100,25730,1,2,0:0:0:0:
412,27,25998,1,0,0:0:0:0:
356,100,26265,1,0,0:0:0:0:
264,87,26533,1,0,0:0:0:0:
264,87,26667,1,8,0:3:0:0:
264,87,26801,2,0,L|171:92,3,50,8|8|8|8,0:0|0:3|0:3|0:3,0:0:0:0:
136,92,27337,5,4,0:0:0:0:
415,321,29212,1,0,0:0:0:0:
326,343,29480,1,4,0:0:0:0:
326,343,29614,2,0,B|289:320|238:344|238:344|197:364|144:326,1,175
130,327,30685,1,0,0:0:0:0:
130,327,30819,2,0,P|136:293|122:264,1,50,4|4,0:0|0:0,0:0:0:0:
62,54,31623,6,0,P|36:127|72:185,1,134.999995880127,4|0,0:0|0:0,0:0:0:0:
94,179,32158,2,0,L|210:170,1,89.9999972534181,10|0,0:0|0:0,0:0:0:0:
257,80,32694,2,0,L|440:94,1,179.999994506836,0|8,0:0|0:0,0:0:0:0:
473,205,33498,1,0,0:0:0:0:
431,313,33765,6,0,P|376:261|368:220,1,89.9999972534181,0|0,0:0|0:0,0:0:0:0:
448,317,34301,1,8,0:0:0:0:
328,346,34569,1,0,0:0:0:0:
215,315,34837,2,0,P|160:310|112:341,1,89.9999972534181,8|2,0:3|0:0,0:0:0:0:
12,294,35373,2,0,L|8:235,3,44.999998626709,10|8|8|8,0:0|0:3|0:3|0:3,0:0:0:0:
9,214,35908,6,0,P|34:165|25:108,1,89.9999972534181,0|0,0:0|0:0,0:0:0:0:
92,29,36444,2,0,L|252:49,1,134.999995880127,8|0,0:0|0:0,0:0:0:0:
259,85,36980,2,0,B|303:111|347:74|347:74|393:99|393:99|438:89,1,179.999994506836,2|8,0:0|0:0,0:0:0:0:
497,42,37783,1,0,0:0:0:0:
477,157,38051,5,0,0:0:0:0:
477,157,38319,1,0,0:0:0:0:
408,252,38587,1,8,0:0:0:0:
472,349,38855,1,0,0:0:0:0:
390,264,39123,2,0,L|276:282,1,89.9999972534181,8|8,0:3|0:3,0:0:0:0:
205,345,39658,1,8,0:0:0:0:
182,341,39791,1,8,0:3:0:0:
160,337,39925,1,8,0:3:0:0:
138,334,40059,1,8,0:3:0:0:
116,330,40194,6,0,P|52:330|12:362,1,89.9999972534181,2|0,0:0|0:0,0:0:0:0:
74,232,40730,2,0,B|93:182|93:182|75:107,1,89.9999972534181,8|0,0:0|0:0,0:0:0:0:
26,44,41265,2,0,B|73:32|73:32|207:51,1,179.999994506836,0|10,0:0|0:0,0:0:0:0:
320,38,42069,1,0,0:0:0:0:
248,130,42337,6,0,P|191:153|131:134,1,89.9999972534181,0|0,0:0|0:0,0:0:0:0:
309,200,42873,2,0,P|366:223|426:204,1,89.9999972534181,8|0,0:0|0:0,0:0:0:0:
256,273,43408,1,8,0:3:0:0:
147,316,43676,1,2,0:0:0:0:
262,296,43944,2,0,L|255:377,3,44.999998626709,10|8|8|8,0:0|0:3|0:3|0:3,0:0:0:0:
280,373,44480,6,0,L|387:376,1,89.9999972534181,0|0,0:0|0:0,0:0:0:0:
482,343,45015,2,0,B|464:274|464:274|485:188,1,134.999995880127,8|0,0:0|0:0,0:0:0:0:
503,186,45551,2,0,L|484:93,1,89.9999972534181,0|2,0:0|0:0,0:0:0:0:
385,34,46087,1,10,0:0:0:0:
381,150,46355,1,2,0:0:0:0:
484,97,46623,5,4,0:0:0:0:
299,240,47158,2,0,L|180:232,1,89.9999972534181,0|0,0:0|0:0,0:0:0:0:
119,173,47694,5,6,0:0:0:0:
111,280,47962,1,0,0:0:0:0:
23,217,48230,2,0,L|16:150,3,44.999998626709,10|0|0|0,0:0|0:0|0:0|0:0,0:0:0:0:
48,140,48765,5,10,0:0:0:0:
56,33,49033,1,0,0:0:0:0:
144,96,49301,2,0,L|151:163,3,44.999998626709,8|8|8|8,0:0|0:3|0:3|0:3,0:0:0:0:
190,159,49837,6,0,L|180:293,1,134.999995880127,4|0,0:0|0:0,0:0:0:0:
179,339,50372,1,8,0:0:0:0:
304,379,50640,2,0,P|328:342|328:297,1,89.9999972534181,0|0,0:0|0:0,0:0:0:0:
301,262,51042,1,0,0:0:0:0:
301,262,51176,2,0,L|307:172,1,89.9999972534181,0|8,0:0|0:0,0:0:0:0:
315,55,51712,5,0,0:0:0:0:
412,120,51979,2,0,L|421:254,1,134.999995880127,0|0,0:0|0:0,0:0:0:0:
424,300,52515,1,8,0:0:0:0:
301,262,52783,2,0,P|256:261|219:286,1,89.9999972534181,0|0,0:0|0:0,0:0:0:0:
199,326,53185,1,0,0:0:0:0:
199,326,53319,1,2,0:0:0:0:
109,250,53587,2,0,L|64:252,3,44.999998626709,10|8|8|8,0:0|0:3|0:3|0:3,0:0:0:0:
20,242,54122,5,0,0:0:0:0:
39,126,54390,1,0,0:0:0:0:
154,147,54658,2,0,P|204:104|270:102,1,134.999995880127,8|0,0:0|0:0,0:0:0:0:
305,132,55194,2,0,L|311:222,1,89.9999972534181,0|0,0:0|0:0,0:0:0:0:
428,219,55729,2,0,L|422:309,1,89.9999972534181,8|0,0:0|0:0,0:0:0:0:
321,369,56265,5,0,0:0:0:0:
225,302,56533,1,0,0:0:0:0:
116,346,56801,2,0,P|71:347|26:339,1,89.9999972534181,8|0,0:0|0:0,0:0:0:0:
83,203,57337,2,0,L|173:197,1,89.9999972534181,8|8,3:0|0:3,0:0:0:0:
259,118,57872,2,0,L|304:120,3,44.999998626709,8|8|8|8,0:0|0:3|0:3|0:3,0:0:0:0:
349,115,58408,6,0,P|398:157|397:223,1,134.999995880127,0|0,0:0|0:0,0:0:0:0:
367,257,58944,1,8,0:0:0:0:
342,371,59212,2,0,L|252:365,1,89.9999972534181,0|0,0:0|0:0,0:0:0:0:
228,327,59613,1,0,0:0:0:0:
228,327,59747,2,0,P|188:305|144:310,1,89.9999972534181,0|8,0:0|0:0,0:0:0:0:
210,203,60283,5,0,0:0:0:0:
326,191,60551,2,0,L|317:57,1,134.999995880127,0|0,0:0|0:0,0:0:0:0:
314,11,61087,1,8,0:0:0:0:
206,79,61354,2,0,P|161:84|122:62,1,89.9999972534181,0|8,0:0|0:3,0:0:0:0:
102,23,61756,1,8,0:3:0:0:
102,23,61890,1,2,0:0:0:0:
9,94,62158,2,0,L|11:139,3,44.999998626709,10|8|8|8,0:0|0:3|0:3|0:3,0:0:0:0:
42,171,62694,5,0,0:0:0:0:
8,283,62962,1,0,0:0:0:0:
120,317,63229,2,0,L|165:315,3,44.999998626709,8|0|0|0,0:0|0:0|0:0|0:0,0:0:0:0:
208,328,63765,1,0,0:0:0:0:
242,216,64033,1,2,0:0:0:0:
354,250,64301,2,0,L|399:248,3,44.999998626709,8|8|2|8,0:3|0:3|0:0|0:3,0:0:0:0:
441,264,64837,6,0,P|474:203|468:135,1,139.999995727539,4|0,0:0|0:0,0:0:0:0:
388,56,65640,1,0,0:0:0:0:
353,162,65908,6,0,L|283:166,1,69.9999978637696,12|0,0:0|0:0,0:0:0:0:
296,270,66444,2,0,L|216:264,1,80,8|8,0:0|0:3,0:0:0:0:
165,159,66979,2,0,L|75:165,1,89.9999972534181,8|8,0:0|0:3,0:0:0:0:
7,261,67515,2,0,L|9:306,3,44.999998626709,8|8|8|8,0:0|0:3|0:3|0:3,0:0:0:0:
86,321,68051,6,0,P|128:281|129:223,1,119.999996337891,4|0,0:3|0:0,0:0:0:0:
75,165,68452,2,0,P|75:106|118:67,1,119.999996337891,2|0,0:0|0:0,0:0:0:0:
196,79,68854,2,0,L|315:70,1,119.999996337891,2|0,0:0|0:0,0:0:0:0:
394,65,69256,1,0,0:0:0:0:
394,65,69390,1,0,0:3:0:0:
479,134,69658,2,0,L|471:233,1,100,8|0,0:0|0:0,0:0:0:0:
420,381,70193,6,0,P|380:339|322:338,1,119.999996337891,2|0,0:0|0:0,0:0:0:0:
242,342,70595,2,0,P|199:302|199:244,1,119.999996337891,2|0,0:0|0:0,0:0:0:0:
260,194,70997,2,0,L|251:75,1,119.999996337891,2|8,0:0|0:3,0:0:0:0:
207,9,71399,1,8,0:3:0:0:
207,9,71533,1,8,0:3:0:0:
122,79,71801,2,0,L|72:75,3,50,8|8|8|8,0:0|0:3|0:3|0:3,0:0:0:0:
16,125,72336,6,0,P|41:167|43:216,1,100,2|0,0:0|0:0,0:0:0:0:
133,333,72872,2,0,P|135:284|161:242,1,100,10|0,0:0|0:0,0:0:0:0:
260,194,73408,2,0,L|359:201,1,100,2|0,0:0|0:0,0:0:0:0:
457,271,73943,1,10,0:0:0:0:
353,331,74211,1,2,0:0:0:0:
260,194,74479,6,0,L|252:94,1,100,2|0,0:0|0:0,0:0:0:0:
343,15,75015,2,0,L|392:18,3,50,10|8|8|0,0:0|0:3|0:3|0:0,0:0:0:0:
465,52,75551,2,0,L|457:151,1,100,0|0,0:0|0:0,0:0:0:0:
360,202,76086,1,8,0:0:0:0:
360,202,76220,1,8,0:3:0:0:
360,202,76354,1,8,0:3:0:0:
360,202,76488,1,8,0:3:0:0:
360,202,76622,6,0,L|369:321,1,119.999996337891,6|0,0:0|0:0,0:0:0:0:
311,376,77024,2,0,P|271:333|213:333,1,119.999996337891,2|0,0:0|0:0,0:0:0:0:
165,264,77426,2,0,P|125:306|67:307,1,119.999996337891,2|0,0:0|0:0,0:0:0:0:
14,248,77827,1,0,0:0:0:0:
14,248,77961,1,0,0:0:0:0:
54,145,78229,2,0,L|153:137,1,100,8|0,0:0|0:0,0:0:0:0:
293,65,78765,6,0,L|284:184,1,119.999996337891,2|0,0:0|0:0,0:0:0:0:
238,248,79167,2,0,P|278:291|336:291,1,119.999996337891,2|0,0:0|0:0,0:0:0:0:
410,315,79568,2,0,P|453:275|453:217,1,119.999996337891,2|8,0:0|0:3,0:0:0:0:
408,158,79970,1,8,0:3:0:0:
408,158,80104,1,8,0:3:0:0:
284,184,80372,2,0,L|235:181,3,50,8|8|8|8,0:0|0:3|0:3|0:3,0:0:0:0:
167,137,80908,6,0,P|108:180|105:252,1,150,2|8,0:0|0:3,0:0:0:0:
162,308,81443,2,0,L|261:300,1,100,10|2,0:0|0:0,0:0:0:0:
393,166,81979,1,2,0:0:0:0:
416,284,82247,1,2,0:0:0:0:
284,184,82515,1,10,0:0:0:0:
307,66,82783,1,2,0:0:0:0:
423,185,83051,6,0,L|415:284,1,100,2|0,0:0|0:0,0:0:0:0:
342,380,83586,2,0,L|292:376,3,50,10|8|8|0,0:0|0:3|0:3|0:0,0:0:0:0:
233,321,84122,2,0,L|133:328,1,100,0|0,0:0|0:0,0:0:0:0:
44,247,84658,1,8,0:0:0:0:
44,247,84792,1,8,0:3:0:0:
44,247,84926,1,8,0:3:0:0:
44,247,85059,1,8,0:3:0:0:
44,247,85193,6,0,P|57:189|107:160,1,119.999996337891,6|8,0:0|0:3,0:0:0:0:
182,183,85595,2,0,L|301:192,1,119.999996337891,2|8,0:0|0:3,0:0:0:0:
376,166,85997,1,2,0:0:0:0:
165,104,86533,2,0,L|169:54,2,50,8|0|8,0:3|0:0|0:0,0:0:0:0:
389,320,87336,6,0,P|432:280|432:222,1,119.999996337891,2|8,0:0|0:3,0:0:0:0:
376,166,87738,2,0,L|257:157,1,119.999996337891,2|8,0:0|0:3,0:0:0:0:
182,183,88140,1,2,0:0:0:0:
18,330,88676,2,0,P|40:319|65:317,1,50,0|8,0:0|0:3,0:0:0:0:
109,341,88943,2,0,L|159:337,3,50,8|8|8|8,0:0|0:3|0:3|0:3,0:0:0:0:
205,355,89479,5,2,0:0:0:0:
321,325,89747,1,2,0:0:0:0:
238,239,90015,2,0,L|188:235,3,50,8|8|8|8,0:0|0:3|0:3|0:3,0:0:0:0:
140,250,90551,5,2,0:0:0:0:
24,220,90819,1,2,0:0:0:0:
107,134,91087,2,0,L|157:130,3,50,8|8|8|8,0:0|0:3|0:3|0:3,0:0:0:0:
205,145,91622,5,2,0:0:0:0:
255,36,91890,1,2,0:0:0:0:
364,86,92158,1,8,0:0:0:0:
364,86,92292,1,8,0:3:0:0:
364,86,92426,2,0,L|368:136,1,50,8|8,0:3|0:3,0:0:0:0:
353,184,92693,5,2,0:0:0:0:
462,234,92961,1,2,0:0:0:0:
412,343,93229,1,8,0:0:0:0:
412,343,93363,1,8,0:3:0:0:
412,343,93497,2,0,L|362:347,1,50,8|8,0:3|0:3,0:0:0:0:
314,361,93765,5,12,0:0:0:0:
264,252,94033,1,12,0:0:0:0:
314,361,94970,5,0,0:0:0:0:
314,361,95104,2,0,L|214:353,1,100,4|4,0:0|0:0,0:0:0:0:
12,233,95908,6,0,P|60:189|126:192,1,134.999995880127,4|0,0:0|0:0,0:0:0:0:
157,225,96443,1,8,0:0:0:0:
264,179,96711,1,0,0:0:0:0:
340,268,96979,2,0,P|380:189|355:105,1,179.999994506836,0|8,0:0|0:0,0:0:0:0:
219,41,97783,1,0,0:0:0:0:
150,136,98051,6,0,L|157:225,1,89.9999972534181,0|0,0:0|0:0,0:0:0:0:
140,341,98586,1,8,0:0:0:0:
252,308,98854,1,0,0:0:0:0:
349,374,99122,2,0,P|393:372|436:358,1,89.9999972534181,0|2,0:0|0:0,0:0:0:0:
494,256,99658,2,0,L|490:211,3,44.999998626709,10|8|8|8,0:0|0:3|0:3|0:3,0:0:0:0:
486,170,100193,5,0,0:0:0:0:
415,76,100461,1,0,0:0:0:0:
306,119,100729,2,0,P|245:90|180:102,1,134.999995880127,8|0,0:0|0:0,0:0:0:0:
150,136,101265,2,0,L|157:225,1,89.9999972534181,0|0,0:0|0:0,0:0:0:0:
274,231,101801,2,0,L|267:320,1,89.9999972534181,8|0,0:0|0:0,0:0:0:0:
157,226,102336,5,0,0:0:0:0:
148,343,102604,1,0,0:0:0:0:
51,277,102872,2,0,P|39:233|44:189,1,89.9999972534181,8|0,0:0|0:0,0:0:0:0:
133,112,103408,2,0,L|222:119,1,89.9999972534181,8|8,0:3|0:3,0:0:0:0:
315,48,103943,2,0,L|359:44,3,44.999998626709,8|8|8|8,0:3|0:3|0:3|0:3,0:0:0:0:
404,33,104479,6,0,P|427:70|432:115,1,89.9999972534181,0|0,0:0|0:0,0:0:0:0:
321,153,105015,2,0,P|297:190|292:235,1,89.9999972534181,8|0,0:0|0:0,0:0:0:0:
331,346,105551,2,0,B|289:366|245:344|245:344|203:322|158:343,1,179.999994506836,0|8,0:0|0:0,0:0:0:0:
50,295,106354,1,0,0:0:0:0:
95,187,106622,6,0,L|184:194,1,89.9999972534181,0|0,0:0|0:0,0:0:0:0:
270,69,107158,2,0,L|181:76,1,89.9999972534181,8|0,0:0|0:0,0:0:0:0:
82,11,107693,1,8,0:3:0:0:
12,105,107961,1,2,0:0:0:0:
95,187,108229,2,0,L|139:183,3,44.999998626709,10|8|8|8,0:0|0:3|0:3|0:3,0:0:0:0:
185,178,108765,5,0,0:0:0:0:
220,290,109033,1,0,0:0:0:0:
332,255,109301,2,0,P|349:190|341:123,1,134.999995880127,8|0,0:0|0:0,0:0:0:0:
321,84,109836,1,0,0:0:0:0:
419,20,110104,1,2,0:0:0:0:
487,115,110372,2,0,L|480:204,1,89.9999972534181,8|2,0:0|0:0,0:0:0:0:
468,346,110908,5,4,0:0:0:0:
468,346,111443,2,0,P|430:322|385:317,1,89.9999972534181,0|0,0:0|0:0,0:0:0:0:
286,379,111979,5,4,0:0:0:0:
228,277,112247,1,0,0:0:0:0:
126,335,112515,2,0,L|81:331,3,44.999998626709,8|8|8|0,0:0|0:3|0:3|0:0,0:0:0:0:
52,296,113051,5,8,0:3:0:0:
110,194,113319,1,8,0:3:0:0:
212,252,113587,2,0,L|256:248,3,44.999998626709,8|8|8|8,0:0|0:3|0:3|0:3,0:0:0:0:
299,233,114122,6,0,P|364:244|421:210,1,134.999995880127,4|0,0:0|0:0,0:0:0:0:
437,168,114657,1,8,0:0:0:0:
393,59,114925,2,0,L|304:66,1,89.9999972534181,0|0,0:0|0:0,0:0:0:0:
262,85,115327,1,0,0:0:0:0:
262,85,115461,2,0,P|220:67|176:72,1,89.9999972534181,0|8,0:0|0:0,0:0:0:0:
35,105,115997,1,0,0:0:0:0:
109,194,116264,6,0,P|175:182|237:207,1,134.999995880127,0|0,0:0|0:0,0:0:0:0:
257,248,116800,1,8,0:0:0:0:
301,356,117068,2,0,L|390:349,1,89.9999972534181,0|0,0:0|0:0,0:0:0:0:
434,364,117470,1,0,0:0:0:0:
434,364,117604,1,2,0:0:0:0:
507,272,117872,2,0,L|503:227,3,44.999998626709,8|8|8|8,0:0|0:3|0:3|0:3,0:0:0:0:
476,192,118407,5,0,0:0:0:0:
374,249,118675,1,0,0:0:0:0:
317,147,118943,2,0,P|257:116|190:116,1,134.999995880127,8|0,0:0|0:0,0:0:0:0:
153,141,119479,2,0,L|147:231,1,89.9999972534181,0|0,0:0|0:0,0:0:0:0:
30,224,120014,2,0,L|36:314,1,89.9999972534181,8|0,0:0|0:0,0:0:0:0:
136,376,120550,5,0,0:0:0:0:
233,310,120818,1,0,0:0:0:0:
147,231,121086,2,0,P|141:186|153:143,1,89.9999972534181,8|0,0:0|0:0,0:0:0:0:
273,196,121622,2,0,L|267:106,1,89.9999972534181,8|8,0:3|0:3,0:0:0:0:
326,38,122157,2,0,L|370:41,3,44.999998626709,8|8|8|8,0:0|0:3|0:3|0:3,0:0:0:0:
415,36,122693,6,0,P|453:88|443:153,1,134.999995880127,0|0,0:0|0:0,0:0:0:0:
406,180,123229,1,8,0:0:0:0:
273,196,123497,2,0,P|255:236|260:280,1,89.9999972534181,0|0,0:0|0:0,0:0:0:0:
288,315,123898,1,0,0:0:0:0:
288,315,124032,2,0,L|378:309,1,89.9999972534181,0|8,0:0|0:0,0:0:0:0:
406,180,124568,1,0,0:0:0:0:
309,114,124836,6,0,L|175:123,1,134.999995880127,0|0,0:0|0:0,0:0:0:0:
129,126,125372,1,8,0:0:0:0:
67,235,125639,2,0,P|112:230|151:252,1,89.9999972534181,0|8,0:0|0:3,0:0:0:0:
171,291,126041,1,8,0:3:0:0:
171,291,126175,1,2,0:0:0:0:
82,367,126443,2,0,L|37:363,3,44.999998626709,10|8|8|8,0:0|0:3|0:3|0:3,0:0:0:0:
3,333,126979,5,0,0:0:0:0:
67,235,127247,1,0,0:0:0:0:
19,128,127514,2,0,L|22:83,3,44.999998626709,8|0|0|0,0:0|0:0|0:0|0:0,0:0:0:0:
51,48,128050,5,8,0:3:0:0:
149,112,128318,1,2,0:0:0:0:
256,64,128586,2,0,L|300:67,3,44.999998626709,8|8|2|8,0:0|0:3|0:0|0:3,0:0:0:0:
336,39,129122,6,0,L|345:178,1,139.999995727539,4|0,0:0|0:0,0:0:0:0:
441,236,129925,1,0,0:0:0:0:
414,344,130193,6,0,L|344:340,1,69.9999978637696,12|0,0:0|0:0,0:0:0:0:
275,261,130729,2,0,L|195:267,1,80,8|8,0:0|0:3,0:0:0:0:
144,372,131264,2,0,L|54:366,1,89.9999972534181,8|8,0:0|0:3,0:0:0:0:
10,257,131800,2,0,L|12:212,3,44.999998626709,8|8|8|8,0:0|0:3|0:3|0:3,0:0:0:0:
90,202,132336,6,0,P|101:133|60:80,1,119.999996337891,4|0,0:3|0:0,0:0:0:0:
132,37,132737,2,0,P|192:32|252:72,1,119.999996337891,2|0,0:0|0:0,0:0:0:0:
299,114,133139,2,0,L|443:97,1,119.999996337891,2|8,0:0|0:3,0:0:0:0:
474,44,133541,1,8,0:3:0:0:
474,44,133675,1,8,0:3:0:0:
459,199,133943,2,0,P|460:274|489:355,1,119.999996337891,8|0,0:0|0:0,0:0:0:0:
321,359,134478,6,0,P|280:314|301:250,1,119.999996337891,2|0,0:0|0:0,0:0:0:0:
345,203,134880,2,0,L|334:82,1,119.999996337891,2|0,0:0|0:0,0:0:0:0:
269,38,135282,2,0,B|217:73|217:73|132:32,1,119.999996337891,2|8,0:0|0:3,0:0:0:0:
94,13,135684,1,8,0:3:0:0:
94,13,135818,1,0,0:0:0:0:
10,112,136086,2,0,L|60:105,3,50,8|8|8|8,0:0|0:3|0:3|0:3,0:0:0:0:
88,177,136621,6,0,P|93:254|76:279,1,100,2|0,0:0|0:0,0:0:0:0:
12,380,137157,2,0,L|130:375,1,100,10|0,0:0|0:0,0:0:0:0:
213,293,137693,2,0,L|331:298,1,100,2|0,0:0|0:0,0:0:0:0:
411,382,138228,1,10,0:0:0:0:
434,253,138496,1,2,0:0:0:0:
312,297,138764,6,0,P|321:254|316:186,1,100,2|0,0:0|0:0,0:0:0:0:
218,113,139300,2,0,L|168:116,3,50,10|8|8|0,0:0|0:3|0:3|0:0,0:0:0:0:
94,98,139836,6,0,P|85:55|90:-13,1,100,2|0,0:0|0:0,0:0:0:0:
129,185,140371,1,8,0:0:0:0:
129,185,140505,1,8,0:3:0:0:
129,185,140639,1,8,0:3:0:0:
129,185,140773,1,8,0:3:0:0:
129,185,140907,6,0,L|111:313,1,119.999996337891,4|0,0:0|0:0,0:0:0:0:
180,342,141309,2,0,P|264:353|316:328,1,119.999996337891,2|0,0:0|0:0,0:0:0:0:
347,282,141711,2,0,L|497:302,1,119.999996337891,2|0,0:0|0:0,0:0:0:0:
507,363,142112,1,0,0:0:0:0:
507,363,142246,1,0,0:0:0:0:
511,232,142514,2,0,P|501:162|465:113,1,100,8|0,0:0|0:0,0:0:0:0:
369,33,143050,6,0,B|302:39|302:39|203:9,1,119.999996337891,2|0,0:0|0:0,0:0:0:0:
224,97,143452,2,0,P|157:79|71:122,1,119.999996337891,2|0,0:0|0:0,0:0:0:0:
71,159,143853,2,0,L|76:296,1,119.999996337891,2|8,0:0|0:3,0:0:0:0:
33,345,144255,1,8,0:3:0:0:
33,345,144389,1,0,0:0:0:0:
148,286,144657,2,0,L|202:287,3,50,8|8|8|8,0:0|0:3|0:3|0:3,0:0:0:0:
248,342,145193,6,0,B|356:348|356:348|400:328,1,150,2|8,0:0|0:3,0:0:0:0:
458,288,145728,2,0,P|431:226|439:166,1,100,10|0,0:0|0:0,0:0:0:0:
481,73,146264,1,2,0:0:0:0:
512,200,146532,1,2,0:0:0:0:
412,115,146800,1,10,0:0:0:0:
300,183,147068,1,2,0:0:0:0:
409,104,147336,6,0,L|403:46,2,50,2|0|0,0:0|0:0|0:0,0:0:0:0:
433,231,147871,2,0,L|427:289,3,50,10|8|8|0,0:0|0:3|0:3|0:0,0:0:0:0:
371,327,148407,2,0,L|255:321,1,100,0|0,0:0|0:0,0:0:0:0:
144,353,148943,1,8,0:0:0:0:
144,353,149077,1,8,0:3:0:0:
144,353,149211,1,8,0:3:0:0:
144,353,149344,1,8,0:3:0:0:
144,353,149478,6,0,P|178:280|161:226,1,119.999996337891,4|0,0:3|0:0,0:0:0:0:
95,220,149880,2,0,P|61:147|78:93,1,119.999996337891,2|0,0:0|0:0,0:0:0:0:
127,59,150282,2,0,L|271:70,1,119.999996337891,2|8,0:0|0:3,0:0:0:0:
316,32,150684,1,8,0:3:0:0:
316,32,150818,1,8,0:3:0:0:
245,141,151086,2,0,L|259:279,1,100,8|0,0:0|0:0,0:0:0:0:
286,384,151621,6,0,P|358:344|416:344,1,119.999996337891,2|0,0:0|0:0,0:0:0:0:
473,354,152023,2,0,L|482:224,1,119.999996337891,2|0,0:0|0:0,0:0:0:0:
485,155,152425,2,0,B|459:100|459:100|470:11,1,119.999996337891,2|8,0:0|0:3,0:0:0:0:
392,15,152827,1,8,0:3:0:0:
392,15,152961,1,8,0:3:0:0:
275,71,153228,2,0,L|202:63,3,50,8|8|8|8,0:0|0:3|0:3|0:3,0:0:0:0:
152,99,153764,6,0,P|89:91|55:53,1,100,2|0,0:0|0:0,0:0:0:0:
204,174,154300,2,0,P|267:166|301:128,1,100,10|0,0:0|0:0,0:0:0:0:
119,187,154836,2,0,L|127:330,1,100,2|0,0:0|0:0,0:0:0:0:
17,360,155371,1,10,0:0:0:0:
132,300,155639,1,2,0:0:0:0:
248,357,155907,6,0,L|374:350,1,100,2|0,0:0|0:0,0:0:0:0:
392,228,156443,2,0,P|366:204|324:203,3,50,10|0|0|0,0:0|0:0|0:0|0:0,0:0:0:0:
280,193,156978,2,0,L|275:81,1,100,0|0,0:0|0:0,0:0:0:0:
388,28,157514,1,8,0:0:0:0:
388,28,157648,1,8,0:3:0:0:
388,28,157782,1,8,0:3:0:0:
388,28,157916,1,8,0:3:0:0:
388,28,158050,6,0,P|438:84|436:142,1,119.999996337891,4|0,0:0|0:0,0:0:0:0:
378,174,158452,2,0,L|392:311,1,119.999996337891,2|0,0:0|0:0,0:0:0:0:
449,344,158853,2,0,B|407:370|407:370|295:364,1,119.999996337891,2|8,0:0|0:3,0:0:0:0:
282,308,159255,1,8,0:3:0:0:
282,308,159389,1,8,0:3:0:0:
152,296,159657,2,0,L|157:351,3,50,8|0|0|0,0:0|0:0|0:0|0:0,0:0:0:0:
85,378,160193,6,0,P|22:316|28:259,1,119.999996337891,2|0,0:0|0:0,0:0:0:0:
68,227,160594,2,0,L|58:94,1,119.999996337891,2|0,0:0|0:0,0:0:0:0:
44,30,160996,2,0,P|130:37|196:-12,1,119.999996337891,2|8,0:0|0:3,0:0:0:0:
227,62,161398,1,8,0:3:0:0:
227,62,161532,1,8,0:3:0:0:
216,191,161800,2,0,L|227:67,1,100,8|8,0:0|0:3,0:0:0:0:
355,94,162336,6,0,P|356:50|457:31,1,150,2|8,0:0|0:3,0:0:0:0:
481,82,162871,2,0,L|467:187,1,100,10|2,0:0|0:0,0:0:0:0:
440,303,163407,1,2,0:0:0:0:
279,255,163675,1,2,0:0:0:0:
378,194,163943,1,10,0:0:0:0:
339,361,164211,1,2,0:0:0:0:
269,251,164478,6,0,L|137:261,1,100,2|0,0:0|0:0,0:0:0:0:
75,349,165014,2,0,L|126:352,3,50,10|0|0|8,0:0|0:0|0:0|0:3,0:0:0:0:
11,308,165550,2,0,P|0:231|35:179,1,100,0|0,0:0|0:0,0:0:0:0:
66,96,166085,1,8,0:0:0:0:
66,96,166219,1,8,0:3:0:0:
66,96,166353,1,8,0:3:0:0:
66,96,166486,1,8,0:3:0:0:
66,96,166621,6,0,B|68:156|68:156|133:210,1,119.999996337891,4|8,0:0|0:3,0:0:0:0:
114,194,167023,2,0,B|164:162|164:162|179:78,1,119.999996337891,4|8,0:0|0:3,0:0:0:0:
174,103,167425,2,0,B|121:74|121:74|53:101,1,119.999996337891,4|0,0:0|0:0,0:0:0:0:
248,132,167961,2,0,P|254:105|244:61,2,59.9999981689454,8|0|8,0:3|0:0|0:0,0:0:0:0:
344,20,168496,5,0,0:3:0:0:
360,16,168630,1,0,0:3:0:0:
376,12,168764,1,0,0:0:0:0:
512,84,169032,2,0,P|506:111|516:155,2,59.9999981689454,0|0|8,0:0|0:0|0:0,0:0:0:0:
376,196,169568,1,0,0:0:0:0:
360,192,169702,1,0,0:0:0:0:
344,188,169836,1,0,0:0:0:0:
456,208,170104,2,0,P|450:235|460:279,1,59.9999981689454,0|0,0:0|0:0,0:0:0:0:
456,288,170371,5,8,0:0:0:0:
460,304,170505,1,8,0:3:0:0:
468,320,170639,1,8,0:3:0:0:
480,328,170773,1,8,0:3:0:0:
496,336,170907,6,0,L|352:328,1,119.999996337891,4|8,0:0|0:3,0:0:0:0:
324,384,171309,2,0,P|304:320|348:256,1,119.999996337891,4|8,0:0|0:3,0:0:0:0:
380,220,171711,2,0,P|316:200|252:244,1,119.999996337891,4|0,0:0|0:0,0:0:0:0:
160,288,172246,1,8,0:3:0:0:
40,232,172514,1,8,0:0:0:0:
24,104,172782,5,0,0:0:0:0:
20,88,172916,1,0,0:0:0:0:
16,72,173050,1,0,0:0:0:0:
176,0,173318,2,0,P|170:27|180:71,2,59.9999981689454,0|0|8,0:0|0:0|0:0,0:0:0:0:
132,176,173853,5,0,0:0:0:0:
128,160,173987,1,0,0:0:0:0:
124,144,174121,1,0,0:0:0:0:
284,72,174389,2,0,P|278:99|288:143,1,59.9999981689454,0|0,0:0|0:0,0:0:0:0:
336,176,174657,5,8,0:0:0:0:
351,180,174791,1,8,0:3:0:0:
369,181,174925,1,8,0:3:0:0:
382,175,175059,1,8,0:3:0:0:
396,164,175193,6,0,L|404:36,1,119.999996337891,4|0,0:0|0:0,0:0:0:0:
480,12,175594,2,0,L|476:92,1,59.9999981689454,8|8,0:3|0:0,0:0:0:0:
456,216,175996,6,0,P|480:200|516:200,2,59.9999981689454,0|8|0,0:0|0:3|0:0,0:0:0:0:
412,312,176532,1,0,0:0:0:0:
408,296,176666,1,8,0:3:0:0:
404,280,176800,1,8,0:0:0:0:
272,272,177068,6,0,P|296:256|332:256,2,59.9999981689454,0|8|0,0:0|0:3|0:0,0:0:0:0:
228,368,177604,1,0,0:0:0:0:
224,352,177738,1,8,0:3:0:0:
220,336,177872,1,8,0:0:0:0:
96,284,178139,6,0,P|120:268|156:268,2,59.9999981689454,0|8|0,0:0|0:3|0:0,0:0:0:0:
24,376,178675,1,0,0:0:0:0:
20,360,178809,1,8,0:3:0:0:
16,344,178943,2,0,L|20:264,3,59.9999981689454,8|8|8|8,0:0|0:3|0:3|0:3,0:0:0:0:
8,256,179478,5,4,0:0:0:0:
0,136,179746,1,4,0:0:0:0:
8,232,180014,1,0,0:0:0:0:
8,232,180148,2,0,P|65:232|112:188,1,119.999996337891,8|0,0:3|0:0,0:0:0:0:
148,124,180550,1,4,0:0:0:0:
228,37,181621,6,0,P|285:17|345:40,1,119.999996337891,4|0,0:3|0:0,0:0:0:0:
417,110,182157,2,0,P|354:132|287:102,1,119.999996337891,8|0,0:0|0:0,0:0:0:0:
220,184,182693,2,0,P|209:243|232:303,1,119.999996337891,8|8,0:3|0:3,0:0:0:0:
323,349,183228,1,8,0:0:0:0:
437,345,183496,1,0,0:0:0:0:
437,345,183630,1,8,0:3:0:0:
437,345,183764,6,0,B|452:309|452:309|447:224,1,119.999996337891,2|0,0:0|0:0,0:0:0:0:
370,151,184300,2,0,B|355:187|355:187|360:272,1,119.999996337891,10|0,0:0|0:0,0:0:0:0:
287,348,184835,1,8,0:3:0:0:
186,348,185103,1,8,0:3:0:0:
186,348,185237,1,0,0:0:0:0:
186,348,185371,2,0,L|56:337,1,119.999996337891,8|8,0:0|0:3,0:0:0:0:
0,229,185907,6,0,P|27:188|95:181,1,119.999996337891,2|0,0:0|0:0,0:0:0:0:
51,81,186443,2,0,P|98:71|152:114,1,119.999996337891,10|0,0:0|0:0,0:0:0:0:
187,11,186978,2,0,P|227:38|234:106,1,119.999996337891,2|0,0:0|0:0,0:0:0:0:
293,196,187514,1,10,0:0:0:0:
379,126,187782,1,2,0:0:0:0:
379,126,187916,1,0,0:0:0:0:
379,126,188050,6,0,B|364:73|364:73|385:8,1,119.999996337891,2|0,0:0|0:0,0:0:0:0:
491,18,188585,2,0,B|506:71|506:71|485:136,1,119.999996337891,10|8,0:0|0:3,0:0:0:0:
452,236,189121,1,0,0:0:0:0:
459,260,189254,1,8,0:3:0:0:
466,284,189388,1,0,0:0:0:0:
461,307,189522,1,8,0:3:0:0:
453,332,189657,2,0,L|529:354,2,59.9999981689454,8|8|8,0:0|0:3|0:3,0:0:0:0:
353,288,190193,6,0,P|294:268|233:295,1,119.999996337891,4|0,0:0|0:0,0:0:0:0:
154,350,190728,2,0,P|98:369|42:348,1,119.999996337891,10|0,0:0|0:0,0:0:0:0:
47,240,191264,2,0,P|102:220|158:241,1,119.999996337891,2|8,0:0|0:3,0:0:0:0:
251,185,191800,1,10,0:0:0:0:
313,97,192067,1,2,0:0:0:0:
298,98,192202,1,0,0:0:0:0:
281,97,192335,6,0,B|248:113|248:113|147:105,1,119.999996337891,2|0,0:0|0:0,0:0:0:0:
120,7,192871,2,0,B|57:2|57:2|2:42,2,119.999996337891,10|0|2,0:0|0:0|0:0,0:0:0:0:
85,114,193675,1,8,0:3:0:0:
85,114,193808,1,0,0:0:0:0:
85,114,193943,2,0,P|124:159|126:219,1,119.999996337891,8|8,0:0|0:3,0:0:0:0:
58,301,194478,6,0,P|160:326|225:271,1,179.999994506836,2|8,0:0|0:3,0:0:0:0:
244,241,195014,2,0,P|256:189|232:128,1,119.999996337891,10|2,0:0|0:0,0:0:0:0:
328,77,195550,1,2,0:0:0:0:
466,77,195817,1,2,0:0:0:0:
397,146,196085,1,10,0:0:0:0:
397,8,196353,1,2,0:0:0:0:
397,146,196621,6,0,P|375:198|389:268,1,119.999996337891,2|0,0:0|0:0,0:0:0:0:
481,308,197157,1,10,0:0:0:0:
391,367,197425,1,0,0:0:0:0:
295,317,197692,1,0,0:0:0:0:
200,361,197960,1,0,0:0:0:0:
200,361,198094,1,8,0:3:0:0:
200,361,198228,2,0,L|205:268,3,59.9999981689454,8|8|8|8,0:0|0:3|0:3|0:3,0:0:0:0:
204,255,198764,6,0,P|148:259|100:239,1,100,4|0,0:0|0:0,0:0:0:0:
22,212,199300,2,0,L|30:276,2,50,8|0|0,0:0|0:0|0:0,0:0:0:0:
50,126,199836,1,0,0:0:0:0:
138,109,200103,1,0,0:0:0:0:
204,48,200371,2,0,P|228:92|212:164,1,100,8|8,0:0|0:3,0:0:0:0:
212,184,200773,1,8,0:3:0:0:
212,196,200907,1,4,0:0:0:0:
256,192,201041,12,4,203050,0:0:0:0:
284,136,203452,6,0,B|368:128|324:176|432:164,1,150,0|0,0:0|0:0,0:0:0:0:
512,88,204121,1,0,0:0:0:0:
426,164,204389,1,0,0:0:0:0:
504,276,204657,2,0,L|368:264,1,100,8|0,0:0|0:0,0:0:0:0:
288,352,205193,6,0,P|236:360|196:336,1,100,0|0,0:0|0:0,0:0:0:0:
92,248,205728,2,0,P|40:240|0:264,1,100,8|0,0:0|0:0,0:0:0:0:
48,364,206264,2,0,L|56:304,3,50,0|0|0|0,0:0|0:0|0:0|0:0,0:0:0:0:
68,360,206800,5,0,0:0:0:0:
88,360,206934,1,0,0:0:0:0:
104,360,207068,1,0,0:0:0:0:
120,360,207202,1,0,0:0:0:0:
136,360,207336,1,4,0:0:0:0:
252,240,207871,6,0,L|260:124,2,100,4|4|4,0:0|0:0|0:3,0:0:0:0:
