osu file format v14

[General]
AudioFilename: track.mp3
AudioLeadIn: 0
PreviewTime: 58764
Countdown: 0
SampleSet: Normal
StackLeniency: 0.7
Mode: 0
LetterboxInBreaks: 0
SkinPreference:Default
WidescreenStoryboard: 0

[Editor]
DistanceSpacing: 1.5
BeatDivisor: 4
GridSize: 4
TimelineZoom: 2.1

[Metadata]
Title:LaLaLaLa (Tandemugras)
TitleUnicode:LaLaLaLa (Tandemugrás)
Artist:Zseda
ArtistUnicode:Zséda
Creator:Kazuya
Version:Densz!
Source:
Tags:vocalist singer female női noi énekes enekes zsédenyi adrienn zsedenyi pop dance-pop disco retro hungarian magyar dalszöveg dalszoveg zene dal kazuya-sama
BeatmapID:2261061
BeatmapSetID:1080784

[Difficulty]
HPDrainRate:7
CircleSize:4
OverallDifficulty:7
ApproachRate:8
SliderMultiplier:1.7
SliderTickRate:1

[Events]
//Background and Video events
0,0,"bg.jpg",0,0
//Break Periods
//Storyboard Layer 0 (Background)
//Storyboard Layer 1 (Fail)
//Storyboard Layer 2 (Pass)
//Storyboard Layer 3 (Foreground)
//Storyboard Layer 4 (Overlay)
//Storyboard Sound Samples

[TimingPoints]
1875,444.44562963279,4,2,1,70,1,0
1875,-100,4,2,1,70,0,0
16097,-133.333333333333,4,2,1,50,0,0
30319,-100,4,2,1,50,0,0
44541,-83.3333333333333,4,1,1,80,0,1
58764,-83.3333333333333,4,1,1,80,0,0
72986,-100,4,2,1,50,0,0
80097,-133.333333333333,4,3,1,50,0,0
94319,-100,4,2,1,50,0,0
108541,-83.3333333333333,4,1,1,80,0,1
134986,-83.3333333333333,4,2,1,80,0,1
136986,-83.3333333333333,4,1,1,80,0,0
165430,-100,4,2,1,70,0,0
176319,-100,4,2,1,5,0,0

[Colours]
Combo1 : 136,82,21
Combo2 : 170,39,2
Combo3 : 243,189,1
Combo4 : 249,100,0
SliderBorder : 255,255,255

[HitObjects]
156,28,1875,6,0,P|165:58|180:116,1,85,6|0,0:0|0:0,0:0:0:0:
108,216,2319,2,0,B|232:244|232:244|276:228,1,170,2|0,0:0|0:0,0:0:0:0:
379,158,2986,2,0,P|369:187|355:246,1,85,2|0,0:0|0:0,0:0:0:0:
457,317,3430,2,0,L|290:358,1,170,2|0,0:0|0:0,0:0:0:0:
59,252,4319,1,2,0:0:0:0:
59,252,4541,2,0,P|35:168|6:89,1,170,2|2,0:0|0:0,0:0:0:0:
265,51,5430,5,2,0:0:0:0:
253,178,5652,1,2,0:0:0:0:
182,109,5875,1,2,0:0:0:0:
352,123,6097,2,0,P|372:188|400:292,1,170,2|0,0:0|0:0,0:0:0:0:
248,365,6763,5,2,0:0:0:0:
156,276,6986,1,2,0:0:0:0:
170,377,7208,1,2,0:0:0:0:
273,242,7430,2,0,P|264:204|248:160,1,85,2|0,0:0|0:0,0:0:0:0:
181,52,7875,2,0,P|166:91|156:133,1,85,2|0,0:0|0:0,0:0:0:0:
326,112,8319,2,0,P|408:104|476:168,1,170,2|0,0:0|0:0,0:0:0:0:
357,284,8986,6,0,L|269:296,1,85,6|0,0:0|0:0,0:0:0:0:
160,357,9430,2,0,P|176:297|104:217,1,170,2|0,0:0|0:0,0:0:0:0:
6,147,10097,2,0,L|20:60,1,85,2|0,0:0|0:0,0:0:0:0:
142,25,10541,2,0,P|194:77|294:73,1,170,2|0,0:0|0:0,0:0:0:0:
485,236,11430,1,2,0:0:0:0:
485,236,11652,2,0,P|402:232|340:288,1,170,2|2,0:0|0:0,0:0:0:0:
220,45,12541,5,2,0:0:0:0:
228,172,12763,1,2,0:0:0:0:
316,80,12986,1,2,0:0:0:0:
150,116,13208,6,0,P|134:172|106:280,1,170,2|0,0:0|0:0,0:0:0:0:
202,364,13875,1,2,0:0:0:0:
276,260,14097,1,2,0:0:0:0:
179,292,14319,1,2,0:0:0:0:
344,332,14541,2,0,L|428:312,1,85,2|0,0:0|0:0,0:0:0:0:
501,208,14986,2,0,L|418:188,1,85,2|0,0:0|0:0,0:0:0:0:
264,116,15430,2,0,P|320:148|324:248,1,170,2|0,0:0|0:0,0:0:0:0:
224,324,16097,6,0,L|208:256,1,63.7500024318696,4|0,0:0|0:0,0:0:0:0:
131,178,16541,2,0,P|122:208|115:239,1,63.7500024318696
135,334,16986,2,0,P|77:328|25:274,1,127.500004863739
87,99,17875,2,0,P|120:92|156:83,1,63.7500024318696
242,61,18319,2,0,P|203:85|202:174,1,127.500004863739
282,199,18986,1,0,0:0:0:0:
282,199,19208,2,0,L|266:127,1,63.7500024318696
204,248,19652,6,0,L|128:228,1,63.7500024318696,2|0,0:0|0:0,0:0:0:0:
43,151,20097,2,0,L|67:259,1,95.6250036478044,2|2,0:0|0:0,0:0:0:0:
67,259,20541,2,0,L|-9:239,1,63.7500024318696,0|2,0:0|0:0,0:0:0:0:
91,338,20986,2,0,L|152:321,1,63.7500024318696
250,239,21430,2,0,L|218:367,1,127.500004863739,2|0,0:0|0:0,0:0:0:0:
319,282,22097,1,0,0:0:0:0:
319,282,22319,2,0,P|328:215|290:166,1,127.500004863739,2|0,0:0|0:0,0:0:0:0:
204,136,22986,1,0,0:0:0:0:
204,136,23208,6,0,L|188:64,1,63.7500024318696,2|0,0:0|0:0,0:0:0:0:
108,124,23652,2,0,L|121:186,1,63.7500024318696,2|0,0:0|0:0,0:0:0:0:
72,268,24097,2,0,P|104:296|196:296,1,127.500004863739,2|0,0:0|0:0,0:0:0:0:
276,267,24763,1,0,0:0:0:0:
276,267,24986,2,0,L|259:342,1,63.7500024318696,2|0,0:0|0:0,0:0:0:0:
372,265,25430,1,0,0:0:0:0:
372,265,25652,2,0,P|355:202|297:174,1,127.500004863739,2|0,0:0|0:0,0:0:0:0:
211,200,26319,1,0,0:0:0:0:
211,200,26541,1,0,0:0:0:0:
148,128,26763,6,0,P|152:88|92:28,1,127.500004863739,2|0,0:0|0:0,0:0:0:0:
56,116,27430,2,0,L|44:184,1,63.7500024318696,2|0,0:0|0:0,0:0:0:0:
18,271,27875,2,0,P|38:235|118:227,1,127.500004863739,2|0,0:0|0:0,0:0:0:0:
197,280,28541,1,0,0:0:0:0:
197,280,28763,2,0,L|181:348,1,63.7500024318696,2|0,0:0|0:0,0:0:0:0:
285,266,29208,2,0,P|288:216|232:160,1,127.500004863739,2|2,0:0|0:0,0:0:0:0:
149,197,29875,1,2,0:0:0:0:
192,77,30097,1,2,0:0:0:0:
104,128,30319,6,0,P|63:116|8:104,1,85,4|2,0:0|0:0,0:0:0:0:
64,228,30763,2,0,P|140:236|204:168,1,170,8|0,0:0|0:0,0:0:0:0:
180,48,31430,1,2,0:0:0:0:
180,48,31652,2,0,L|352:28,1,170,8|0,0:0|0:0,0:0:0:0:
452,103,32319,1,2,0:0:0:0:
452,103,32541,2,0,P|384:143|392:232,1,170,8|0,0:0|0:0,0:0:0:0:
495,294,33208,1,2,0:0:0:0:
495,294,33430,2,0,L|507:199,1,85,8|0,0:0|0:0,0:0:0:0:
392,336,33875,6,0,L|304:312,1,85,2|0,0:0|0:0,0:0:0:0:
192,364,34319,2,0,P|208:312|140:224,1,170,10|0,0:0|0:0,0:0:0:0:
31,283,34986,2,0,L|15:199,1,85,2|8,0:0|0:0,0:0:0:0:
29,72,35430,2,0,P|85:133|181:126,1,170,2|0,0:0|0:0,0:0:0:0:
290,97,36097,1,8,0:0:0:0:
290,97,36319,2,0,P|275:137|263:185,1,85,2|0,0:0|0:0,0:0:0:0:
370,249,36763,2,0,L|354:161,1,85,2|8,0:0|0:0,0:0:0:0:
172,344,37430,5,2,0:0:0:0:
120,228,37652,1,2,0:0:0:0:
92,326,37875,1,8,0:0:0:0:
424,254,38319,5,2,0:0:0:0:
379,135,38541,1,2,0:0:0:0:
468,185,38763,1,8,0:0:0:0:
128,204,39208,5,2,0:0:0:0:
60,96,39430,1,2,0:0:0:0:
32,194,39652,1,8,0:0:0:0:
364,116,40097,5,2,0:0:0:0:
484,72,40319,1,2,0:0:0:0:
433,160,40541,1,8,0:0:0:0:
152,352,40986,6,0,P|160:312|172:268,1,85,2|0,0:0|0:0,0:0:0:0:
244,164,41430,2,0,P|254:205|263:246,1,85,10|0,0:0|0:0,0:0:0:0:
96,212,41875,1,0,0:0:0:0:
52,92,42097,1,2,0:0:0:0:
17,188,42319,1,8,0:0:0:0:
131,132,42541,1,2,0:0:0:0:
175,252,42763,5,0,3:0:0:0:
206,240,42875,1,0,3:0:0:0:
239,244,42986,1,0,3:0:0:0:
268,262,43097,1,0,3:0:0:0:
293,285,43208,1,8,3:2:0:0:
320,306,43319,1,0,3:0:0:0:
352,316,43430,1,0,3:0:0:0:
385,313,43541,1,0,3:0:0:0:
413,295,43652,6,0,L|425:335,5,28.3333333333333,0|0|0|0|0|0,3:0|3:0|3:0|3:0|3:0|3:0,3:0:0:0:
450,228,44097,1,8,43:3:0:0:
104,28,44541,5,4,0:0:0:0:
180,124,44764,1,0,0:0:0:0:
296,84,44986,2,0,L|400:64,1,101.999996887207,8|0,0:0|0:0,0:0:0:0:
500,240,45430,1,0,0:0:0:0:
436,344,45652,1,0,0:0:0:0:
320,304,45875,2,0,P|304:253|280:192,1,101.999996887207,8|0,0:0|0:0,0:0:0:0:
176,36,46319,5,0,0:0:0:0:
136,152,46541,1,0,0:0:0:0:
37,80,46764,2,0,P|25:120|13:184,1,101.999996887207,8|0,0:0|0:0,0:0:0:0:
128,348,47208,1,0,0:0:0:0:
208,255,47430,1,0,0:0:0:0:
300,336,47652,2,0,P|344:325|404:308,1,101.999996887207,8|0,0:0|0:0,0:0:0:0:
500,132,48097,6,0,P|451:117|401:105,1,101.999996887207
216,20,48541,2,0,P|228:64|240:120,1,101.999996887207,8|0,0:0|0:0,0:0:0:0:
127,290,48986,1,0,0:0:0:0:
59,98,49208,1,0,0:0:0:0:
11,243,49430,1,8,0:0:0:0:
144,168,49652,1,0,0:0:0:0:
88,364,49875,5,0,0:0:0:0:
60,180,50097,1,0,0:0:0:0:
16,327,50319,1,8,0:0:0:0:
144,168,50541,2,0,L|168:64,1,101.999996887207,2|0,0:2|0:0,0:0:0:0:
364,12,50986,2,0,L|341:111,1,101.999996887207,2|8,0:2|0:0,0:0:0:0:
490,251,51430,1,0,0:0:0:0:
490,251,51652,5,4,0:0:0:0:
422,353,51875,1,0,0:0:0:0:
310,304,52097,2,0,L|208:290,1,101.999996887207,8|0,0:0|0:0,0:0:0:0:
16,360,52541,1,0,0:0:0:0:
86,260,52764,1,0,0:0:0:0:
16,160,52986,2,0,L|116:136,1,101.999996887207,8|0,0:0|0:0,0:0:0:0:
296,40,53430,6,0,P|285:83|272:140,1,101.999996887207
459,224,53875,2,0,L|439:116,1,101.999996887207,8|0,0:0|0:0,0:0:0:0:
320,288,54319,1,0,0:0:0:0:
206,243,54541,1,0,0:0:0:0:
113,323,54764,2,0,P|96:274|83:224,1,101.999996887207,8|0,0:0|0:0,0:0:0:0:
239,93,55208,6,0,L|219:197,1,101.999996887207
411,120,55652,2,0,L|391:16,1,101.999996887207,8|0,0:0|0:0,0:0:0:0:
336,216,56097,1,0,0:0:0:0:
284,360,56319,1,0,0:0:0:0:
412,276,56541,1,8,0:0:0:0:
210,249,56764,1,0,0:0:0:0:
32,348,56986,5,0,0:0:0:0:
32,348,57208,2,0,P|20:312|4:240,1,101.999996887207,2|8,0:2|0:0,0:0:0:0:
100,68,57652,2,0,B|176:80|200:156|200:156|248:108,1,203.999993774414,2|2,0:2|0:2,0:0:0:0:
423,12,58319,2,0,P|411:48|395:112,1,101.999996887207,8|0,0:0|0:0,0:0:0:0:
504,283,58764,6,0,L|484:179,1,101.999996887207,4|0,0:0|0:0,0:0:0:0:
348,336,59208,2,0,P|280:352|168:276,1,203.999993774414,8|0,0:0|0:0,0:0:0:0:
76,104,59875,2,0,P|68:136|52:208,1,101.999996887207,0|8,0:0|0:0,0:0:0:0:
256,172,60319,1,0,0:0:0:0:
256,172,60541,5,0,0:0:0:0:
376,8,60764,1,0,0:0:0:0:
232,60,60986,1,8,0:0:0:0:
412,156,61208,1,0,0:0:0:0:
508,336,61430,2,0,B|440:304|384:356|384:356|360:336|320:328,1,203.999993774414,0|8,0:0|0:0,0:0:0:0:
148,220,62097,1,0,0:0:0:0:
148,220,62319,5,2,0:2:0:0:
68,32,62541,1,2,0:2:0:0:
60,184,62764,1,8,0:0:0:0:
228,68,62986,1,2,0:2:0:0:
412,156,63208,1,0,0:0:0:0:
326,29,63430,1,0,0:0:0:0:
512,112,63652,5,8,0:0:0:0:
308,128,63875,1,2,0:2:0:0:
412,304,64097,1,0,0:0:0:0:
412,156,64319,1,2,0:2:0:0:
311,332,64541,1,8,0:0:0:0:
311,332,64764,2,0,P|241:352|132:272,1,203.999993774414,2|2,0:2|0:2,0:0:0:0:
24,114,65430,2,0,L|3:219,1,101.999996887207,8|0,0:0|0:0,0:0:0:0:
123,47,65875,6,0,L|228:26,1,101.999996887207,4|0,0:0|0:0,0:0:0:0:
427,52,66319,2,0,P|333:72|293:172,1,203.999993774414,8|0,0:0|0:0,0:0:0:0:
441,304,66986,2,0,L|417:188,1,101.999996887207,0|8,0:0|0:0,0:0:0:0:
249,316,67430,1,0,0:0:0:0:
249,316,67652,5,0,0:0:0:0:
153,136,67875,1,0,0:0:0:0:
101,280,68097,1,8,0:0:0:0:
279,180,68319,1,0,0:0:0:0:
430,44,68541,2,0,P|453:126|482:248,1,203.999993774414,0|8,0:0|0:0,0:0:0:0:
318,367,69208,1,0,0:0:0:0:
318,367,69430,5,2,0:2:0:0:
187,210,69652,1,2,0:2:0:0:
235,355,69875,1,8,0:0:0:0:
251,151,70097,1,2,0:2:0:0:
136,320,70319,5,0,0:0:0:0:
108,116,70541,1,0,0:0:0:0:
200,238,70764,1,8,0:0:0:0:
204,34,70986,1,2,0:2:0:0:
104,212,71208,1,0,0:0:0:0:
276,320,71430,2,0,L|376:292,1,101.999996887207,2|8,0:2|0:0,0:0:0:0:
512,140,71875,2,0,P|440:164|340:80,1,203.999993774414,2|2,0:2|0:2,0:0:0:0:
152,24,72541,2,0,L|176:124,1,101.999996887207,8|0,0:0|0:0,0:0:0:0:
92,272,72986,6,0,P|132:283|188:300,1,85,6|0,0:0|0:0,0:0:0:0:
288,356,73430,2,0,P|276:296|372:244,1,170,2|0,0:0|0:0,0:0:0:0:
467,176,74097,2,0,P|425:161|383:144,1,85,2|0,0:0|0:0,0:0:0:0:
276,84,74541,2,0,P|352:64|444:28,1,170,2|0,0:0|0:0,0:0:0:0:
140,32,76541,6,0,L|120:116,1,85,2|0,0:0|0:0,0:0:0:0:
75,235,76986,2,0,P|159:199|235:175,1,170,2|0,0:0|0:0,0:0:0:0:
352,128,77652,2,0,P|344:160|328:232,1,85,2|0,0:0|0:0,0:0:0:0:
276,325,78097,2,0,P|364:333|456:205,1,255,2|0,0:0|0:0,0:0:0:0:
260,48,79208,6,0,L|84:16,1,170,8|4,0:3|0:3,0:0:0:0:
12,81,79875,1,8,0:3:0:0:
12,81,80097,6,0,P|61:96|86:175,1,127.500004863739,4|0,0:1|0:0,0:0:0:0:
38,220,80764,1,0,0:0:0:0:
38,220,80986,2,0,P|93:203|170:190,1,127.500004863739,8|0,0:0|0:0,0:0:0:0:
224,236,81652,1,0,0:0:0:0:
224,236,81875,2,0,L|252:104,1,127.500004863739
304,56,82541,1,0,0:0:0:0:
304,56,82764,2,0,P|344:92|420:92,1,127.500004863739,8|0,0:3|0:0,0:0:0:0:
484,61,83430,1,0,0:0:0:0:
484,61,83652,6,0,L|508:193,1,127.500004863739
472,256,84319,2,0,P|440:240|396:228,1,63.7500024318696,0|8,0:0|0:0,0:0:0:0:
351,276,84764,1,0,0:0:0:0:
316,208,84986,2,0,L|300:144,1,63.7500024318696
240,99,85430,2,0,P|196:143|132:139,1,127.500004863739
58,134,86097,2,0,P|64:154|73:202,1,63.7500024318696,2|8,0:0|0:3,0:0:0:0:
127,250,86541,2,0,P|147:254|193:271,1,63.7500024318696,2|0,0:0|0:3,0:0:0:0:
248,316,86986,1,0,0:0:0:0:
248,316,87208,6,0,L|320:296,1,63.7500024318696,4|0,0:1|0:0,0:0:0:0:
380,328,87653,1,0,0:0:0:0:
432,272,87875,2,0,L|444:200,1,63.7500024318696,0|8,0:0|0:0,0:0:0:0:
484,144,88319,1,0,0:0:0:0:
420,102,88541,2,0,L|348:118,1,63.7500024318696
288,148,88986,2,0,L|312:52,2,95.6250036478044,2|2|2,0:0|0:0|0:0,0:0:0:0:
321,217,89875,2,0,P|259:236|193:249,1,127.500004863739,8|0,0:0|0:0,0:0:0:0:
128,216,90541,1,0,0:0:0:0:
128,216,90764,6,0,P|113:151|96:88,1,127.500004863739
44,236,91653,2,0,P|84:292|140:304,1,127.500004863739,8|0,0:0|0:0,0:0:0:0:
198,255,92319,2,0,L|220:128,1,127.500004863739
260,64,92986,1,0,0:0:0:0:
260,64,93208,2,0,L|328:52,1,63.7500024318696,2|8,0:0|0:0,0:0:0:0:
396,31,93653,2,0,P|352:59|352:147,1,127.500004863739,2|0,0:0|0:0,0:0:0:0:
420,196,94319,6,0,L|332:232,1,85,4|0,0:0|0:0,0:0:0:0:
236,300,94764,2,0,P|240:216|168:172,1,170,2|0,0:0|0:0,0:0:0:0:
93,270,95430,1,0,0:0:0:0:
93,270,95653,2,0,L|69:94,1,170,2|0,0:0|0:0,0:0:0:0:
171,24,96319,1,0,0:0:0:0:
171,24,96541,2,0,P|224:88|315:87,1,170,2|0,0:0|0:0,0:0:0:0:
420,32,97208,1,0,0:0:0:0:
420,32,97430,2,0,P|412:56|392:120,1,85,2|0,0:0|0:0,0:0:0:0:
492,196,97875,6,0,L|480:108,1,85
399,210,98319,2,0,B|360:184|360:184|295:214|295:214|248:180,1,170,2|0,0:0|0:0,0:0:0:0:
144,116,98986,2,0,P|156:144|172:200,1,85,0|2,0:0|0:0,0:0:0:0:
96,300,99430,2,0,P|132:340|256:324,1,170
348,267,100097,1,2,0:0:0:0:
348,267,100319,2,0,P|338:305|329:360,1,85
444,290,100764,2,0,L|429:204,1,85,0|2,0:0|0:0,0:0:0:0:
236,40,101430,5,2,0:0:0:0:
186,157,101653,1,2,0:0:0:0:
137,67,101875,1,8,0:0:0:0:
457,179,102319,5,2,0:0:0:0:
432,304,102541,1,2,0:0:0:0:
509,237,102764,1,8,0:0:0:0:
68,252,103208,5,2,0:0:0:0:
164,336,103430,1,2,0:0:0:0:
62,329,103653,1,8,0:0:0:0:
350,149,104097,5,2,0:0:0:0:
394,29,104319,1,2,0:0:0:0:
425,126,104541,1,8,0:0:0:0:
176,356,104986,6,0,P|184:312|192:272,1,85,2|0,0:0|0:0,0:0:0:0:
269,170,105430,2,0,P|277:211|284:253,1,85,10|0,0:0|0:0,0:0:0:0:
120,210,105875,1,0,0:0:0:0:
68,94,106097,1,2,0:0:0:0:
40,192,106319,1,8,0:0:0:0:
150,127,106541,1,2,0:0:0:0:
213,237,106764,5,0,3:0:0:0:
244,249,106875,1,0,3:0:0:0:
277,245,106986,1,0,3:0:0:0:
306,227,107097,1,0,3:0:0:0:
331,204,107208,1,8,3:2:0:0:
358,183,107319,1,0,3:0:0:0:
390,173,107430,1,0,3:0:0:0:
423,176,107541,1,0,3:0:0:0:
451,194,107653,6,0,L|463:154,5,28.3333333333333,0|0|0|0|0|0,3:0|3:0|3:0|3:0|3:0|3:0,3:0:0:0:
488,261,108097,1,8,43:3:0:0:
88,344,108541,5,4,0:0:0:0:
152,240,108764,1,0,0:0:0:0:
83,140,108986,2,0,L|191:120,1,101.999996887207,8|0,0:0|0:0,0:0:0:0:
368,32,109430,1,0,0:0:0:0:
304,136,109653,1,0,0:0:0:0:
416,184,109875,2,0,P|428:220|448:284,1,101.999996887207,8|0,0:0|0:0,0:0:0:0:
252,344,110319,5,0,0:0:0:0:
148,280,110541,1,0,0:0:0:0:
28,304,110764,2,0,P|13:252|0:192,1,101.999996887207,8|0,0:0|0:0,0:0:0:0:
103,26,111208,1,0,0:0:0:0:
192,110,111430,1,0,0:0:0:0:
285,30,111653,2,0,P|297:70|313:130,1,101.999996887207,8|0,0:0|0:0,0:0:0:0:
356,328,112097,6,0,P|307:313|257:300,1,101.999996887207
56,264,112541,2,0,L|76:372,1,101.999996887207,8|0,0:0|0:0,0:0:0:0:
175,187,112986,1,0,0:0:0:0:
292,20,113208,1,0,0:0:0:0:
148,72,113430,1,8,0:0:0:0:
284,140,113653,1,0,0:0:0:0:
364,328,113875,5,0,0:0:0:0:
428,189,114097,1,0,0:0:0:0:
242,273,114319,1,8,0:0:0:0:
57,359,114541,2,0,P|41:308|32:252,1,101.999996887207,2|0,0:2|0:0,0:0:0:0:
167,106,114986,2,0,P|151:154|142:204,1,101.999996887207,2|8,0:2|0:0,0:0:0:0:
294,344,115430,1,0,0:0:0:0:
294,344,115653,5,4,0:0:0:0:
396,276,115875,1,0,0:0:0:0:
369,156,116097,2,0,P|417:143|473:132,1,101.999996887207,8|0,0:0|0:0,0:0:0:0:
297,244,116541,5,0,0:0:0:0:
212,156,116764,1,0,0:0:0:0:
96,196,116986,2,0,P|44:180|0:148,1,101.999996887207,8|0,0:0|0:0,0:0:0:0:
176,40,117430,6,0,L|286:21,1,101.999996887207
443,140,117875,2,0,L|342:122,1,101.999996887207,8|0,0:0|0:0,0:0:0:0:
210,279,118319,1,0,0:0:0:0:
120,196,118541,1,0,0:0:0:0:
16,260,118764,2,0,L|0:364,1,101.999996887207,8|0,0:0|0:0,0:0:0:0:
120,196,119208,6,0,P|88:156|36:136,1,101.999996887207
124,324,119653,2,0,L|232:285,1,101.999996887207,8|0,0:0|0:0,0:0:0:0:
415,352,120097,1,0,0:0:0:0:
444,202,120319,1,0,0:0:0:0:
497,312,120541,1,8,0:0:0:0:
494,108,120764,1,0,0:0:0:0:
362,264,120986,1,0,0:0:0:0:
362,264,121208,6,0,P|308:248|248:236,1,101.999996887207,2|8,0:2|0:0,0:0:0:0:
87,341,121653,2,0,L|47:125,1,203.999993774414,2|2,0:2|0:2,0:0:0:0:
208,12,122319,2,0,P|199:53|188:116,1,101.999996887207,8|0,0:0|0:0,0:0:0:0:
280,296,122764,5,4,0:0:0:0:
384,232,122986,1,0,0:0:0:0:
472,317,123208,2,0,P|488:273|504:217,1,101.999996887207,8|0,0:0|0:0,0:0:0:0:
400,44,123653,1,0,0:0:0:0:
299,114,123875,1,0,0:0:0:0:
190,57,124097,2,0,P|182:85|166:161,1,101.999996887207,8|0,0:0|0:0,0:0:0:0:
96,348,124541,5,0,0:0:0:0:
193,273,124764,1,0,0:0:0:0:
286,352,124986,2,0,P|337:338|397:316,1,101.999996887207,8|0,0:0|0:0,0:0:0:0:
484,144,125430,1,0,0:0:0:0:
374,199,125653,1,0,0:0:0:0:
336,82,125875,2,0,L|224:68,1,101.999996887207,8|0,0:0|0:0,0:0:0:0:
32,44,126319,6,0,P|45:86|60:148,1,101.999996887207
168,316,126764,2,0,P|179:266|194:217,1,101.999996887207,8|0,0:0|0:0,0:0:0:0:
384,296,127208,1,0,0:0:0:0:
440,100,127430,1,0,0:0:0:0:
480,248,127653,1,8,0:0:0:0:
344,178,127875,1,0,0:0:0:0:
463,342,128097,5,0,0:0:0:0:
424,184,128319,1,0,0:0:0:0:
308,352,128542,1,8,0:0:0:0:
243,158,128764,2,0,P|255:190|279:262,1,101.999996887207,2|0,0:2|0:0,0:0:0:0:
101,359,129208,2,0,L|121:250,1,101.999996887207,2|8,0:2|0:0,0:0:0:0:
38,70,129653,1,0,0:0:0:0:
38,70,129875,5,4,0:0:0:0:
140,136,130097,1,0,0:0:0:0:
221,44,130319,2,0,L|321:28,1,101.999996887207,8|0,0:0|0:0,0:0:0:0:
496,136,130764,1,0,0:0:0:0:
413,225,130986,1,0,0:0:0:0:
431,346,131208,2,0,P|379:330|327:314,1,101.999996887207,8|0,0:0|0:0,0:0:0:0:
132,352,131653,6,0,P|116:300|104:252,1,101.999996887207
28,64,132097,2,0,L|8:168,1,101.999996887207,8|0,0:0|0:0,0:0:0:0:
212,136,132542,1,0,0:0:0:0:
308,60,132764,1,0,0:0:0:0:
416,120,132986,2,0,P|432:60|440:20,1,101.999996887207,8|0,0:0|0:0,0:0:0:0:
316,184,133430,6,0,L|340:292,1,101.999996887207
153,370,133875,2,0,L|130:270,1,101.999996887207,8|0,0:0|0:0,0:0:0:0:
5,108,134319,1,0,0:0:0:0:
193,28,134542,1,0,0:0:0:0:
40,35,134764,1,8,0:0:0:0:
136,153,134986,6,0,B|192:136|192:136|260:184|260:184|337:152,1,203.999993774414,2|2,0:0|0:0,0:0:0:0:
408,6,135653,5,8,3:2:0:0:
396,34,135764,1,0,3:0:0:0:
391,64,135875,1,0,3:0:0:0:
396,94,135986,1,0,3:0:0:0:
406,123,136097,1,0,3:0:0:0:
424,148,136208,1,0,3:0:0:0:
445,170,136319,1,0,3:0:0:0:
472,184,136430,1,0,3:0:0:0:
502,178,136542,6,0,L|512:224,5,33.9999989624024,8|0|0|0|0|0,3:2|3:0|3:0|3:0|3:0|3:0,3:0:0:0:
477,290,136986,6,0,P|427:273|373:258,1,101.999996887207,4|0,0:0|0:0,0:0:0:0:
187,328,137430,2,0,P|143:340|19:240,1,203.999993774414,8|0,0:0|0:0,0:0:0:0:
167,112,138097,2,0,L|290:95,1,101.999996887207,0|8,0:0|0:0,0:0:0:0:
425,230,138542,1,0,0:0:0:0:
425,230,138764,5,0,0:0:0:0:
481,34,138986,1,0,0:0:0:0:
504,185,139208,1,8,0:0:0:0:
371,109,139430,1,0,0:0:0:0:
300,300,139653,2,0,B|244:284|168:332|168:332|152:300|112:280,1,203.999993774414,0|8,0:0|0:0,0:0:0:0:
24,108,140319,1,0,0:0:0:0:
24,108,140542,5,2,0:2:0:0:
216,40,140764,1,2,0:2:0:0:
64,24,140986,1,8,0:0:0:0:
240,128,141208,1,2,0:2:0:0:
112,287,141430,1,0,0:0:0:0:
264,273,141653,1,0,0:0:0:0:
102,149,141875,5,8,0:0:0:0:
192,332,142097,1,2,0:2:0:0:
18,224,142319,1,0,0:0:0:0:
68,368,142542,1,2,0:2:0:0:
102,149,142764,1,8,0:0:0:0:
102,149,142986,2,0,B|140:160|160:196|160:196|296:172,1,203.999993774414,2|2,0:2|0:2,0:0:0:0:
404,8,143653,2,0,P|392:40|376:112,1,101.999996887207,8|0,0:0|0:0,0:0:0:0:
485,280,144097,6,0,L|469:176,1,101.999996887207,4|0,0:0|0:0,0:0:0:0:
316,314,144542,2,0,B|260:300|260:300|200:344|200:344|120:328,1,203.999993774414,8|0,0:0|0:0,0:0:0:0:
52,140,145208,2,0,L|152:164,1,101.999996887207,0|8,0:0|0:0,0:0:0:0:
332,68,145653,1,0,0:0:0:0:
332,68,145875,5,0,0:0:0:0:
412,256,146097,1,0,0:0:0:0:
432,104,146319,1,8,0:0:0:0:
262,215,146542,1,0,0:0:0:0:
112,353,146764,2,0,L|64:141,1,203.999993774414,0|8,0:0|0:0,0:0:0:0:
226,26,147430,1,0,0:0:0:0:
226,26,147653,5,2,0:2:0:0:
360,180,147875,1,2,0:2:0:0:
308,36,148097,1,8,0:0:0:0:
294,239,148319,1,2,0:2:0:0:
165,81,148542,1,0,0:0:0:0:
314,115,148764,1,0,0:0:0:0:
145,230,148986,5,8,0:0:0:0:
28,63,149208,1,2,0:2:0:0:
44,215,149430,1,0,0:0:0:0:
187,69,149653,2,0,L|300:52,1,101.999996887207,2|8,0:2|0:0,0:0:0:0:
490,21,150097,2,0,P|387:59|374:159,1,203.999993774414,2|2,0:2|0:2,0:0:0:0:
426,338,150764,1,8,0:0:0:0:
505,207,150986,1,0,0:0:0:0:
310,266,151208,6,0,P|264:248|200:232,1,101.999996887207,4|0,0:0|0:0,0:0:0:0:
40,344,151653,2,0,L|8:140,1,203.999993774414,8|0,0:0|0:0,0:0:0:0:
172,20,152319,2,0,P|164:40|140:120,1,101.999996887207,0|8,0:0|0:0,0:0:0:0:
260,284,152764,1,0,0:0:0:0:
260,284,152986,5,0,0:0:0:0:
424,164,153208,1,0,0:0:0:0:
371,308,153430,1,8,0:0:0:0:
304,171,153653,1,0,0:0:0:0:
158,28,153875,2,0,P|132:112|104:232,1,203.999993774414,0|8,0:0|0:0,0:0:0:0:
268,358,154542,1,0,0:0:0:0:
268,358,154764,5,2,0:2:0:0:
392,196,154986,1,2,0:2:0:0:
356,344,155208,1,8,0:0:0:0:
320,143,155430,1,2,0:2:0:0:
128,212,155653,1,0,0:0:0:0:
32,93,155875,1,0,0:0:0:0:
1,294,156097,5,8,0:0:0:0:
115,125,156319,2,0,B|168:108|168:108|227:165|227:165|300:144,1,203.999993774414,2|2,0:2|0:2,0:0:0:0:
461,36,156986,1,8,0:0:0:0:
461,36,157208,2,0,P|386:67|382:181,1,203.999993774414,2|2,0:2|0:2,0:0:0:0:
468,363,157875,2,0,P|421:347|356:331,1,101.999996887207,8|0,0:0|0:0,0:0:0:0:
168,360,158319,6,0,P|148:308|136:260,1,101.999996887207,4|0,0:0|0:0,0:0:0:0:
63,72,158764,2,0,L|271:120,1,203.999993774414,8|0,0:0|0:0,0:0:0:0:
452,44,159430,2,0,P|464:80|484:152,1,101.999996887207,0|8,0:0|0:0,0:0:0:0:
376,316,159875,1,0,0:0:0:0:
376,316,160097,5,0,0:0:0:0:
180,260,160319,1,0,0:0:0:0:
296,360,160542,1,8,0:0:0:0:
367,224,160764,1,0,0:0:0:0:
444,36,160986,6,0,P|380:104|272:88,1,203.999993774414,0|8,0:0|0:0,0:0:0:0:
76,51,161653,1,0,0:0:0:0:
76,51,161875,2,0,P|88:75|112:147,1,101.999996887207
44,340,162319,2,0,B|80:350|80:350|123:364|239:309,1,203.999993774414,8|0,0:0|0:0,0:0:0:0:
400,184,162986,2,0,L|508:200,2,101.999996887207,0|8|0,0:0|0:0|0:0,0:0:0:0:
272,24,163653,1,0,0:0:0:0:
272,24,163875,2,0,P|285:66|296:128,1,101.999996887207,2|8,0:2|0:0,0:0:0:0:
109,208,164319,2,0,L|129:92,1,101.999996887207,2|0,0:2|0:0,0:0:0:0:
206,295,164764,2,0,P|168:327|96:338,1,101.999996887207,2|8,0:2|0:0,0:0:0:0:
272,36,165430,6,0,P|304:60|360:60,1,85,6|0,0:0|0:0,0:0:0:0:
468,20,165875,2,0,P|396:56|396:152,1,170,2|0,0:0|0:0,0:0:0:0:
498,204,166542,2,0,L|482:120,1,85,2|0,0:0|0:0,0:0:0:0:
409,225,166986,2,0,B|383:288|319:281|319:281|267:274|267:274|245:313|192:319,1,255,2|0,0:0|0:0,0:0:0:0:
83,260,167875,1,0,0:0:0:0:
83,260,168097,2,0,P|76:287|63:348,1,85,2|0,0:0|0:0,0:0:0:0:
181,219,168542,2,0,L|158:115,1,85,2|0,0:0|0:0,0:0:0:0:
235,30,168986,5,2,0:0:0:0:
343,98,169208,1,2,0:0:0:0:
242,112,169431,1,2,0:0:0:0:
321,13,169653,1,2,0:0:0:0:
436,240,170097,1,0,0:0:0:0:
436,240,170319,5,2,0:0:0:0:
344,328,170542,1,2,0:0:0:0:
356,227,170764,1,2,0:0:0:0:
441,322,170986,1,2,0:0:0:0:
440,68,171431,6,0,P|379:113|271:93,1,170,2|0,0:0|0:0,0:0:0:0:
176,44,172097,1,2,0:0:0:0:
145,168,172319,1,2,0:0:0:0:
29,116,172542,6,0,L|17:200,1,85,6|0,0:0|0:0,0:0:0:0:
28,328,172986,2,0,P|80:276|184:276,1,170,2|0,0:0|0:0,0:0:0:0:
292,316,173653,2,0,P|308:268|316:228,1,85,2|0,0:0|0:0,0:0:0:0:
380,124,174097,2,0,B|336:132|300:104|300:104|228:140|228:140|188:108|143:117,1,255,2|0,0:0|0:0,0:0:0:0:
28,168,174986,2,0,P|43:204|56:248,1,85,2|0,0:0|0:0,0:0:0:0:
148,336,175431,1,2,0:0:0:0:
148,336,175653,2,0,P|159:295|176:255,1,85
282,328,176097,1,4,0:0:0:0:
256,192,176319,12,0,178319,0:0:0:0:
