osu file format v14

[General]
AudioFilename: track.mp3
AudioLeadIn: 0
PreviewTime: 58764
Countdown: 0
SampleSet: Soft
StackLeniency: 0.7
Mode: 0
LetterboxInBreaks: 0
SkinPreference:Default
WidescreenStoryboard: 1

[Editor]
DistanceSpacing: 1
BeatDivisor: 4
GridSize: 4
TimelineZoom: 2.1

[Metadata]
Title:LaLaLaLa (Tandemugras)
TitleUnicode:LaLaLaLa (Tandemugrás)
Artist:Zseda
ArtistUnicode:Zséda
Creator:Kazuya
Version:Basic
Source:
Tags:vocalist singer female női noi énekes enekes zsédenyi adrienn zsedenyi pop dance-pop disco retro hungarian magyar dalszöveg dalszoveg zene dal kazuya-sama
BeatmapID:2262109
BeatmapSetID:1080784

[Difficulty]
HPDrainRate:3
CircleSize:3
OverallDifficulty:3
ApproachRate:5
SliderMultiplier:1.2
SliderTickRate:1

[Events]
//Background and Video events
0,0,"bg.jpg",0,0
//Break Periods
//Storyboard Layer 0 (Background)
//Storyboard Layer 1 (Fail)
//Storyboard Layer 2 (Pass)
//Storyboard Layer 3 (Foreground)
//Storyboard Layer 4 (Overlay)
//Storyboard Sound Samples

[TimingPoints]
1875,444.44562963279,4,2,1,70,1,0
1875,-100,4,2,1,70,0,0
16097,-100,4,2,1,50,0,0
30319,-100,4,2,1,50,0,0
44541,-100,4,1,1,80,0,1
58764,-100,4,1,1,70,0,0
72986,-100,4,2,1,50,0,0
80097,-100,4,3,1,50,0,0
94319,-100,4,2,1,70,0,0
108541,-100,4,1,1,80,0,1
134986,-100,4,2,1,80,0,1
136986,-100,4,1,1,80,0,0
165430,-100,4,2,1,70,0,0
176319,-100,4,2,1,5,0,0

[Colours]
Combo1 : 136,82,21
Combo2 : 170,39,2
Combo3 : 243,189,1
Combo4 : 249,100,0
SliderBorder : 255,255,255

[HitObjects]
488,184,1875,6,0,P|428:192|370:207,1,120,6|2,0:0|0:0,0:0:0:0:
236,328,2986,2,0,P|176:319|118:304,1,120,2|2,0:0|0:0,0:0:0:0:
32,80,4319,1,0,0:0:0:0:
32,80,4541,2,0,L|160:64,1,120,2|2,0:0|0:0,0:0:0:0:
266,31,5430,6,0,P|203:78|211:182,1,180,2|2,0:0|0:0,0:0:0:0:
246,347,6763,2,0,P|168:307|64:288,1,180,2|2,0:0|0:0,0:0:0:0:
8,190,7875,1,2,0:0:0:0:
30,72,8319,1,2,0:0:0:0:
204,29,8986,6,0,L|182:147,1,120,6|2,0:0|0:0,0:0:0:0:
160,325,10097,2,0,P|207:296|284:297,1,120,2|2,0:0|0:0,0:0:0:0:
500,226,11430,1,0,0:0:0:0:
500,226,11652,2,0,L|475:97,1,120,2|2,0:0|0:0,0:0:0:0:
376,44,12541,2,0,P|324:104|212:96,1,180,2|2,0:0|0:0,0:0:0:0:
64,32,13875,2,0,L|28:224,1,180,2|2,0:0|0:0,0:0:0:0:
92,312,14986,1,2,0:0:0:0:
197,255,15430,1,2,0:0:0:0:
376,244,16097,6,0,L|349:363,2,120,4|0|0,0:0|0:0|0:0,0:0:0:0:
402,127,17430,1,0,0:0:0:0:
281,130,17875,2,0,L|253:6,2,120
256,248,19208,1,0,0:0:0:0:
160,176,19652,6,0,P|99:185|32:204,1,120,2|2,0:0|0:0,0:0:0:0:
27,289,20430,2,0,P|71:337|175:329,1,150,2|0,0:0|0:0,0:0:0:0:
236,256,21430,1,2,0:0:0:0:
344,304,21875,2,0,L|328:364,2,60,2|0|2,0:0|0:0|0:0,0:0:0:0:
436,228,22763,1,0,0:0:0:0:
376,124,23208,6,0,P|416:112|488:84,2,120
268,72,24541,1,0,0:0:0:0:
152,104,24986,2,0,P|167:145|184:228,1,120
148,268,25652,2,0,L|340:328,1,180
420,256,26763,6,0,L|400:132,1,120,2|0,0:0|0:0,0:0:0:0:
440,92,27430,2,0,P|372:112|272:52,1,180,2|0,0:0|0:0,0:0:0:0:
164,32,28541,2,0,L|192:152,1,120,2|0,0:0|0:0,0:0:0:0:
156,198,29208,2,0,P|149:233|258:295,1,180,2|0,0:0|0:0,0:0:0:0:
372,283,30319,6,0,L|356:348,2,60,4|0|8,0:0|0:0|0:0,0:0:0:0:
439,183,31208,2,0,L|426:124,2,60,0|0|8,0:0|0:0|0:0,0:0:0:0:
319,176,32097,1,0,0:0:0:0:
212,231,32541,1,8,0:0:0:0:
151,127,32986,2,0,L|167:67,2,60,0|0|8,0:0|0:0|0:0,0:0:0:0:
44,182,33875,5,0,0:0:0:0:
106,284,34319,1,0,0:0:0:0:
279,234,34986,2,0,L|347:218,1,60,0|8,0:0|0:0,0:0:0:0:
395,234,35430,2,0,P|423:191|381:79,1,180,0|8,0:0|0:0,0:0:0:0:
148,19,36986,1,8,0:0:0:0:
104,130,37430,6,0,L|48:110,2,60,0|2|8,0:0|0:0|0:0,0:0:0:0:
218,165,38319,2,0,L|274:145,2,60,0|2|8,0:0|0:0|0:0,0:0:0:0:
136,252,39208,1,0,0:0:0:0:
234,320,39652,1,8,0:0:0:0:
353,306,40097,2,0,L|370:364,2,60,0|2|8,0:0|0:0|0:0,0:0:0:0:
440,224,40986,5,0,0:0:0:0:
407,108,41430,1,8,0:0:0:0:
244,32,42097,2,0,P|234:60|228:96,1,60,0|8,0:0|0:0,0:0:0:0:
248,148,42541,2,0,P|184:96|80:104,1,180,0|8,0:0|0:0,0:0:0:0:
20,196,43652,1,2,0:0:0:0:
52,312,44097,1,8,0:3:0:0:
160,260,44541,6,0,L|148:200,2,60,4|0|8,0:0|0:0|0:0,0:0:0:0:
276,292,45430,2,0,L|264:352,2,60,0|0|8,0:0|0:0|0:0,0:0:0:0:
388,336,46319,1,0,0:0:0:0:
448,232,46764,1,8,0:0:0:0:
404,120,47208,2,0,L|464:104,2,60,0|0|8,0:0|0:0|0:0,0:0:0:0:
321,207,48097,5,0,0:0:0:0:
232,127,48541,1,8,0:0:0:0:
112,120,48986,2,0,L|128:184,1,60
80,216,49430,2,0,L|96:280,1,60,8|0,0:0|0:0,0:0:0:0:
57,321,49875,2,0,L|193:349,1,120,0|8,0:0|0:0,0:0:0:0:
276,280,50764,1,0,0:0:0:0:
249,163,51208,1,8,0:0:0:0:
232,44,51652,6,0,L|172:28,2,60,4|0|8,0:0|0:0|0:0,0:0:0:0:
343,90,52541,2,0,L|400:74,2,60,0|0|8,0:0|0:0|0:0,0:0:0:0:
248,164,53430,1,0,0:0:0:0:
344,236,53875,1,8,0:0:0:0:
236,288,54319,2,0,L|168:272,2,60,0|0|8,0:0|0:0|0:0,0:0:0:0:
340,348,55208,5,0,0:0:0:0:
444,288,55652,1,8,0:0:0:0:
452,168,56097,2,0,L|384:180,1,60
360,128,56541,2,0,L|292:140,1,60,8|0,0:0|0:0,0:0:0:0:
256,100,56986,2,0,P|236:152|220:224,1,120,0|8,0:0|0:0,0:0:0:0:
280,320,57875,2,0,L|152:336,1,120,0|8,0:0|0:0,0:0:0:0:
64,260,58764,5,4,0:0:0:0:
124,156,59208,1,8,0:0:0:0:
96,40,59652,2,0,L|160:28,1,60,0|2,0:0|0:2,0:0:0:0:
200,69,60097,2,0,L|264:57,1,60,8|2,0:0|0:2,0:0:0:0:
315,36,60541,2,0,P|295:76|275:157,1,120,0|8,0:0|0:0,0:0:0:0:
352,241,61430,2,0,L|228:261,1,120,0|8,0:0|0:0,0:0:0:0:
152,349,62319,6,0,L|95:328,1,60,0|2,0:0|0:2,0:0:0:0:
39,351,62764,2,0,P|33:301|9:229,1,120,8|0,0:0|0:0,0:0:0:0:
56,124,63652,2,0,L|180:148,1,120,8|0,0:0|0:0,0:0:0:0:
276,84,64541,1,8,0:0:0:0:
276,84,64764,2,0,P|360:84|424:164,1,180,2|8,0:2|0:0,0:0:0:0:
472,260,65875,5,4,0:0:0:0:
380,336,66319,1,8,0:0:0:0:
308,240,66764,2,0,L|244:248,1,60,0|2,0:0|0:2,0:0:0:0:
220,300,67208,2,0,L|156:308,1,60,8|2,0:0|0:2,0:0:0:0:
116,348,67652,2,0,P|64:348|25:290,1,120,0|8,0:0|0:0,0:0:0:0:
6,178,68541,2,0,L|41:55,1,120,0|8,0:0|0:0,0:0:0:0:
145,7,69430,6,0,P|152:33|160:74,1,60,0|2,0:0|0:2,0:0:0:0:
137,121,69875,2,0,P|188:138|258:152,1,120,8|0,0:0|0:0,0:0:0:0:
348,78,70764,2,0,P|363:127|379:199,1,120,8|0,0:0|0:0,0:0:0:0:
427,303,71652,1,8,0:0:0:0:
427,303,71875,2,0,P|483:243|472:136,1,180,2|8,0:2|0:0,0:0:0:0:
369,101,72986,6,0,L|237:141,1,120,6|2,0:0|0:0,0:0:0:0:
124,260,74097,2,0,P|60:248|-4:232,1,120,2|2,0:0|0:0,0:0:0:0:
492,28,76541,6,0,P|476:72|456:152,1,120,2|2,0:0|0:0,0:0:0:0:
352,288,77652,2,0,P|337:229|317:173,1,120,2|2,0:0|0:0,0:0:0:0:
56,24,79208,2,0,L|32:152,1,120,8|8,0:3|0:1,0:0:0:0:
108,236,80097,6,0,L|232:212,1,120,4|0,0:1|0:0,0:0:0:0:
320,288,80986,1,8,0:0:0:0:
416,216,81430,2,0,P|424:184|436:152,1,60
466,108,81875,2,0,L|334:132,1,120
260,48,82764,1,8,0:0:0:0:
164,120,83208,1,0,0:0:0:0:
52,76,83652,6,0,P|40:132|28:200,1,120,2|0,0:2|0:0,0:0:0:0:
76,304,84541,2,0,L|196:272,1,120,8|0,0:0|0:0,0:0:0:0:
304,231,85430,2,0,L|276:351,2,120,2|0|8,0:2|0:0|0:0,0:0:0:0:
427,24,87208,6,0,P|347:108|219:104,1,240,4|8,0:1|0:0,0:0:0:0:
124,50,88541,1,0,0:0:0:0:
48,142,88986,2,0,L|24:250,1,90,2|0,0:2|0:0,0:0:0:0:
76,306,89653,1,2,0:2:0:0:
76,306,89875,2,0,P|131:287|192:274,1,120,8|0,0:0|0:0,0:0:0:0:
308,304,90764,6,0,P|328:248|344:180,1,120
272,92,91653,2,0,P|211:101|148:124,1,120,8|0,0:0|0:0,0:0:0:0:
48,172,92541,2,0,L|72:44,2,120,0|0|8,0:0|0:0|0:0,0:0:0:0:
225,333,94319,6,0,P|257:317|281:305,2,60,4|0|8,0:0|0:0|0:0,0:0:0:0:
129,261,95208,2,0,P|101:249|75:233,2,60,0|0|8,0:0|0:0|0:0,0:0:0:0:
237,209,96097,1,0,0:0:0:0:
353,177,96541,1,8,0:0:0:0:
385,61,96986,2,0,P|417:51|449:41,2,60,0|0|8,0:0|0:0|0:0,0:0:0:0:
268,32,97875,5,0,0:0:0:0:
252,152,98319,1,8,0:0:0:0:
176,316,98986,2,0,L|116:328,1,60,0|8,0:0|0:0,0:0:0:0:
64,352,99430,2,0,P|84:304|24:196,1,180,0|8,0:0|0:0,0:0:0:0:
8,80,100541,1,0,0:0:0:0:
120,36,100986,1,8,0:0:0:0:
156,150,101430,6,0,L|167:215,2,60,0|2|8,0:0|0:0|0:0,0:0:0:0:
257,85,102319,2,0,L|268:20,2,60,0|2|8,0:0|0:0|0:0,0:0:0:0:
316,189,103208,1,0,0:0:0:0:
429,149,103653,1,8,0:0:0:0:
440,268,104097,2,0,L|510:253,2,60,0|2|8,0:0|0:0|0:0,0:0:0:0:
342,337,104986,5,0,0:0:0:0:
240,272,105430,1,8,0:0:0:0:
61,296,106097,2,0,L|72:234,1,60,0|8,0:0|0:0,0:0:0:0:
43,184,106541,2,0,P|78:199|194:137,1,180,0|8,0:0|0:0,0:0:0:0:
269,44,107653,1,0,0:0:0:0:
373,104,108097,1,8,0:3:0:0:
332,217,108541,6,0,L|268:229,2,60,4|0|8,0:0|0:0|0:0,0:0:0:0:
423,295,109430,2,0,L|481:306,2,60,0|0|8,0:0|0:0|0:0,0:0:0:0:
308,328,110319,1,0,0:0:0:0:
192,360,110764,1,8,0:0:0:0:
120,264,111208,2,0,P|88:252|56:236,2,60,0|0|8,0:0|0:0|0:0,0:0:0:0:
232,220,112097,5,0,0:0:0:0:
265,104,112541,1,8,0:0:0:0:
364,36,112986,2,0,L|375:94,1,60,0|2,0:0|0:2,0:0:0:0:
432,116,113430,2,0,L|443:174,1,60,8|2,0:0|0:2,0:0:0:0:
472,228,113875,2,0,P|436:220|352:260,1,120,0|8,0:0|0:0,0:0:0:0:
260,316,114764,1,0,0:0:0:0:
208,208,115208,1,8,0:0:0:0:
252,96,115653,6,0,L|192:80,2,60,4|0|8,0:0|0:0|0:0,0:0:0:0:
356,156,116541,2,0,L|413:140,2,60,0|0|8,0:0|0:0|0:0,0:0:0:0:
252,216,117430,1,0,0:0:0:0:
279,332,117875,1,8,0:0:0:0:
396,307,118319,2,0,L|415:372,2,60,0|0|8,0:0|0:0|0:0,0:0:0:0:
488,230,119208,1,0,0:0:0:0:
393,155,119653,5,8,0:0:0:0:
399,35,120097,2,0,L|331:23,1,60,0|2,0:0|0:2,0:0:0:0:
299,68,120541,2,0,L|231:56,1,60,8|2,0:0|0:2,0:0:0:0:
189,25,120986,2,0,P|201:77|215:157,1,120,0|8,0:0|0:0,0:0:0:0:
137,236,121875,1,0,0:0:0:0:
214,328,122319,1,8,0:0:0:0:
308,248,122764,6,0,L|300:184,2,60,4|0|8,0:0|0:0|0:0,0:0:0:0:
416,300,123653,2,0,L|408:364,2,60,0|0|8,0:0|0:0|0:0,0:0:0:0:
488,204,124541,1,0,0:0:0:0:
400,121,124986,1,8,0:0:0:0:
300,188,125430,2,0,L|308:248,2,60,0|0|8,0:0|0:0|0:0,0:0:0:0:
239,84,126319,5,0,0:0:0:0:
127,40,126764,1,8,0:0:0:0:
40,124,127208,2,0,L|52:192,1,60,0|2,0:0|0:2,0:0:0:0:
108,200,127653,2,0,L|120:268,1,60,8|2,0:0|0:2,0:0:0:0:
85,309,128097,2,0,B|164:336|164:336|212:320,1,120,0|8,0:0|0:0,0:0:0:0:
276,232,128986,1,0,0:0:0:0:
365,312,129430,1,8,0:0:0:0:
425,208,129875,6,0,L|484:228,2,60,4|0|8,0:0|0:0|0:0,0:0:0:0:
336,128,130764,2,0,L|352:56,2,60,0|0|8,0:0|0:0|0:0,0:0:0:0:
276,232,131653,1,0,0:0:0:0:
180,160,132097,1,8,0:0:0:0:
87,237,132542,2,0,L|23:213,2,60,0|0|8,0:0|0:0|0:0,0:0:0:0:
138,345,133430,5,0,0:0:0:0:
257,360,133875,1,8,0:0:0:0:
325,261,134319,1,0,0:0:0:0:
444,280,134764,1,8,0:0:0:0:
444,280,134986,2,0,P|460:196|496:100,1,180,2|8,0:0|0:0,0:0:0:0:
396,36,136097,2,0,P|352:80|284:76,1,120,2|8,0:0|0:0,0:0:0:0:
184,40,136986,5,4,0:0:0:0:
124,144,137430,1,8,0:0:0:0:
80,256,137875,6,0,L|140:244,1,60,0|2,0:0|0:2,0:0:0:0:
180,288,138319,2,0,L|240:276,1,60,8|2,0:0|0:2,0:0:0:0:
292,304,138764,2,0,P|288:264|328:196,1,120,0|8,0:0|0:0,0:0:0:0:
376,88,139653,2,0,L|248:100,1,120,0|8,0:0|0:0,0:0:0:0:
148,47,140542,6,0,P|140:76|132:117,1,60,0|2,0:0|0:2,0:0:0:0:
166,156,140986,2,0,L|41:186,1,120,8|0,0:0|0:0,0:0:0:0:
15,299,141875,2,0,L|131:270,1,120,8|0,0:0|0:0,0:0:0:0:
240,322,142764,1,8,0:0:0:0:
240,322,142986,2,0,P|289:331|389:257,1,180,2|8,0:2|0:0,0:0:0:0:
364,141,144097,5,4,0:0:0:0:
250,179,144542,1,8,0:0:0:0:
232,60,144986,2,0,L|172:52,1,60,0|2,0:0|0:2,0:0:0:0:
138,101,145430,2,0,L|78:93,1,60,8|2,0:0|0:2,0:0:0:0:
22,69,145875,2,0,P|57:117|68:185,1,120,0|8,0:0|0:0,0:0:0:0:
26,288,146764,2,0,L|147:315,1,120,0|8,0:0|0:0,0:0:0:0:
245,250,147653,6,0,L|316:233,1,60,0|2,0:0|0:2,0:0:0:0:
359,255,148097,2,0,P|374:207|397:137,1,120,8|0,0:0|0:0,0:0:0:0:
405,21,148986,2,0,P|358:61|294:54,1,120,8|0,0:0|0:0,0:0:0:0:
184,36,149875,1,8,0:0:0:0:
184,36,150097,2,0,P|130:31|31:106,1,180,2|8,0:2|0:0,0:0:0:0:
29,221,151208,5,4,0:0:0:0:
129,287,151653,1,8,0:0:0:0:
212,200,152097,2,0,L|271:190,1,60,0|2,0:0|0:2,0:0:0:0:
316,230,152542,2,0,L|375:220,1,60,8|2,0:0|0:2,0:0:0:0:
427,250,152986,2,0,P|423:200|460:138,1,120,0|8,0:0|0:0,0:0:0:0:
499,28,153875,2,0,L|375:48,1,120,0|8,0:0|0:0,0:0:0:0:
288,124,154764,6,0,L|224:108,1,60,2|0,0:2|0:0,0:0:0:0:
180,76,155208,2,0,P|196:120|212:200,1,120,8|0,0:0|0:0,0:0:0:0:
152,296,156097,1,8,0:0:0:0:
152,296,156319,2,0,P|184:332|316:336,1,180,2|8,0:2|0:0,0:0:0:0:
404,268,157430,1,0,0:0:0:0:
344,164,157875,1,8,0:0:0:0:
396,56,158319,6,0,L|276:40,1,120,4|8,0:0|0:0,0:0:0:0:
184,116,159208,1,0,0:0:0:0:
80,56,159653,1,8,0:0:0:0:
80,56,159875,2,0,P|60:132|40:236,1,180,0|8,0:0|0:0,0:0:0:0:
112,328,160986,1,0,0:0:0:0:
212,260,161430,2,0,L|276:248,1,60,8|0,0:0|0:0,0:0:0:0:
324,278,161875,6,0,L|356:150,1,120,0|8,0:0|0:0,0:0:0:0:
380,44,162764,2,0,P|328:80|256:76,1,120,0|8,0:0|0:0,0:0:0:0:
160,40,163653,1,0,0:0:0:0:
100,144,164097,1,8,0:0:0:0:
100,144,164319,2,0,P|88:204|180:264,1,180,2|8,0:2|0:0,0:0:0:0:
292,236,165430,6,0,L|264:352,1,120,6|2,0:0|0:0,0:0:0:0:
414,253,166542,2,0,P|400:196|370:141,1,120,2|2,0:0|0:0,0:0:0:0:
148,52,167875,1,0,0:0:0:0:
148,52,168097,2,0,L|116:184,1,120,2|2,0:0|0:0,0:0:0:0:
52,268,168986,6,0,P|88:236|220:228,1,180,2|2,0:0|0:0,0:0:0:0:
384,288,170319,2,0,L|348:104,1,180,2|2,0:0|0:0,0:0:0:0:
267,23,171431,2,0,P|237:71|230:147,1,120,2|2,0:0|0:0,0:0:0:0:
217,312,172542,6,0,L|77:336,1,120,6|2,0:0|0:0,0:0:0:0:
10,175,173653,2,0,L|128:195,1,120,2|2,0:0|0:0,0:0:0:0:
364,244,174986,1,2,0:0:0:0:
405,131,175431,1,2,0:0:0:0:
250,222,176097,1,4,0:0:0:0:
256,192,176319,12,0,178319,0:0:0:0:
