osu file format v14

[General]
AudioFilename: audio.mp3
AudioLeadIn: 0
PreviewTime: 16125
Countdown: 0
SampleSet: Soft
StackLeniency: 0.7
Mode: 0
LetterboxInBreaks: 0
WidescreenStoryboard: 1

[Editor]
Bookmarks: 16125,32244,62692,65379,77020,92468,105677,112841
DistanceSpacing: 1.2
BeatDivisor: 4
GridSize: 32
TimelineZoom: 1.2

[Metadata]
Title:Can't it be true
TitleUnicode:Can't it be true
Artist:Zris feat. Kri
ArtistUnicode:Zris feat. Kri
Creator:Hakurei Yoru
Version:Normal
Source:THE BMS OF FIGHTERS XVI -NEO DYSTOPIA-
Tags:Electronic English ProjectG BOFXVI BMS absurd crossbreed Callionet
BeatmapID:3912278
BeatmapSetID:1859815

[Difficulty]
HPDrainRate:4
CircleSize:3.3
OverallDifficulty:3
ApproachRate:5
SliderMultiplier:1
SliderTickRate:1

[Events]
//Background and Video events
0,0,"bg.jpg",0,0
Video,0,"0196 Can't_x264.mp4"
//Break Periods
//Storyboard Layer 0 (Background)
//Storyboard Layer 1 (Fail)
//Storyboard Layer 2 (Pass)
//Storyboard Layer 3 (Foreground)
//Storyboard Layer 4 (Overlay)
//Storyboard Sound Samples

[TimingPoints]
1797,447.761194029851,4,2,1,60,1,0
1797,-133.333333333333,4,2,1,60,0,0
16125,-76.9230769230769,4,2,0,80,0,1
30453,-100,4,2,0,60,0,0
62692,-76.9230769230769,4,2,0,80,0,1
77020,-100,4,2,0,60,0,0
112841,-76.9230769230769,4,2,0,80,0,1
131647,-76.9230769230769,4,2,0,80,0,0
133886,-76.9230769230769,4,2,1,5,0,0

[Colours]
Combo1 : 189,222,255
Combo2 : 102,179,255
Combo3 : 177,100,255

[HitObjects]
118,56,1797,6,0,L|284:35,1,150,4|0,2:2|2:2,0:0:0:0:
356,26,3140,1,2,2:2:0:0:
434,70,3588,2,0,P|452:137|425:183,2,112.500004291535,2|2|2,3:2|3:2|2:2,0:0:0:0:
401,38,5155,6,0,L|315:53,1,75.0000028610231,2|2,3:2|3:2,0:0:0:0:
259,111,6050,2,0,L|177:97,1,75.0000028610231,2|2,3:2|3:2,0:0:0:0:
96,82,6946,5,2,2:2:0:0:
96,82,7170,2,0,P|105:144|97:177,1,75,2|0,3:2|2:2,0:0:0:0:
53,230,8065,2,0,L|-10:224,2,56.2500021457673,2|2|2,2:2|0:2|2:2,0:0:0:0:
113,232,8961,6,0,P|111:291|97:356,2,112.500004291535,0|0|0,1:1|1:1|3:1,0:0:0:0:
164,158,10752,2,0,P|151:99|155:39,2,112.500004291535,0|0|0,1:1|1:1|3:2,0:0:0:0:
190,194,12319,6,0,L|270:186,1,75,0|2,1:1|1:2,0:0:0:0:
346,223,13214,2,0,L|426:231,1,75,2|2,1:2|1:2,0:0:0:0:
509,243,14110,1,2,1:2:0:0:
509,243,14334,1,4,0:1:0:0:
429,37,16125,6,0,P|372:54|275:39,1,129.999994049073,4|8,1:2|2:2,0:0:0:0:
151,125,17020,2,0,P|112:114|57:116,1,64.9999970245363,2|0,1:2|2:2,0:0:0:0:
11,149,17468,1,8,2:2:0:0:
41,315,17916,2,0,P|97:299|149:234,1,129.999994049073,0|8,1:1|2:2,0:0:0:0:
185,82,18811,2,0,P|227:127|313:141,1,129.999994049073,0|8,1:2|2:2,0:0:0:0:
364,99,19483,6,0,P|373:144|369:248,1,129.999994049073,2|2,1:0|1:0,0:0:0:0:
302,382,20379,2,0,P|237:384|173:373,1,129.999994049073,2|2,1:0|1:0,0:0:0:0:
12,322,21274,2,0,L|-2:247,1,64.9999970245363,2|0,1:0|1:1,0:0:0:0:
78,225,21722,2,0,L|92:150,1,64.9999970245363,2|8,2:2|2:2,0:0:0:0:
30,100,22170,1,2,2:2:0:0:
30,100,22394,2,0,P|85:108|179:74,1,129.999994049073,0|8,1:1|2:2,0:0:0:0:
258,225,23289,6,0,P|322:219|384:236,1,129.999994049073,4|8,1:2|2:2,0:0:0:0:
490,104,24184,2,0,P|451:115|396:113,1,64.9999970245363,2|0,1:2|2:2,0:0:0:0:
353,73,24632,1,8,2:2:0:0:
192,20,25080,2,0,P|240:61|259:122,1,129.999994049073,0|8,1:1|2:2,0:0:0:0:
214,286,25976,2,0,P|153:307|90:293,1,129.999994049073,0|8,1:1|2:2,0:0:0:0:
61,213,26647,6,0,L|43:57,1,129.999994049073,2|2,1:0|1:0,0:0:0:0:
214,62,27543,2,0,L|232:218,1,129.999994049073,2|2,1:0|1:0,0:0:0:0:
245,359,28438,1,2,1:0:0:0:
245,359,28662,2,0,L|293:301,1,64.9999970245363,0|8,1:1|1:2,0:0:0:0:
321,231,29110,2,0,L|372:279,1,64.9999970245363,8|2,1:2|1:2,0:0:0:0:
377,359,29558,2,0,L|406:165,1,194.999991073609,2|4,3:0|3:3,0:0:0:0:
420,86,30453,6,0,P|379:87|330:133,1,100,4|2,1:1|3:0,0:0:0:0:
347,252,31349,2,0,L|354:315,2,50,0|8|4,1:3|3:3|1:2,0:0:0:0:
254,342,32244,6,0,L|134:330,1,100,4|8,1:1|0:0,0:0:0:0:
124,205,33140,2,0,L|56:217,2,50,0|0|8,1:0|2:2|0:0,0:0:0:0:
91,78,34035,2,0,L|211:66,1,100,0|8,1:2|0:0,0:0:0:0:
320,54,34931,2,0,P|325:83|317:116,2,50,2|0|8,1:2|2:2|2:2,0:0:0:0:
402,154,35826,6,0,P|356:188|296:189,1,100,0|8,1:0|0:0,0:0:0:0:
198,251,36722,2,0,P|246:258|285:289,1,100,0|8,1:0|0:0,0:0:0:0:
166,341,37617,2,0,L|112:335,1,50,0|2,1:2|2:2,0:0:0:0:
72,287,38065,2,0,L|22:292,1,50,8|6,0:0|1:2,0:0:0:0:
70,171,38737,1,0,1:1:0:0:
70,171,38961,2,0,P|74:130|71:111,1,50,8|0,1:1|1:0,0:0:0:0:
54,59,39408,6,0,L|168:47,1,100,4|8,1:2|0:0,0:0:0:0:
283,35,40304,2,0,L|342:29,2,50,2|0|8,1:2|2:2|0:0,0:0:0:0:
397,97,41199,2,0,L|380:216,1,100,2|8,1:2|0:0,0:0:0:0:
432,316,42095,2,0,P|442:283|441:254,2,50,2|0|8,1:2|2:2|1:0,0:0:0:0:
308,356,42991,6,0,L|195:331,1,100,0|8,1:2|1:2,0:0:0:0:
154,368,43662,2,0,P|159:318|141:272,1,100,2|0,1:2|1:1,0:0:0:0:
82,244,44334,1,2,1:2:0:0:
19,129,44782,6,0,L|133:121,1,100,4|4,1:2|1:2,0:0:0:0:
179,69,45453,2,0,L|278:76,1,100,4|0,1:2|1:1,0:0:0:0:
358,83,46125,1,4,1:2:0:0:
487,98,46573,5,4,1:0:0:0:
489,292,47244,1,0,1:2:0:0:
489,292,47468,2,0,L|338:300,1,150,8|8,0:0|0:0,0:0:0:0:
219,352,48588,1,0,1:2:0:0:
219,352,48811,2,0,L|234:241,1,100,0|8,1:0|0:0,0:0:0:0:
264,60,49931,5,8,2:2:0:0:
144,66,50379,2,0,L|73:70,2,50,0|0|0,1:0|3:2|3:0,0:0:0:0:
168,120,51050,2,0,B|187:163|187:163|166:231,1,100,8|0,2:2|3:2,0:0:0:0:
127,336,51946,2,0,P|75:326|43:335,2,75,0|0|0,1:0|3:1|3:1,0:0:0:0:
196,375,52841,6,0,L|286:366,2,75,2|2|2,1:3|1:3|1:3,0:0:0:0:
260,278,53961,6,0,P|313:284|364:264,1,100,2|0,2:2|1:2,0:0:0:0:
382,215,54632,2,0,L|388:102,1,100,8|0,0:0|0:0,0:0:0:0:
392,55,55304,1,8,0:0:0:0:
277,19,55752,1,0,1:2:0:0:
277,19,55976,2,0,P|232:15|210:18,1,50,0|0,3:1|2:2,0:0:0:0:
175,44,56423,2,0,L|185:133,2,75,8|8|8,2:2|2:2|2:2,0:0:0:0:
116,30,57319,5,0,1:1:0:0:
67,139,57767,1,0,1:1:0:0:
136,236,58214,1,0,1:1:0:0:
255,242,58662,1,8,2:2:0:0:
334,152,59110,2,0,P|398:120|416:122,2,75,4|8|8,1:2|2:2|3:0,0:0:0:0:
329,211,60005,2,0,L|337:317,1,100,4|8,3:0|2:2,0:0:0:0:
254,14,61797,6,0,L|258:81,2,50,4|4|4,3:3|3:3|1:2,0:0:0:0:
211,164,62692,6,0,P|268:147|365:162,1,129.999994049073,4|8,1:2|2:2,0:0:0:0:
211,264,63587,2,0,P|172:253|117:255,1,64.9999970245363,2|0,1:2|2:2,0:0:0:0:
67,279,64035,1,8,2:2:0:0:
89,111,64483,2,0,P|130:62|191:43,1,129.999994049073,0|8,1:1|2:2,0:0:0:0:
356,4,65379,2,0,P|397:52|458:71,1,129.999994049073,0|8,1:2|2:2,0:0:0:0:
498,146,66050,6,0,L|474:285,1,129.999994049073,2|2,1:0|1:0,0:0:0:0:
309,307,66946,2,0,L|331:178,1,129.999994049073,2|2,1:0|1:0,0:0:0:0:
224,46,67841,2,0,L|160:57,1,64.9999970245363,2|0,1:0|1:1,0:0:0:0:
81,26,68289,2,0,L|67:101,1,64.9999970245363,2|8,2:2|2:2,0:0:0:0:
58,174,68737,1,2,2:2:0:0:
58,174,68961,2,0,P|113:166|207:200,1,129.999994049073,0|8,1:1|2:2,0:0:0:0:
312,294,69856,6,0,P|248:300|186:283,1,129.999994049073,4|8,1:2|2:2,0:0:0:0:
237,121,70751,2,0,P|276:110|331:112,1,64.9999970245363,2|0,1:2|2:2,0:0:0:0:
372,153,71199,1,8,2:2:0:0:
370,322,71647,2,0,P|322:281|303:220,1,129.999994049073,0|8,1:1|2:2,0:0:0:0:
371,63,72543,2,0,P|432:42|495:56,1,129.999994049073,0|8,1:1|2:2,0:0:0:0:
479,138,73214,6,0,L|457:280,1,129.999994049073,2|4,1:0|1:2,0:0:0:0:
326,371,74110,2,0,L|308:215,1,129.999994049073,4|4,1:2|1:2,0:0:0:0:
294,56,75005,1,0,1:0:0:0:
294,56,75229,2,0,P|258:54|223:32,1,64.9999970245363,4|8,1:2|1:2,0:0:0:0:
167,94,75677,2,0,P|150:61|152:21,1,64.9999970245363,12|2,1:2|1:2,0:0:0:0:
67,12,76125,2,0,P|66:88|51:158,1,129.999994049073,8|2,3:0|1:3,0:0:0:0:
7,261,77020,6,0,L|160:238,2,150,4|0|8,1:2|3:0|2:2,0:0:0:0:
187,335,79035,2,0,P|229:310|251:266,1,100,0|0,1:1|3:2,0:0:0:0:
199,147,79931,1,0,1:1:0:0:
199,147,80155,2,0,L|268:153,1,50,6|2,2:1|0:2,0:0:0:0:
313,154,80602,6,0,L|293:1,2,150,0|0|8,1:0|3:2|2:2,0:0:0:0:
345,346,82617,2,0,P|388:323|414:281,1,100,0|0,1:1|3:1,0:0:0:0:
425,216,83289,2,0,L|308:235,1,100,0|2,1:2|2:2,0:0:0:0:
281,279,83961,1,2,2:2:0:0:
281,279,84185,6,0,P|190:289|142:250,2,150,0|0|8,1:2|3:2|2:2,0:0:0:0:
261,85,86199,2,0,P|283:41|325:15,1,100,0|0,1:0|1:1,0:0:0:0:
385,42,86871,1,0,1:2:0:0:
385,42,87095,2,0,P|425:44|456:37,2,50,2|2|4,1:3|1:3|1:3,0:0:0:0:
356,100,87767,6,0,P|364:191|357:251,2,150,4|0|8,1:2|3:2|2:2,0:0:0:0:
110,309,91349,5,6,3:2:0:0:
94,179,91797,2,0,P|91:130|101:109,1,50,8|2,0:0|3:2,0:0:0:0:
177,32,92468,2,0,L|278:27,1,100,8|2,0:0|3:2,0:0:0:0:
406,16,93364,1,2,3:2:0:0:
406,16,93588,2,0,P|400:71|374:118,1,100,10|0,2:2|0:0,0:0:0:0:
319,134,94259,2,0,P|323:183|344:228,1,100,2|2,3:0|3:0,0:0:0:0:
448,307,95155,5,2,3:2:0:0:
448,307,95379,2,0,P|407:279|357:278,2,100,8|0|0,0:0|3:2|3:2,0:0:0:0:
328,357,96722,2,0,L|211:346,1,100,0|8,3:0|0:0,0:0:0:0:
119,277,97617,6,0,L|29:286,2,75,6|4|4,3:2|3:2|3:2,0:0:0:0:
168,234,98513,6,0,P|220:247|280:223,1,100,4|8,2:1|3:3,0:0:0:0:
341,130,99408,2,0,P|293:142|245:129,1,100,0|4,1:1|3:0,0:0:0:0:
157,33,100304,2,0,P|205:37|234:16,2,75,8|8|8,3:0|3:0|3:0,0:0:0:0:
98,5,101199,2,0,L|117:123,1,100,0|8,2:2|3:0,0:0:0:0:
136,232,102095,5,0,1:1:0:0:
223,328,102543,1,0,1:1:0:0:
349,299,102990,1,4,3:0:0:0:
398,178,103438,1,8,3:0:0:0:
359,53,103886,2,0,P|295:21|277:23,2,75,4|8|8,3:0|3:0|3:0,0:0:0:0:
392,108,104781,2,0,L|400:214,1,100,8|8,3:0|3:0,0:0:0:0:
156,363,107692,6,0,B|195:312|195:312|250:360,1,125,4|4,1:2|1:2,0:0:0:0:
485,109,111050,2,0,P|456:117|416:111,1,50,4|2,1:2|1:2,0:0:0:0:
381,80,111498,2,0,P|373:51|379:11,1,50,4|2,1:2|1:2,0:0:0:0:
330,80,111946,2,0,P|275:91|226:79,1,100,8|4,3:0|1:2,0:0:0:0:
91,174,112841,6,0,P|155:168|217:185,1,129.999994049073,4|8,1:0|2:2,0:0:0:0:
322,318,113736,2,0,P|354:315|385:305,1,64.9999970245363,0|2,1:1|2:2,0:0:0:0:
442,242,114184,1,10,2:2:0:0:
454,73,114632,2,0,L|309:59,1,129.999994049073,0|8,1:1|2:2,0:0:0:0:
221,194,115528,2,0,P|169:172|91:181,1,129.999994049073,0|8,1:2|2:2,0:0:0:0:
51,250,116199,6,0,L|73:378,1,129.999994049073,2|2,1:0|2:1,0:0:0:0:
240,350,117095,2,0,L|218:221,1,129.999994049073,2|2,1:0|2:1,0:0:0:0:
201,53,117990,2,0,L|265:64,1,64.9999970245363,2|4,1:0|1:2,0:0:0:0:
305,138,118438,2,0,L|368:126,1,64.9999970245363,2|12,2:2|1:2,0:0:0:0:
452,109,118886,1,2,2:2:0:0:
452,109,119110,2,0,P|443:170|448:253,1,129.999994049073,4|8,1:2|1:1,0:0:0:0:
323,354,120005,6,0,P|277:341|238:346,2,64.9999970245363,4|2|8,1:2|2:2|2:2,0:0:0:0:
203,233,120901,2,0,P|249:220|288:225,2,64.9999970245363,0|2|8,1:1|2:2|2:2,0:0:0:0:
45,295,121797,2,0,P|29:236|56:170,1,129.999994049073,2|8,1:2|2:2,0:0:0:0:
155,39,122692,2,0,P|171:98|144:164,1,129.999994049073,2|8,1:2|2:2,0:0:0:0:
287,64,123588,6,0,P|333:52|358:51,2,64.9999970245363,0|2|8,1:1|2:2|2:2,0:0:0:0:
406,183,124483,2,0,P|360:171|335:170,2,64.9999970245363,0|2|8,1:1|2:2|2:2,0:0:0:0:
496,326,125379,2,0,P|480:271|518:205,1,129.999994049073,0|8,1:1|2:2,0:0:0:0:
365,293,126274,2,0,L|279:306,1,64.9999970245363,0|2,1:1|2:2,0:0:0:0:
244,366,126722,1,8,2:2:0:0:
83,313,127170,6,0,P|73:278|82:229,2,64.9999970245363,4|2|8,1:2|2:2|2:2,0:0:0:0:
209,201,128065,2,0,P|210:233|200:264,2,64.9999970245363,0|2|8,1:1|2:2|2:2,0:0:0:0:
146,43,128961,2,0,L|288:29,1,129.999994049073,0|8,1:1|2:2,0:0:0:0:
401,142,129856,2,0,L|259:128,1,129.999994049073,0|8,1:1|2:2,0:0:0:0:
253,297,130752,6,0,L|262:216,2,64.9999970245363,4|0|8,1:2|1:2|1:2,0:0:0:0:
238,128,131647,2,0,L|229:45,1,64.9999970245363,4|0,1:2|1:1,0:0:0:0:
315,67,132095,2,0,L|322:2,1,64.9999970245363,12|12,1:2|1:2,0:0:0:0:
256,192,132543,12,0,133886,2:2:0:0:
