osu file format v14

[General]
AudioFilename: audio.mp3
AudioLeadIn: 0
PreviewTime: 197893
Countdown: 1
SampleSet: None
StackLeniency: 0.3
Mode: 0
LetterboxInBreaks: 0
WidescreenStoryboard: 1

[Editor]
Bookmarks: 4341,106858
DistanceSpacing: 1
BeatDivisor: 4
GridSize: 4
TimelineZoom: 3

[Metadata]
Title:Invaders
TitleUnicode:Invaders
Artist:Zomboy
ArtistUnicode:Zomboy
Creator:terratropic
Version:Normal
Source:
Tags:dubstep nsd black label xxl
BeatmapID:1557852
BeatmapSetID:732193

[Difficulty]
HPDrainRate:4
CircleSize:3
OverallDifficulty:4
ApproachRate:5
SliderMultiplier:1.2
SliderTickRate:1

[Events]
//Background and Video events
0,0,"black.jpg",0,0
//Break Periods
2,40029,51870
2,137684,144146
2,172442,184284
//Storyboard Layer 0 (Background)
//Storyboard Layer 1 (Fail)
//Storyboard Layer 2 (Pass)
//Storyboard Layer 3 (Foreground)
//Storyboard Sound Samples

[TimingPoints]
105,413.793103448276,4,2,1,70,1,0
105,-200,4,2,1,70,0,0
518,-200,4,2,1,50,0,0
3208,-200,4,2,1,10,0,0
3415,-200,4,2,1,50,0,0
6518,-200,4,2,1,10,0,0
6725,-200,4,2,1,50,0,0
16449,-200,4,2,1,10,0,0
16656,-200,4,2,1,50,0,0
19760,-200,4,2,1,10,0,0
19967,-200,4,2,1,50,0,0
23070,-200,4,2,1,10,0,0
23277,-200,4,2,1,50,0,0
26380,-100,4,2,1,10,0,0
26587,-100,4,2,1,70,0,0
53070,-100,4,2,1,70,0,0
59691,-100,4,2,1,80,0,0
61346,-100,4,2,1,80,0,0
63001,-100,4,2,1,80,0,0
65484,-100,4,2,1,50,0,0
66311,-100,4,2,1,90,0,1
77898,-100,4,2,1,70,0,0
79553,-100,4,2,1,80,0,0
81208,-100,4,2,1,90,0,1
91139,-100,4,2,1,70,0,0
102725,-100,4,2,1,80,0,0
105622,-100,4,2,1,70,0,0
106036,-100,4,2,1,80,0,0
108518,-100,4,2,2,80,0,0
108932,-100,4,2,1,80,0,0
109346,-100,4,2,1,90,0,0
109760,-100,4,2,1,90,0,1
110173,-100,4,2,1,90,0,0
111415,-100,4,2,1,90,0,1
112242,-100,4,2,1,90,0,0
119898,-100,4,2,1,90,0,1
122380,-100,4,2,1,90,0,0
123001,-100,4,2,1,90,0,1
125070,-100,4,2,1,90,0,0
130863,-100,4,2,1,70,0,0
132932,-100,4,2,1,50,0,0
145346,-200,4,2,1,70,0,0
146173,-200,4,2,1,50,0,0
148863,-200,4,2,1,10,0,0
149070,-200,4,2,1,50,0,0
152173,-200,4,2,1,10,0,0
152380,-200,4,2,1,50,0,0
155484,-200,4,2,1,10,0,0
155691,-200,4,2,1,50,0,0
158794,-200,4,2,1,10,0,0
159001,-100,4,2,1,70,0,0
185484,-100,4,2,1,70,0,0
192105,-100,4,2,1,80,0,0
193760,-100,4,2,1,80,0,0
195415,-100,4,2,1,80,0,0
197898,-100,4,2,1,50,0,0
198725,-100,4,2,1,90,0,1
210311,-100,4,2,1,70,0,0
211967,-100,4,2,1,80,0,0
213622,-100,4,2,1,90,0,1
223553,-100,4,2,1,70,0,0
225208,-100,4,2,1,80,0,0
227691,-100,4,2,2,80,0,0
228105,-100,4,2,1,80,0,0
228518,-100,4,2,1,90,0,0
228932,-100,4,2,1,90,0,1
229346,-100,4,2,1,90,0,0
230587,-100,4,2,1,90,0,1
231415,-100,4,2,1,90,0,0
239070,-100,4,2,1,90,0,1
241553,-100,4,2,1,90,0,0
242173,-100,4,2,1,90,0,1
244242,-100,4,2,1,90,0,0
250036,-100,4,2,1,70,0,0
253346,-100,4,2,1,50,0,0
265760,-100,4,2,1,40,0,0
266587,-100,4,2,1,30,0,0
267415,-100,4,2,1,20,0,0
268242,-100,4,2,1,10,0,0
269898,-100,4,2,1,5,0,0

[Colours]
Combo1 : 0,128,255
Combo2 : 79,255,255
Combo3 : 37,7,248
Combo4 : 163,163,163
Combo5 : 252,196,3
Combo6 : 255,149,255
Combo7 : 255,0,255

[HitObjects]
0,156,105,6,0,B|24:104|76:112|76:112|104:152|176:156|212:144|212:144|192:192|192:192|184:240|184:240|132:224|112:232|72:248,1,450
64,268,3415,2,0,B|168:224|172:320|296:272|296:272|368:264|368:264|416:220|416:220|496:208,1,450
496,180,6725,2,0,B|448:192|416:180|388:156|376:104|396:64|396:64|364:84|312:84|280:52|280:52|224:32|224:32|140:80|140:80|216:112|216:112|248:172|248:172|200:192|200:192|72:140|72:140|56:88|16:72,1,900
25,76,13346,6,0,B|42:144|11:192|11:192|22:257|22:257|70:228|110:248|110:248|154:212|238:228|254:292,1,450
280,276,16656,2,0,P|436:244|272:184,1,450
244,180,19967,6,0,B|160:196|160:196|84:172|84:172|28:180|28:180|16:104|16:104|88:88|88:88|164:112,1,450
180,88,23277,2,0,B|228:112|300:104|344:56|344:56|388:104|388:104|456:120|456:120|432:156|432:216|456:256,1,450
404,288,26587,6,0,P|388:220|280:192,1,180,4|4,0:0|0:0,0:0:0:0:
240,220,27415,2,0,B|184:232|184:232|112:220,1,120
72,192,28036,1,0,0:0:0:0:
72,192,28242,6,0,P|64:136|0:92,1,120,4|0,0:0|0:0,0:0:0:0:
60,52,28863,2,0,P|120:64|192:40,1,120,4|0,0:0|0:0,0:0:0:0:
232,32,29484,1,0,0:0:0:0:
332,96,29898,6,0,B|396:92|396:92|444:108|444:108|516:104,1,180,4|4,0:0|0:0,0:0:0:0:
456,136,30725,2,0,P|416:192|428:256,1,120
376,284,31346,1,0,0:0:0:0:
376,284,31553,6,0,P|304:304|240:280,1,120,4|0,0:0|0:0,0:0:0:0:
208,264,32173,2,0,B|148:252|148:252|72:268,1,120,4|0,0:0|0:0,0:0:0:0:
32,244,32794,1,0,0:0:0:0:
0,120,33208,6,0,P|92:140|164:72,1,180,4|4,0:0|0:0,0:0:0:0:
212,64,34036,2,0,P|256:68|316:136,1,120
360,148,34656,1,0,0:0:0:0:
360,148,34863,6,0,L|368:284,1,120,4|0,0:0|0:0,0:0:0:0:
344,324,35484,2,0,P|384:292|460:296,1,120,4|0,0:0|0:0,0:0:0:0:
500,260,36105,1,0,0:0:0:0:
456,148,36518,6,0,P|448:80|340:36,1,180,4|4,0:0|0:0,0:0:0:0:
304,64,37346,2,0,B|248:80|248:80|180:68,1,120
132,40,37967,1,0,0:0:0:0:
132,40,38173,6,0,P|68:40|16:96,1,120,4|0,0:0|0:0,0:0:0:0:
4,128,38794,2,0,L|8:268,1,120,4|0,0:0|0:0,0:0:0:0:
48,292,39415,1,0,0:0:0:0:
160,244,39829,5,4,0:0:0:0:
404,100,53070,6,0,P|340:104|284:72,1,120
180,32,53898,2,0,P|132:80|56:100,1,120
4,188,54725,1,0,0:0:0:0:
120,216,55139,1,0,0:0:0:0:
192,312,55553,1,0,0:0:0:0:
308,280,55967,1,0,0:0:0:0:
372,180,56380,6,0,B|372:136|372:136|360:96|360:96|360:52,1,120
244,28,57208,2,0,P|224:76|144:116,1,120
48,128,58036,1,0,0:0:0:0:
8,240,58449,1,0,0:0:0:0:
92,328,58863,1,0,0:0:0:0:
204,288,59277,1,0,0:0:0:0:
264,184,59691,6,0,L|260:116,1,60,2|2,0:0|0:0,0:0:0:0:
292,72,60105,2,0,P|324:80|368:80,1,60,8|2,0:0|0:0,0:0:0:0:
404,108,60518,2,0,P|388:140|380:188,1,60,2|2,0:0|0:0,0:0:0:0:
428,204,60932,2,0,P|440:244|464:280,1,60,8|2,0:0|0:0,0:0:0:0:
432,316,61346,6,0,L|360:320,1,60,2|2,0:0|0:0,0:0:0:0:
324,352,61760,2,0,L|252:348,1,60,8|2,0:0|0:0,0:0:0:0:
212,324,62173,2,0,L|140:328,1,60,2|2,0:0|0:0,0:0:0:0:
104,364,62587,2,0,L|32:360,1,60,8|2,0:0|0:0,0:0:0:0:
0,320,63001,5,8,0:0:0:0:
256,192,63105,12,4,65484,0:0:0:0:
48,92,66311,6,0,P|112:108|172:88,1,120,2|0,0:0|0:0,0:0:0:0:
276,132,67139,1,8,0:0:0:0:
352,40,67553,1,0,0:0:0:0:
412,56,67760,1,0,0:0:0:0:
448,104,67967,6,0,L|456:180,1,60,2|0,0:0|0:0,0:0:0:0:
500,200,68380,2,0,L|496:276,1,60
460,308,68794,2,0,P|396:300|332:348,1,120,8|0,0:0|0:0,0:0:0:0:
300,360,69415,1,0,0:0:0:0:
300,360,69622,6,0,L|168:352,1,120,2|0,0:0|0:0,0:0:0:0:
72,300,70449,2,0,P|104:280|124:248,1,60,8|0,0:0|0:0,0:0:0:0:
160,220,70863,2,0,P|120:212|92:192,1,60
48,184,71277,5,2,0:0:0:0:
56,124,71484,1,0,0:0:0:0:
20,76,71691,2,0,B|80:56|76:96|156:68,1,120,0|8,0:0|0:0,0:0:0:0:
248,28,72518,2,0,L|324:32,1,60,2|2,0:0|0:0,0:0:0:0:
356,64,72932,6,0,L|480:56,1,120,2|0,0:0|0:0,0:0:0:0:
492,116,73553,1,0,0:0:0:0:
460,164,73760,2,0,P|476:196|504:220,1,60,8|0,0:0|0:0,0:0:0:0:
488,272,74173,2,0,P|428:272|364:312,1,120,0|2,0:0|0:0,0:0:0:0:
324,328,74794,6,0,L|252:324,2,60
376,299,75415,2,0,P|344:272|328:243,1,60,8|0,0:0|0:0,0:0:0:0:
280,232,75829,2,0,P|272:200|276:152,1,60
224,136,76242,6,0,B|180:136|180:136|144:144|144:144|80:144,1,120,2|0,0:0|0:0,0:0:0:0:
48,124,76863,1,0,0:0:0:0:
8,168,77070,2,0,L|24:240,1,60,8|0,0:0|0:0,0:0:0:0:
76,252,77484,2,0,L|64:332,1,60
32,360,77898,5,2,0:0:0:0:
256,192,78001,12,2,79553,0:0:0:0:
216,120,80794,6,0,L|296:112,1,60,2|8,0:0|0:0,0:0:0:0:
328,140,81208,6,0,P|312:168|308:216,1,60,2|0,0:0|0:0,0:0:0:0:
352,236,81622,2,0,P|384:240|432:256,1,60
456,208,82036,2,0,P|460:144|512:100,1,120,8|0,0:0|0:0,0:0:0:0:
456,60,82656,1,0,0:0:0:0:
456,60,82863,6,0,B|412:64|412:64|372:56|372:56|320:56,1,120,2|0,0:0|0:0,0:0:0:0:
220,24,83691,2,0,L|140:44,1,60,8|0,0:0|0:0,0:0:0:0:
104,28,84105,2,0,L|40:72,1,60
12,104,84518,5,2,0:0:0:0:
40,156,84725,1,0,0:0:0:0:
20,212,84932,2,0,P|44:280|28:348,1,120,0|8,0:0|0:0,0:0:0:0:
152,364,85760,2,0,P|176:344|212:328,1,60,8|2,0:0|0:0,0:0:0:0:
252,300,86173,6,0,P|196:264|180:200,1,120,2|0,0:0|0:0,0:0:0:0:
224,176,86794,1,0,0:0:0:0:
248,120,87001,2,0,L|384:112,1,120,8|0,0:0|0:0,0:0:0:0:
424,136,87622,1,0,0:0:0:0:
480,156,87829,6,0,P|436:196|424:264,1,120,2|0,0:0|0:0,0:0:0:0:
456,304,88449,1,0,0:0:0:0:
428,356,88656,2,0,P|397:350|356:352,1,60,8|0,0:0|0:0,0:0:0:0:
320,316,89070,2,0,P|288:324|244:344,1,60
208,360,89484,6,0,B|144:368|144:340|72:352,1,120,2|0,0:0|0:0,0:0:0:0:
32,328,90105,1,0,0:0:0:0:
0,276,90311,2,0,L|0:208,2,60,8|0|0,0:0|0:0|0:0,0:0:0:0:
56,252,90932,1,0,0:0:0:0:
96,208,91139,5,2,0:0:0:0:
256,192,91242,12,2,92794,0:0:0:0:
320,96,94036,5,0,0:0:0:0:
208,132,94449,2,0,P|148:132|96:100,1,120,4|0,0:0|0:0,0:0:0:0:
40,88,95070,2,0,P|64:152|36:216,1,120,4|0,0:0|0:0,0:0:0:0:
12,248,95691,1,0,0:0:0:0:
116,308,96105,6,0,B|176:304|176:304|224:320|224:320|304:320,1,180,4|4,0:0|0:0,0:0:0:0:
344,284,96932,2,0,P|388:284|456:340,1,120
496,292,97553,1,0,0:0:0:0:
496,292,97760,6,0,P|472:224|480:160,1,120,4|0,0:0|0:0,0:0:0:0:
504,124,98380,2,0,B|444:104|444:104|392:48,1,120,4|0,0:0|0:0,0:0:0:0:
344,72,99001,1,0,0:0:0:0:
240,136,99415,6,0,P|248:200|204:256,1,120,4|4,0:0|0:0,0:0:0:0:
248,300,100036,1,0,0:0:0:0:
232,356,100242,6,0,B|188:360|188:360|152:352|152:352|92:356,1,120,4|4,0:0|0:0,0:0:0:0:
68,312,100863,1,0,0:0:0:0:
12,288,101070,6,0,P|24:224|0:168,1,120,4|4,0:0|0:0,0:0:0:0:
36,124,101691,1,0,0:0:0:0:
60,68,101898,6,0,P|128:84|156:24,1,120,4|4,0:0|0:0,0:0:0:0:
208,80,102518,1,0,0:0:0:0:
264,60,102725,5,4,0:0:0:0:
256,192,102829,12,0,104380,0:0:0:0:
336,272,105622,5,0,0:0:0:0:
224,236,106036,2,0,L|96:240,1,120,2|0,0:0|0:0,0:0:0:0:
12,164,106863,2,0,P|76:148|112:84,1,120
160,80,107484,1,0,0:0:0:0:
160,80,107691,6,0,B|216:60|216:96|296:80,1,120
328,52,108311,1,0,0:0:0:0:
388,48,108518,2,0,P|408:104|484:136,1,120,8|8,0:0|0:0,0:0:0:0:
496,180,109139,1,2,0:0:0:0:
496,180,109346,6,0,L|352:192,1,120,2|0,0:0|0:0,0:0:0:0:
324,224,109967,1,0,0:0:0:0:
276,256,110173,2,0,L|132:248,1,120,8|0,0:0|0:0,0:0:0:0:
108,216,110794,1,0,0:0:0:0:
108,216,111001,6,0,P|44:188|20:120,1,120,2|0,0:0|0:0,0:0:0:0:
8,88,111622,1,0,0:0:0:0:
48,40,111829,2,0,L|124:36,1,60,8|0,0:0|0:0,0:0:0:0:
160,68,112242,2,0,L|224:72,1,60,2|2,0:0|0:0,0:0:0:0:
272,40,112656,6,0,L|400:32,1,120,2|0,0:0|0:0,0:0:0:0:
496,92,113484,2,0,P|464:128|444:200,1,120,8|0,0:0|0:0,0:0:0:0:
476,248,114105,1,0,0:0:0:0:
476,248,114311,6,0,L|468:320,1,60,2|0,0:0|0:0,0:0:0:0:
420,340,114725,2,0,P|396:310|360:296,1,60
328,268,115139,2,0,P|296:276|244:280,1,60,8|0,0:0|0:0,0:0:0:0:
224,320,115553,2,0,P|188:312|148:312,1,60
116,276,115967,6,0,P|92:232|8:200,1,120,2|0,0:0|0:0,0:0:0:0:
104,104,116794,2,0,B|160:100|160:100|208:124|208:124|304:116,1,180,8|0,0:0|0:0,0:0:0:0:
324,80,117622,2,0,P|380:92|452:72,2,120,2|0|8,0:0|0:0|0:0,0:0:0:0:
272,108,118656,1,0,0:0:0:0:
240,160,118863,2,0,P|200:168|160:188,1,60,8|0,0:0|0:0,0:0:0:0:
140,216,119277,6,0,P|76:220|16:180,1,120,2|0,0:0|0:0,0:0:0:0:
16,136,119898,1,0,0:0:0:0:
52,88,120105,2,0,L|128:84,1,60,8|0,0:0|0:0,0:0:0:0:
156,44,120518,2,0,L|232:48,1,60
260,88,120932,6,0,L|396:92,1,120,2|0,0:0|0:0,0:0:0:0:
436,76,121553,1,0,0:0:0:0:
484,40,121760,2,0,P|444:28|416:8,2,60,8|0|0,0:0|0:0|0:0,0:0:0:0:
488,100,122380,1,0,0:0:0:0:
468,156,122587,6,0,P|492:204|484:280,1,120,2|0,0:0|0:0,0:0:0:0:
436,300,123208,1,0,0:0:0:0:
380,328,123415,2,0,L|304:328,1,60,8|0,0:0|0:0,0:0:0:0:
272,292,123829,2,0,P|292:264|300:228,1,60
344,200,124242,6,0,P|264:200|224:168,1,120,2|0,0:0|0:0,0:0:0:0:
184,212,124863,1,0,0:0:0:0:
124,200,125070,2,0,B|64:212|64:212|-8:196,1,120,8|0,0:0|0:0,0:0:0:0:
64,92,125898,6,0,P|132:72|160:20,1,120,2|0,0:0|0:0,0:0:0:0:
216,20,126518,1,0,0:0:0:0:
264,56,126725,2,0,L|392:52,1,120,8|0,0:0|0:0,0:0:0:0:
480,124,127553,6,0,P|424:136|376:192,2,120,2|0|8,0:0|0:0|0:0,0:0:0:0:
440,80,128587,1,0,0:0:0:0:
383,52,128794,2,0,P|360:64|315:68,1,60
276,104,129208,6,0,B|236:104|236:104|192:116|192:116|144:116,1,120,2|0,0:0|0:0,0:0:0:0:
40,96,130036,2,0,P|72:140|40:256,1,180,8|0,0:0|0:0,0:0:0:0:
20,308,130863,5,2,0:0:0:0:
256,192,130967,12,0,132518,0:0:0:0:
256,192,132932,12,0,137484,0:0:0:0:
400,288,145346,5,0,0:0:0:0:
400,288,145760,2,0,B|348:296|348:296|296:288|296:288|252:296|204:296|176:264|176:264|188:312|152:356|88:360|48:312|68:256,1,450
84,236,149070,2,0,B|92:176|92:176|68:132|68:132|80:64|80:64|124:64|124:64|176:160|176:160|240:176|240:176|232:148|240:120,1,450
240,96,152380,6,0,B|336:132|336:56|444:108|444:108|500:100|500:100|512:184|512:184|452:192|452:192|412:208,1,450
404,232,155691,2,0,B|392:300|320:316|272:280|272:280|220:240|152:248|132:316|132:316|65:330|65:330|68:308|56:284,1,450
12,256,159001,6,0,B|28:204|28:204|16:140|16:140|20:60,1,180,4|4,0:0|0:0,0:0:0:0:
68,44,159829,2,0,P|96:104|148:128,1,120
196,104,160449,1,0,0:0:0:0:
196,104,160656,6,0,B|252:120|248:88|336:112,1,120,4|0,0:0|0:0,0:0:0:0:
364,72,161277,2,0,P|416:56|488:72,1,120,4|0,0:0|0:0,0:0:0:0:
500,124,161898,1,0,0:0:0:0:
428,220,162311,6,0,P|380:272|336:200,1,180,4|4,0:0|0:0,0:0:0:0:
296,156,163139,2,0,P|248:176|168:168,1,120
132,136,163760,1,0,0:0:0:0:
132,136,163967,6,0,B|84:136|84:136|56:144|56:144|-4:144,1,120,4|0,0:0|0:0,0:0:0:0:
8,204,164587,2,0,P|48:244|32:312,1,120,4|0,0:0|0:0,0:0:0:0:
88,340,165208,1,0,0:0:0:0:
196,284,165622,6,0,B|252:280|252:280|304:300|304:300|384:292,1,180,4|4,0:0|0:0,0:0:0:0:
416,332,166449,2,0,P|472:312|504:256,1,120
504,204,167070,1,0,0:0:0:0:
504,204,167277,6,0,P|480:128|504:72,1,120,4|0,0:0|0:0,0:0:0:0:
440,60,167898,2,0,L|312:64,1,120,4|0,0:0|0:0,0:0:0:0:
264,44,168518,1,0,0:0:0:0:
168,116,168932,6,0,B|120:144|76:128|76:128|56:176|8:192,1,180,4|4,0:0|0:0,0:0:0:0:
4,248,169760,2,0,P|64:256|120:308,1,120
164,320,170380,1,0,0:0:0:0:
164,320,170587,6,0,B|216:336|216:304|296:320,1,120,4|0,0:0|0:0,0:0:0:0:
332,284,171208,2,0,P|288:244|280:180,1,120,4|0,0:0|0:0,0:0:0:0:
312,136,171829,1,0,0:0:0:0:
428,168,172242,5,4,0:0:0:0:
268,80,185484,6,0,B|176:44|176:108|72:72,1,180,4|0,0:0|0:0,0:0:0:0:
44,112,186311,2,0,P|104:160|104:216,1,120
84,252,186932,1,0,0:0:0:0:
120,300,187139,6,0,L|248:292,1,120,4|0,0:0|0:0,0:0:0:0:
296,312,187760,1,0,0:0:0:0:
352,336,187967,2,0,L|416:332,2,60,0|4|0,0:0|0:0|0:0,0:0:0:0:
400,224,188794,6,0,P|468:200|480:88,1,180,4|0,0:0|0:0,0:0:0:0:
428,88,189622,2,0,B|368:100|368:100|292:80,1,120
264,48,190242,1,0,0:0:0:0:
204,44,190449,6,0,L|76:56,1,120,4|0,0:0|0:0,0:0:0:0:
52,104,191070,1,0,0:0:0:0:
8,144,191277,2,0,P|24:172|32:208,1,60,0|4,0:0|0:0,0:0:0:0:
76,240,191691,2,0,P|76:272|64:312,1,60
96,352,192105,6,0,L|184:344,1,60,4|4,0:0|0:0,0:0:0:0:
208,316,192518,2,0,L|280:320,1,60,0|4,0:0|0:0,0:0:0:0:
308,364,192932,2,0,L|396:356,1,60,4|4,0:0|0:0,0:0:0:0:
420,328,193346,2,0,L|492:332,1,60,0|4,0:0|0:0,0:0:0:0:
508,280,193760,6,0,P|480:252|468:228,1,60,4|4,0:0|0:0,0:0:0:0:
492,180,194173,2,0,P|484:148|488:104,1,60,0|4,0:0|0:0,0:0:0:0:
448,72,194587,2,0,P|416:96|384:104,1,60,4|0,0:0|0:0,0:0:0:0:
344,76,195001,2,0,P|312:76|268:60,1,60,4|4,0:0|0:0,0:0:0:0:
244,24,195415,5,4,0:0:0:0:
256,192,195518,12,0,197898,0:0:0:0:
216,332,198725,6,0,B|152:312|148:348|72:328,1,120,2|0,0:0|0:0,0:0:0:0:
8,252,199553,1,8,0:0:0:0:
120,208,199967,1,0,0:0:0:0:
148,156,200173,1,0,0:0:0:0:
136,96,200380,6,0,P|136:60|144:28,1,60,2|0,0:0|0:0,0:0:0:0:
196,16,200794,2,0,P|224:24|280:24,1,60
300,64,201208,2,0,P|364:44|428:52,1,120,8|0,0:0|0:0,0:0:0:0:
468,80,201829,1,0,0:0:0:0:
468,80,202036,6,0,P|452:152|476:216,1,120,2|0,0:0|0:0,0:0:0:0:
508,308,202863,2,0,L|440:316,1,60,8|0,0:0|0:0,0:0:0:0:
392,292,203277,2,0,L|328:288,1,60
288,328,203691,5,2,0:0:0:0:
232,344,203898,1,0,0:0:0:0:
176,320,204105,2,0,B|140:320|140:320|104:312|104:312|44:316,1,120,0|8,0:0|0:0,0:0:0:0:
4,208,204932,2,0,P|36:204|68:184,1,60,2|2,0:0|0:0,0:0:0:0:
112,160,205346,6,0,L|252:168,1,120,2|0,0:0|0:0,0:0:0:0:
280,204,205967,1,0,0:0:0:0:
328,240,206173,2,0,L|404:232,1,60,8|0,0:0|0:0,0:0:0:0:
444,252,206587,6,0,P|424:192|472:136,1,120,0|2,0:0|0:0,0:0:0:0:
492,104,207208,2,0,L|496:28,2,60
432,96,207829,2,0,P|416:52|400:32,1,60,8|0,0:0|0:0,0:0:0:0:
348,32,208242,1,0,0:0:0:0:
292,56,208449,1,0,0:0:0:0:
236,36,208656,6,0,L|116:40,1,120,2|0,0:0|0:0,0:0:0:0:
60,60,209277,1,0,0:0:0:0:
28,112,209484,2,0,P|60:128|80:152,1,60,8|0,0:0|0:0,0:0:0:0:
136,160,209898,2,0,P|148:188|152:228,1,60
124,272,210311,5,2,0:0:0:0:
256,192,210415,12,2,211967,0:0:0:0:
420,168,213208,6,0,L|416:244,1,60,2|8,0:0|0:0,0:0:0:0:
376,272,213622,6,0,P|360:232|292:188,1,120,2|0,0:0|0:0,0:0:0:0:
244,216,214242,1,0,0:0:0:0:
184,204,214449,2,0,B|144:212|144:212|104:204|104:204|44:204,1,120,8|0,0:0|0:0,0:0:0:0:
16,168,215070,1,0,0:0:0:0:
16,168,215277,6,0,P|80:148|116:96,1,120,2|0,0:0|0:0,0:0:0:0:
204,28,216105,2,0,L|268:28,1,60,8|0,0:0|0:0,0:0:0:0:
316,60,216518,2,0,L|396:56,1,60
428,28,216932,5,2,0:0:0:0:
476,60,217139,1,0,0:0:0:0:
496,116,217346,2,0,P|480:176|504:244,1,120,0|8,0:0|0:0,0:0:0:0:
404,308,218173,2,0,P|388:280|380:240,1,60,2|8,0:0|0:0,0:0:0:0:
328,228,218587,6,0,L|188:240,1,120,2|0,0:0|0:0,0:0:0:0:
152,216,219208,1,0,0:0:0:0:
96,196,219415,2,0,P|48:252|-16:260,1,120,8|0,0:0|0:0,0:0:0:0:
52,300,220036,1,0,0:0:0:0:
80,352,220242,6,0,B|136:340|136:372|208:352,1,120,2|0,0:0|0:0,0:0:0:0:
248,320,220863,1,0,0:0:0:0:
304,340,221070,2,0,L|376:344,1,60,8|0,0:0|0:0,0:0:0:0:
416,316,221484,2,0,L|492:312,1,60
504,260,221898,6,0,P|480:204|488:144,1,120,2|0,0:0|0:0,0:0:0:0:
460,92,222518,1,0,0:0:0:0:
404,68,222725,2,0,L|400:4,2,60,8|0|0,0:0|0:0|0:0,0:0:0:0:
348,92,223346,1,0,0:0:0:0:
292,72,223553,5,2,0:0:0:0:
256,192,223656,12,2,225208,0:0:0:0:
236,272,226656,5,0,0:0:0:0:
192,312,226863,2,0,P|152:324|112:320,1,60
80,296,227277,2,0,P|40:288|16:264,1,60
8,220,227691,2,0,L|12:96,1,120,8|8,0:0|0:0,0:0:0:0:
64,72,228311,1,2,0:0:0:0:
64,72,228518,6,0,P|124:68|180:20,1,120,2|0,0:0|0:0,0:0:0:0:
228,20,229139,1,0,0:0:0:0:
276,56,229346,2,0,B|320:56|320:56|352:68|352:68|412:68,1,120,8|0,0:0|0:0,0:0:0:0:
448,44,229967,1,0,0:0:0:0:
504,68,230173,6,0,P|480:108|504:200,1,120,2|0,0:0|0:0,0:0:0:0:
448,224,230794,1,0,0:0:0:0:
396,252,231001,2,0,L|320:256,1,60,8|0,0:0|0:0,0:0:0:0:
284,224,231415,2,0,L|212:220,1,60,2|2,0:0|0:0,0:0:0:0:
168,196,231829,6,0,L|24:200,1,120,2|0,0:0|0:0,0:0:0:0:
8,312,232656,2,0,P|72:324|124:376,1,120,8|0,0:0|0:0,0:0:0:0:
168,332,233277,1,0,0:0:0:0:
224,312,233484,6,0,P|268:352|332:320,1,120,2|0,0:0|0:0,0:0:0:0:
356,284,234105,1,0,0:0:0:0:
404,248,234311,2,0,L|400:160,1,60,8|0,0:0|0:0,0:0:0:0:
368,140,234725,2,0,L|376:76,1,60
324,48,235139,6,0,P|264:64|192:32,1,120,2|0,0:0|0:0,0:0:0:0:
92,32,235967,2,0,B|108:72|108:112|64:136|64:136|68:160|68:160|48:176|32:196,1,180,8|0,0:0|0:0,0:0:0:0:
12,236,236794,2,0,P|60:228|124:268,2,120,2|0|8,0:0|0:0|0:0,0:0:0:0:
42,184,237829,1,2,0:0:0:0:
96,156,238036,2,0,L|172:156,1,60,8|0,0:0|0:0,0:0:0:0:
204,188,238449,6,0,L|336:196,1,120,2|0,0:0|0:0,0:0:0:0:
380,176,239070,1,0,0:0:0:0:
436,156,239277,2,0,P|472:172|512:176,1,60,8|0,0:0|0:0,0:0:0:0:
512,232,239691,2,0,B|480:244|480:244|448:268,1,60
432,312,240105,6,0,P|380:348|312:340,1,120,2|0,0:0|0:0,0:0:0:0:
272,316,240725,1,0,0:0:0:0:
212,308,240932,2,0,L|136:316,2,60,8|0|0,0:0|0:0|0:0,0:0:0:0:
260,272,241553,1,0,0:0:0:0:
280,216,241760,6,0,B|264:156|296:156|280:72,1,120,2|0,0:0|0:0,0:0:0:0:
248,48,242380,1,0,0:0:0:0:
192,72,242587,2,0,P|152:68|112:52,1,60,8|0,0:0|0:0,0:0:0:0:
80,32,243001,2,0,P|48:52|4:60,1,60
0,112,243415,6,0,P|52:128|96:184,1,120,2|0,0:0|0:0,0:0:0:0:
76,236,244036,1,0,0:0:0:0:
100,292,244242,2,0,B|144:292|144:292|180:284|180:284|240:284,1,120,8|0,0:0|0:0,0:0:0:0:
336,248,245070,6,0,P|396:272|460:256,1,120,2|0,0:0|0:0,0:0:0:0:
496,224,245691,1,0,0:0:0:0:
508,164,245898,2,0,L|504:40,1,120,8|0,0:0|0:0,0:0:0:0:
388,12,246725,6,0,P|328:52|264:48,1,120,2|0,0:0|0:0,0:0:0:0:
160,48,247553,2,0,P|204:108|192:168,1,120,8|0,0:0|0:0,0:0:0:0:
152,188,248173,1,0,0:0:0:0:
152,188,248380,6,0,B|104:192|104:192|68:184|68:184|24:184,1,120,2|0,0:0|0:0,0:0:0:0:
8,300,249208,2,0,P|52:288|156:368,1,180,8|0,0:0|0:0,0:0:0:0:
212,372,250036,5,2,0:0:0:0:
256,192,250139,8,2,251691,0:0:0:0:
256,192,253346,5,0,0:0:0:0:
256,192,255001,5,0,0:0:0:0:
256,192,256656,5,0,0:0:0:0:
256,192,258311,5,0,0:0:0:0:
256,192,259967,5,0,0:0:0:0:
256,192,261622,5,0,0:0:0:0:
256,192,263277,5,0,0:0:0:0:
256,192,264932,12,0,269898,0:0:0:0:
