osu file format v14

[General]
AudioFilename: audio.mp3
AudioLeadIn: 0
PreviewTime: 110159
Countdown: 0
SampleSet: Soft
StackLeniency: 0.7
Mode: 0
LetterboxInBreaks: 0
WidescreenStoryboard: 0

[Editor]
Bookmarks: 1963,17700,33438,49176,64913,80651,96389,112126,127864,143602,159217
DistanceSpacing: 2.3
BeatDivisor: 8
GridSize: 8
TimelineZoom: 2.7

[Metadata]
Title:Ramen mugkogarlae(Ferry Remix)
TitleUnicode:라면 먹고갈래(Ferry Remix)
Artist:Zohnny
ArtistUnicode:Zohnny
Creator:Euny
Version:Extra for Breakfast
Source:
Tags:
BeatmapID:1544313
BeatmapSetID:731852

[Difficulty]
HPDrainRate:8
CircleSize:4.1
OverallDifficulty:9
ApproachRate:9.3
SliderMultiplier:2
SliderTickRate:1

[Events]
//Background and Video events
0,0,"fgjj.jpg",0,0
//Break Periods
2,64913,80097
2,110235,111081
//Storyboard Layer 0 (Background)
//Storyboard Layer 1 (Fail)
//Storyboard Layer 2 (Pass)
//Storyboard Layer 3 (Foreground)
//Storyboard Sound Samples

[TimingPoints]
1963,491.803278688525,4,2,0,50,1,0
17700,-200,4,2,0,50,0,0
21143,-125,4,2,0,50,0,0
23110,-142.857142857143,4,2,0,50,0,0
25077,-200,4,2,0,50,0,0
29012,-125,4,2,0,50,0,0
30979,-142.857142857143,4,2,0,50,0,0
32946,-200,4,2,0,50,0,0
33438,-100,4,2,0,50,0,0
48438,-125,4,2,0,50,0,0
49176,-100,4,2,0,50,0,0
64913,-285.714285714286,4,2,0,50,0,0
80651,-111.111111111111,4,2,0,50,0,0
96389,-142.857142857143,4,2,0,50,0,0
108192,-100,4,2,0,50,0,0
110036,-100,4,2,0,5,0,0
112126,-71.4285714285714,4,2,0,65,0,1
127372,-71.4285714285714,4,2,0,65,0,0

[HitObjects]
16,144,17700,6,0,P|8:120|15:97,1,50
128,96,18192,2,0,P|135:119|128:142,1,50
48,184,18684,2,0,P|71:191|94:184,1,50
94,63,19176,2,0,P|70:55|47:63,1,50
80,272,19667,6,0,L|80:328,1,50
0,336,20159,2,0,L|56:336,1,50
162,336,20651,2,0,L|112:336,1,50
200,160,21143,6,0,L|200:240,1,80
368,160,21635,2,0,L|368:240,1,80
240,192,22126,2,0,L|336:192,1,80
280,160,22618,2,0,L|280:240,1,80
200,272,23110,2,0,L|272:272,1,69.9999978637696
368,272,23602,2,0,L|296:272,1,69.9999978637696
456,136,24094,6,0,L|456:208,1,69.9999978637696
456,336,24585,2,0,L|456:264,1,69.9999978637696
512,240,25077,2,0,L|456:240,1,50
496,240,25569,6,0,P|503:263|496:286,1,50
384,288,26061,2,0,P|376:264|383:241,1,50
464,200,26553,2,0,P|440:192|417:199,1,50
418,321,27045,2,0,P|441:328|464:320,1,50
432,112,27536,6,0,L|432:56,1,50
512,48,28028,2,0,L|456:48,1,50
350,48,28520,2,0,L|400:48,1,50
312,224,29012,6,0,L|312:144,1,80
144,224,29504,2,0,L|144:144,1,80
272,192,29995,2,0,L|176:192,1,80
232,224,30487,2,0,L|232:144,1,80
312,112,30979,2,0,L|240:112,1,69.9999978637696
144,112,31471,2,0,L|216:112,1,69.9999978637696
56,248,31963,6,0,L|56:176,1,69.9999978637696
56,48,32454,2,0,L|56:120,1,69.9999978637696
0,144,32946,2,0,L|56:144,1,50
320,272,33438,6,0,P|300:226|260:197,1,100
176,296,33930,2,0,L|189:247,1,50
91,303,34176,2,0,L|104:352,1,50
200,376,34422,6,0,L|272:360,1,50
288,344,34606,1,0,0:0:0:0:
288,344,34667,2,0,L|352:352,2,50
464,344,35159,1,0,0:0:0:0:
504,168,35405,6,0,L|496:136,3,25
488,200,35651,2,0,L|424:216,1,50
384,152,35897,2,0,L|320:168,1,50
288,96,36143,2,0,L|224:112,1,50
184,48,36389,6,0,L|120:64,1,50
96,56,36573,1,0,0:0:0:0:
96,56,36635,2,0,P|77:81|56:96,2,50
168,216,37126,1,0,0:0:0:0:
328,144,37372,6,0,B|296:160|256:128|224:152,1,100
216,344,37864,1,0,0:0:0:0:
368,224,38110,1,0,0:0:0:0:
200,320,38356,6,0,P|201:292|200:264,1,50
152,248,38540,1,0,0:0:0:0:
152,248,38602,2,0,L|168:184,2,50
16,360,39094,1,0,0:0:0:0:
16,192,39340,6,0,L|48:208,3,25
0,144,39586,2,0,L|8:88,1,50
72,32,39832,2,0,L|96:96,1,50
168,120,40077,2,0,L|176:64,1,50
240,8,40323,6,0,L|264:72,1,50
312,80,40508,1,0,0:0:0:0:
312,80,40570,2,0,P|320:56|328:16,2,50
480,48,41061,1,0,0:0:0:0:
488,216,41307,6,0,B|464:192|464:192|456:168|456:168|464:120,1,100
480,304,41799,1,0,0:0:0:0:
368,168,42045,1,0,0:0:0:0:
311,344,42291,6,0,L|375:342,1,50
404,343,42475,1,0,0:0:0:0:
404,343,42537,2,0,L|361:397,2,50
280,224,43029,1,0,0:0:0:0:
192,368,43274,6,0,L|224:360,3,25
136,360,43520,2,0,L|80:344,1,50
16,280,43766,2,0,L|64:267,1,50
143,255,44012,2,0,P|135:232|139:208,1,50
208,168,44258,6,0,L|184:112,1,50
200,80,44442,1,0,0:0:0:0:
200,80,44504,2,0,P|231:81|256:75,2,50
48,0,44995,1,0,0:0:0:0:
8,168,45241,6,0,P|16:118|6:70,1,100
113,280,45733,1,0,0:0:0:0:
168,104,45979,1,0,0:0:0:0:
128,296,46225,6,0,L|72:328,1,50
32,328,46409,1,0,0:0:0:0:
32,328,46471,2,0,L|-24:288,2,50
208,352,46963,1,0,0:0:0:0:
352,256,47208,6,0,L|288:280,1,50
440,216,47454,2,0,L|432:288,1,50
456,112,47700,2,0,L|504:160,1,50
368,56,47946,2,0,L|424:32,1,50
280,112,48192,6,0,P|258:84|232:64,1,50
198,139,48376,1,0,0:0:0:0:
198,139,48438,2,0,P|167:208|155:129,1,200
147,134,49176,5,0,0:0:0:0:
188,289,49422,1,0,0:0:0:0:
344,247,49667,1,0,0:0:0:0:
302,91,49913,1,0,0:0:0:0:
96,112,50160,5,0,0:0:0:0:
151,40,50282,1,0,0:0:0:0:
151,40,50344,1,0,0:0:0:0:
151,40,50405,1,0,0:0:0:0:
192,128,50528,1,0,0:0:0:0:
72,96,50651,2,0,P|67:145|72:200,1,100
24,24,51143,5,0,0:0:0:0:
160,256,51389,2,0,P|149:233|148:208,1,50
248,240,51635,2,0,P|248:212|230:178,1,50
160,48,51881,2,0,L|163:13,3,25
122,77,52127,5,0,0:0:0:0:
280,184,52372,1,0,0:0:0:0:
192,184,52495,1,0,0:0:0:0:
232,104,52619,1,0,0:0:0:0:
136,280,52864,1,0,0:0:0:0:
233,21,53110,5,0,0:0:0:0:
408,168,53356,1,0,0:0:0:0:
192,280,53601,1,0,0:0:0:0:
336,88,53847,1,0,0:0:0:0:
376,328,54094,5,0,0:0:0:0:
320,264,54216,1,0,0:0:0:0:
320,264,54278,1,0,0:0:0:0:
320,264,54339,1,0,0:0:0:0:
280,344,54463,1,0,0:0:0:0:
400,335,54585,2,0,P|422:291|419:242,1,100
200,280,55077,5,0,0:0:0:0:
144,40,55323,2,0,P|134:62|133:87,1,50
208,192,55569,2,0,P|208:164|190:130,1,50
32,192,55815,2,0,L|56:200,3,25
0,224,56061,5,0,0:0:0:0:
232,232,56307,1,0,0:0:0:0:
132,248,56430,1,0,0:0:0:0:
169,165,56553,1,0,0:0:0:0:
160,384,56798,1,0,0:0:0:0:
152,144,57044,5,0,0:0:0:0:
272,336,57290,1,0,0:0:0:0:
136,128,57535,1,0,0:0:0:0:
344,248,57781,1,0,0:0:0:0:
120,112,58028,5,0,0:0:0:0:
64,192,58150,1,0,0:0:0:0:
64,192,58212,1,0,0:0:0:0:
64,192,58273,1,0,0:0:0:0:
32,104,58396,1,0,0:0:0:0:
136,128,58519,2,0,B|152:136|152:136|155:78|128:40,1,100
24,24,59011,5,0,0:0:0:0:
246,20,59258,2,0,L|198:4,1,50
283,102,59503,2,0,L|224:121,1,50
341,34,59749,2,0,L|344:9,3,25
377,70,59995,5,0,0:0:0:0:
175,186,60241,1,0,0:0:0:0:
256,231,60364,1,0,0:0:0:0:
250,143,60487,1,0,0:0:0:0:
105,343,60733,1,0,0:0:0:0:
102,99,60979,5,0,0:0:0:0:
312,220,61225,1,0,0:0:0:0:
87,246,61469,1,0,0:0:0:0:
169,43,61717,1,0,0:0:0:0:
251,291,61963,5,0,0:0:0:0:
16,176,62208,1,0,0:0:0:0:
265,175,62454,1,0,0:0:0:0:
201,361,62700,1,0,0:0:0:0:
188,135,62946,5,0,0:0:0:0:
409,229,63192,1,0,0:0:0:0:
181,258,63438,1,0,0:0:0:0:
315,14,63684,1,0,0:0:0:0:
352,288,63930,5,0,0:0:0:0:
432,208,64053,1,0,0:0:0:0:
440,320,64176,1,0,0:0:0:0:
512,200,64299,1,0,0:0:0:0:
512,368,64422,1,0,0:0:0:0:
179,252,80651,6,0,L|165:156,1,89.9999972534181
267,273,81020,2,0,P|248:313|210:336,1,89.9999972534181
297,188,81389,2,0,L|391:202,1,89.9999972534181
512,252,81758,5,0,0:0:0:0:
478,136,81881,2,0,L|466:179,1,44.999998626709
462,315,82126,2,0,P|444:303|433:284,1,44.999998626709
390,74,82372,2,0,L|394:140,1,44.999998626709
228,43,82618,6,0,P|257:56|319:37,1,89.9999972534181
139,32,82987,2,0,P|143:64|190:119,1,89.9999972534181
46,8,83356,2,0,P|32:32|27:99,1,89.9999972534181
75,245,83725,5,0,0:0:0:0:
101,127,83848,2,0,P|102:151|108:175,1,44.999998626709
169,265,84094,2,0,P|175:233|167:204,1,44.999998626709
3,167,84340,2,0,P|5:191|1:218,1,44.999998626709
49,383,84585,6,0,P|86:370|131:329,1,89.9999972534181
259,278,84954,2,0,L|159:264,1,89.9999972534181
351,256,85323,2,0,P|325:219|276:194,1,89.9999972534181
206,334,85692,5,0,0:0:0:0:
115,208,85815,2,0,P|142:189|164:188,1,44.999998626709
212,79,86061,2,0,L|218:134,1,44.999998626709
316,20,86307,2,0,L|295:68,1,44.999998626709
503,93,86553,6,0,P|459:81|396:80,1,89.9999972534181
512,234,86922,2,0,P|475:202|446:159,1,89.9999972534181
408,358,87290,2,0,P|428:316|438:262,1,89.9999972534181
328,300,87659,1,0,0:0:0:0:
372,197,87782,2,0,P|341:211|324:211,1,44.999998626709
237,143,88028,2,0,L|284:145,1,44.999998626709
158,231,88274,2,0,L|201:215,1,44.999998626709
111,86,88520,6,0,P|114:137|97:182,1,89.9999972534181
37,43,88889,2,0,P|68:10|111:0,1,89.9999972534181
275,37,89258,2,0,L|183:43,1,89.9999972534181
0,88,89626,5,0,0:0:0:0:
6,68,89750,2,0,L|-5:24,1,44.999998626709
67,185,89995,2,0,L|78:141,1,44.999998626709
156,55,90241,2,0,L|167:110,1,44.999998626709
229,234,90487,6,0,P|240:190|229:147,1,89.9999972534181
378,244,90856,6,0,P|334:246|297:271,1,89.9999972534181
301,116,91225,6,0,P|331:149|374:163,1,89.9999972534181
512,209,91594,5,0,0:0:0:0:
512,207,91717,2,0,P|505:229|493:248,1,44.999998626709
425,349,91963,2,0,L|426:304,1,44.999998626709
395,147,92209,2,0,L|404:194,1,44.999998626709
511,0,92454,6,0,P|469:15|425:18,1,89.9999972534181
259,76,92823,2,0,P|300:60|345:63,1,89.9999972534181
163,94,93192,2,0,P|174:51|197:13,1,89.9999972534181
233,150,93561,5,0,0:0:0:0:
102,160,93684,2,0,P|129:179|151:180,1,44.999998626709
26,86,93930,2,0,P|28:109|23:131,1,44.999998626709
97,1,94176,2,0,L|101:48,1,44.999998626709
80,289,94422,6,0,P|53:251|31:192,1,89.9999972534181
182,318,94791,2,0,P|145:350|116:393,1,89.9999972534181
221,246,95159,2,0,P|265:259|312:287,1,89.9999972534181
395,344,95528,1,0,0:0:0:0:
374,223,95651,2,0,P|390:237|401:257,1,44.999998626709
498,363,95897,2,0,B|516:295|472:301|498:226,1,134.999995880127
512,0,96389,5,0,0:0:0:0:
480,16,96758,5,0,0:0:0:0:
448,32,97126,5,0,0:0:0:0:
304,32,97372,5,0,0:0:0:0:
304,32,97495,2,0,L|320:80,1,34.9999989318848
320,144,97741,1,0,0:0:0:0:
320,144,97864,2,0,L|272:128,1,34.9999989318848
202,76,98110,1,2,0:0:0:0:
142,269,98356,5,0,0:0:0:0:
96,256,98725,5,0,0:0:0:0:
48,240,99094,5,0,0:0:0:0:
16,144,99340,5,0,0:0:0:0:
15,143,99463,2,0,P|13:126|18:110,1,34.9999989318848
102,90,99708,1,0,0:0:0:0:
102,90,99831,2,0,P|104:107|99:123,1,34.9999989318848
69,207,100077,1,2,0:0:0:0:
0,0,100323,5,0,0:0:0:0:
64,0,100692,5,0,0:0:0:0:
128,0,101061,5,0,0:0:0:0:
176,208,101307,1,0,0:0:0:0:
176,208,101430,6,0,L|160:160,1,34.9999989318848
143,77,101676,1,0,0:0:0:0:
143,77,101799,2,0,L|127:109,1,34.9999989318848
86,179,102044,1,0,0:0:0:0:
262,248,102290,6,0,P|229:288|179:296,2,104.999996795654
105,324,103274,5,0,0:0:0:0:
73,215,103397,2,0,L|89:248,2,34.9999989318848
13,127,103766,2,0,L|-8:166,1,34.9999989318848
77,54,104012,2,0,L|33:38,1,34.9999989318848
262,74,104258,6,0,B|206:91|206:51|159:77,2,104.999996795654
0,153,105241,6,0,B|56:136|56:176|103:150,2,104.999996795654
261,239,106225,6,0,B|205:256|205:216|158:242,2,104.999996795654
195,373,107208,1,0,0:0:0:0:
328,378,107331,2,0,P|302:364|284:359,2,34.9999989318848
403,288,107700,2,0,L|392:337,1,34.9999989318848
508,363,107946,2,0,L|476:346,1,34.9999989318848
335,193,108192,6,0,L|319:257,1,50
387,91,108438,2,0,L|405:151,1,50
166,125,108684,2,0,L|181:180,1,50
300,40,108930,2,0,L|271:100,1,50
8,176,109176,6,0,L|64:208,1,50
224,16,109422,2,0,L|168:48,1,50
24,360,109667,2,0,L|72:328,1,50
304,352,109913,2,0,L|288:304,1,50
512,368,111635,5,0,0:0:0:0:
512,352,112126,5,0,0:0:0:0:
344,256,112372,2,0,L|432:264,1,69.9999978637696
272,200,112618,2,0,L|336:168,1,59.9999981689454
216,88,112864,2,0,L|176:160,1,69.9999978637696
448,72,113110,1,0,0:0:0:0:
416,192,113233,2,0,L|336:200,1,69.9999978637696
336,48,113479,1,0,0:0:0:0:
160,272,113602,2,0,P|128:256|112:176,1,104.999996795654
104,184,113848,2,0,P|80:232|48:240,1,69.9999978637696
