osu file format v14

[General]
AudioFilename: audio.ogg
AudioLeadIn: 0
PreviewTime: 18469
Countdown: 0
SampleSet: Normal
StackLeniency: 0
Mode: 1
LetterboxInBreaks: 0
WidescreenStoryboard: 1

[Editor]
Bookmarks: 19069,28669,38269,47869,64669,66469,67069,76669,81469,91069,107869,109669,110269,129469,148069,148669,148969,149269,149569,149869,150169,150319,150469,150769,151069,151369,151669,151969,152269,152569,153469,155869,172669,189469,191869,194269,199069
DistanceSpacing: 0.5
BeatDivisor: 4
GridSize: 32
TimelineZoom: 4.300003

[Metadata]
Title:Zmey Gorynych"
TitleUnicode:Змѣй Горынычъ
Artist:Zmey Gorynich
ArtistUnicode:Zmey Gorynich
Creator:liku
Version:Bezumnyy
Source:
Tags:Змей Горыныч genjuro folk death metal russian mother russia deathcore metalcore djent alternative
BeatmapID:3560355
BeatmapSetID:1647772

[Difficulty]
HPDrainRate:7
CircleSize:5
OverallDifficulty:5.5
ApproachRate:5
SliderMultiplier:1.4
SliderTickRate:1

[Events]
//Background and Video events
0,0,"1j6xhn5dglv41.jpg",0,100
//Break Periods
2,148669,151069
//Storyboard Layer 0 (Background)
//Storyboard Layer 1 (Fail)
//Storyboard Layer 2 (Pass)
//Storyboard Layer 3 (Foreground)
//Storyboard Layer 4 (Overlay)
//Storyboard Sound Samples

[TimingPoints]
14269,300,4,1,0,50,1,0
14269,-111.111111111111,4,1,0,50,0,0
19031,-100,4,1,0,85,0,0
28069,-95.2380952380952,4,1,0,85,0,0
28219,-90.9090909090909,4,1,0,85,0,0
28369,-86.9565217391304,4,1,0,85,0,0
28669,-100,4,1,0,85,0,0
36919,-66.6666666666667,4,1,0,85,0,0
38269,-90.9090909090909,4,1,0,85,0,0
46781,-94.3396226415094,4,1,0,85,0,0
46931,-96.1538461538461,4,1,0,85,0,0
47081,-98.0392156862745,4,1,0,85,0,0
47231,-100,4,1,0,85,0,0
47381,-102.040816326531,4,1,0,85,0,0
47456,-104.166666666667,4,1,0,85,0,0
47531,-106.382978723404,4,1,0,85,0,0
47644,-108.695652173913,4,1,0,85,0,0
47869,-111.111111111111,4,1,0,85,0,1
64669,-109.89010989011,4,1,0,85,0,0
64706,-108.695652173913,4,1,0,85,0,0
64781,-107.52688172043,4,1,0,85,0,0
64931,-106.382978723404,4,1,0,85,0,0
65081,-105.263157894737,4,1,0,85,0,0
65231,-104.166666666667,4,1,0,85,0,0
65306,-103.092783505155,4,1,0,85,0,0
65381,-102.040816326531,4,1,0,85,0,0
65531,-101.010101010101,4,1,0,85,0,0
65681,-100,4,1,0,85,0,0
65831,-97.0873786407767,4,1,0,85,0,0
65944,-94.3396226415094,4,1,0,85,0,0
66094,-91.743119266055,4,1,0,85,0,0
66244,-89.2857142857143,4,1,0,85,0,0
66469,-86.9565217391304,4,1,0,85,0,0
67069,-100,4,1,0,85,0,0
76066,-95.2380952380952,4,1,0,85,0,0
76216,-90.9090909090909,4,1,0,85,0,0
76366,-86.9565217391304,4,1,0,85,0,0
76669,-100,4,1,0,85,0,0
80194,-97.0873786407767,4,1,0,85,0,0
80344,-94.3396226415094,4,1,0,85,0,0
80494,-91.743119266055,4,1,0,85,0,0
80644,-89.2857142857143,4,1,0,85,0,0
80794,-86.9565217391304,4,1,0,85,0,0
80944,-84.7457627118644,4,1,0,85,0,0
81094,-82.6446280991736,4,1,0,85,0,0
81469,-100,4,1,0,85,0,0
88594,-83.3333333333333,4,1,0,85,0,0
90544,-98.0392156862745,4,1,0,85,0,0
90656,-101.010101010101,4,1,0,85,0,0
90731,-104.166666666667,4,1,0,85,0,0
90881,-107.52688172043,4,1,0,85,0,0
91069,-111.111111111111,4,1,0,85,0,1
107869,-109.89010989011,4,1,0,85,0,0
107906,-108.695652173913,4,1,0,85,0,0
107981,-107.52688172043,4,1,0,85,0,0
108131,-106.382978723404,4,1,0,85,0,0
108281,-105.263157894737,4,1,0,85,0,0
108431,-104.166666666667,4,1,0,85,0,0
108506,-103.092783505155,4,1,0,85,0,0
108581,-102.040816326531,4,1,0,85,0,0
108731,-101.010101010101,4,1,0,85,0,0
108881,-100,4,1,0,85,0,0
109031,-97.0873786407767,4,1,0,85,0,0
109144,-94.3396226415094,4,1,0,85,0,0
109294,-91.743119266055,4,1,0,85,0,0
109444,-89.2857142857143,4,1,0,85,0,0
109669,-86.9565217391304,4,1,0,85,0,0
109969,-100,4,1,0,85,0,0
128419,-105.263157894737,4,1,0,85,0,0
128569,-111.111111111111,4,1,0,85,0,0
128769,-117.647058823529,4,1,0,85,0,0
129169,-125,4,1,0,85,0,0
147356,-117.647058823529,4,1,0,85,0,0
147619,-111.111111111111,4,1,0,85,0,0
147919,-105.263157894737,4,1,0,85,0,0
148369,-111.111111111111,4,1,0,85,0,0
152716,-100,4,1,0,85,0,0
152791,-101.010101010101,4,1,0,85,0,0
152866,-102.040816326531,4,1,0,85,0,0
153016,-104.166666666667,4,1,0,85,0,0
153166,-106.382978723404,4,1,0,85,0,0
153316,-108.695652173913,4,1,0,85,0,0
153466,-111.111111111111,4,1,0,85,0,0
153469,-111.111111111111,4,1,0,85,0,0
154631,-125,4,1,0,85,0,0
155191,-123.456790123457,4,1,0,85,0,0
155266,-121.951219512195,4,1,0,85,0,0
155416,-119.047619047619,4,1,0,85,0,0
155566,-116.279069767442,4,1,0,85,0,0
155716,-113.636363636364,4,1,0,85,0,0
155869,-111.111111111111,4,1,0,85,0,1
171619,-108.695652173913,4,1,0,85,0,1
171844,-106.382978723404,4,1,0,85,0,1
171994,-104.166666666667,4,1,0,85,0,1
172219,-102.040816326531,4,1,0,85,0,1
172669,-99.9999999999999,4,1,0,85,0,1
182194,-95.2380952380954,4,1,0,85,0,1
182344,-111.111111111111,4,1,0,85,0,1
186994,-105.263157894737,4,1,0,85,0,1
187144,-111.111111111111,4,1,0,85,0,1
189469,-109.89010989011,4,1,0,85,0,0
189506,-108.695652173913,4,1,0,85,0,0
189581,-107.52688172043,4,1,0,85,0,0
189731,-106.382978723404,4,1,0,85,0,0
189881,-105.263157894737,4,1,0,85,0,0
190031,-104.166666666667,4,1,0,85,0,0
190106,-103.092783505155,4,1,0,85,0,0
190181,-102.040816326531,4,1,0,85,0,0
190331,-101.010101010101,4,1,0,85,0,0
190481,-100,4,1,0,85,0,0
190631,-97.0873786407767,4,1,0,85,0,0
190781,-94.3396226415094,4,1,0,85,0,0
190931,-91.743119266055,4,1,0,85,0,0
191081,-89.2857142857143,4,1,0,85,0,0
191269,-86.9565217391304,4,1,0,85,0,0
191869,-109.89010989011,4,1,0,85,0,0
191906,-108.695652173913,4,1,0,85,0,0
191981,-107.52688172043,4,1,0,85,0,0
192131,-106.382978723404,4,1,0,85,0,0
192281,-105.263157894737,4,1,0,85,0,0
192431,-104.166666666667,4,1,0,85,0,0
192506,-103.092783505155,4,1,0,85,0,0
192581,-102.040816326531,4,1,0,85,0,0
192731,-101.010101010101,4,1,0,85,0,0
192881,-100,4,1,0,85,0,0
193031,-97.0873786407767,4,1,0,85,0,0
193181,-94.3396226415094,4,1,0,85,0,0
193331,-91.743119266055,4,1,0,85,0,0
193481,-89.2857142857143,4,1,0,85,0,0
193669,-86.9565217391304,4,1,0,85,0,0
194269,-100,4,1,0,85,0,1
197869,-100,4,1,0,85,0,1
198169,-111.111111111111,4,1,0,85,0,1
199069,-100,4,1,0,85,0,0
199144,-66.6666666666667,4,1,0,20,0,0
199256,-111.111111111111,4,1,0,20,0,0

[HitObjects]
256,192,18469,5,8,0:0:0:0:
256,192,18619,1,0,0:0:0:0:
256,192,18694,1,0,0:0:0:0:
256,192,18769,1,8,0:0:0:0:
256,192,19069,1,8,0:0:0:0:
256,192,19219,1,0,0:0:0:0:
256,191,19294,1,0,0:0:0:0:
256,191,19369,1,8,0:0:0:0:
256,191,19519,1,8,0:0:0:0:
256,191,19669,1,0,0:0:0:0:
256,191,19819,1,8,0:0:0:0:
256,191,19894,1,0,0:0:0:0:
256,192,19969,1,8,0:0:0:0:
256,192,20119,1,0,0:0:0:0:
256,192,20269,1,8,0:0:0:0:
256,192,20344,1,0,0:0:0:0:
256,192,20419,1,0,0:0:0:0:
256,192,20569,1,8,0:0:0:0:
256,192,20719,1,0,0:0:0:0:
256,192,20869,1,8,0:0:0:0:
256,192,20944,1,8,0:0:0:0:
256,192,21019,1,8,0:0:0:0:
256,192,21094,1,8,0:0:0:0:
256,193,21169,1,0,0:0:0:0:
256,192,21469,1,0,0:0:0:0:
256,192,21619,1,0,0:0:0:0:
256,192,21694,1,0,0:0:0:0:
256,192,21769,1,8,0:0:0:0:
256,192,21919,1,8,0:0:0:0:
256,192,22069,1,0,0:0:0:0:
256,192,22144,1,0,0:0:0:0:
256,192,22219,1,8,0:0:0:0:
256,193,22369,1,8,0:0:0:0:
256,192,22519,1,0,0:0:0:0:
256,192,22669,1,8,0:0:0:0:
256,192,22744,1,0,0:0:0:0:
256,192,22819,1,0,0:0:0:0:
256,192,22894,1,0,0:0:0:0:
256,192,22969,1,8,0:0:0:0:
256,192,23119,1,8,0:0:0:0:
256,192,23269,1,8,0:0:0:0:
256,192,23344,1,8,0:0:0:0:
256,192,23419,1,8,0:0:0:0:
256,193,23494,1,8,0:0:0:0:
256,192,23569,1,0,0:0:0:0:
256,192,23869,1,0,0:0:0:0:
256,192,24019,1,0,0:0:0:0:
256,192,24094,1,0,0:0:0:0:
256,192,24169,1,8,0:0:0:0:
256,192,24319,1,8,0:0:0:0:
256,193,24469,1,0,0:0:0:0:
256,192,24619,1,8,0:0:0:0:
256,192,24694,1,0,0:0:0:0:
256,192,24769,1,8,0:0:0:0:
256,192,24919,1,0,0:0:0:0:
256,192,25069,1,8,0:0:0:0:
256,192,25144,1,0,0:0:0:0:
256,192,25219,1,0,0:0:0:0:
256,192,25369,1,8,0:0:0:0:
256,192,25519,1,0,0:0:0:0:
256,191,25669,1,8,0:0:0:0:
256,191,25744,1,8,0:0:0:0:
256,191,25819,1,8,0:0:0:0:
256,191,25894,1,8,0:0:0:0:
256,191,25969,1,0,0:0:0:0:
256,191,26269,1,0,0:0:0:0:
256,191,26419,1,0,0:0:0:0:
256,191,26494,1,0,0:0:0:0:
256,192,26569,1,8,0:0:0:0:
256,191,26719,1,8,0:0:0:0:
256,191,26869,1,0,0:0:0:0:
256,191,26944,1,0,0:0:0:0:
256,191,27019,1,8,0:0:0:0:
256,191,27169,1,8,0:0:0:0:
256,191,27319,1,0,0:0:0:0:
256,191,27469,1,0,0:0:0:0:
256,191,27544,1,0,0:0:0:0:
256,191,27619,1,0,0:0:0:0:
256,192,27694,1,0,0:0:0:0:
256,191,27769,1,8,0:0:0:0:
256,191,27919,1,8,0:0:0:0:
256,191,28069,1,4,0:0:0:0:
256,191,28219,1,12,0:0:0:0:
256,191,28369,1,12,0:0:0:0:
256,191,28669,1,0,0:0:0:0:
256,192,28819,1,8,0:0:0:0:
256,192,28969,1,0,0:0:0:0:
255,192,29119,1,8,0:0:0:0:
252,193,29269,1,0,0:0:0:0:
252,193,29569,1,8,0:0:0:0:
256,192,29869,1,0,0:0:0:0:
128,128,30019,1,8,0:0:0:0:
256,192,30169,1,0,0:0:0:0:
256,192,30319,1,0,0:0:0:0:
256,192,30469,1,8,0:0:0:0:
256,192,30769,1,0,0:0:0:0:
255,195,31069,1,8,0:0:0:0:
255,195,31219,1,8,0:0:0:0:
255,195,31369,1,0,0:0:0:0:
255,195,31519,1,8,0:0:0:0:
255,195,31669,1,0,0:0:0:0:
255,195,31969,1,0,0:0:0:0:
255,195,32269,1,8,0:0:0:0:
255,195,32419,1,0,0:0:0:0:
255,195,32569,1,8,0:0:0:0:
255,195,32719,1,8,0:0:0:0:
255,195,32869,1,0,0:0:0:0:
255,195,33019,1,8,0:0:0:0:
255,195,33169,1,0,0:0:0:0:
255,195,33469,1,0,0:0:0:0:
255,195,33619,1,8,0:0:0:0:
255,195,33769,1,0,0:0:0:0:
255,195,33919,1,8,0:0:0:0:
255,195,34069,1,0,0:0:0:0:
255,195,34369,1,8,0:0:0:0:
255,195,34669,1,8,0:0:0:0:
255,195,34819,1,0,0:0:0:0:
255,195,34969,1,8,0:0:0:0:
255,195,35119,1,8,0:0:0:0:
255,195,35269,1,0,0:0:0:0:
255,195,35569,1,8,0:0:0:0:
255,195,35869,1,8,0:0:0:0:
255,195,36019,1,8,0:0:0:0:
255,195,36169,1,0,0:0:0:0:
255,195,36319,1,8,0:0:0:0:
255,195,36469,1,0,0:0:0:0:
255,195,36619,1,0,0:0:0:0:
255,195,36769,1,8,0:0:0:0:
255,195,37069,1,4,0:0:0:0:
255,195,38269,1,0,0:0:0:0:
255,195,38419,1,8,0:0:0:0:
255,195,38569,1,0,0:0:0:0:
255,195,38644,1,0,0:0:0:0:
255,195,38719,1,8,0:0:0:0:
255,195,38869,1,8,0:0:0:0:
255,195,39019,1,0,0:0:0:0:
255,195,39169,1,8,0:0:0:0:
255,195,39244,1,8,0:0:0:0:
255,195,39319,1,0,0:0:0:0:
255,195,39469,1,8,0:0:0:0:
255,195,39619,1,0,0:0:0:0:
255,195,39769,1,8,0:0:0:0:
255,195,39844,1,0,0:0:0:0:
255,195,39919,1,8,0:0:0:0:
255,195,40069,1,8,0:0:0:0:
255,195,40144,1,8,0:0:0:0:
255,195,40219,1,0,0:0:0:0:
255,195,40294,1,0,0:0:0:0:
255,195,40369,1,8,0:0:0:0:
255,195,40669,1,0,0:0:0:0:
255,195,40819,1,8,0:0:0:0:
255,195,40969,1,0,0:0:0:0:
255,195,41044,1,0,0:0:0:0:
255,195,41119,1,8,0:0:0:0:
255,195,41269,1,0,0:0:0:0:
255,195,41419,1,8,0:0:0:0:
255,195,41494,1,8,0:0:0:0:
255,195,41569,1,0,0:0:0:0:
255,195,41719,1,8,0:0:0:0:
255,195,41869,1,0,0:0:0:0:
255,195,42019,1,8,0:0:0:0:
255,195,42094,1,8,0:0:0:0:
255,195,42169,1,0,0:0:0:0:
255,195,42319,1,8,0:0:0:0:
255,195,42469,1,8,0:0:0:0:
255,195,42544,1,0,0:0:0:0:
255,195,42619,1,8,0:0:0:0:
255,195,42694,1,0,0:0:0:0:
255,195,42769,1,8,0:0:0:0:
255,195,43069,1,0,0:0:0:0:
255,195,43219,1,8,0:0:0:0:
255,195,43294,1,0,0:0:0:0:
255,195,43369,1,8,0:0:0:0:
255,195,43519,1,0,0:0:0:0:
255,195,43669,1,8,0:0:0:0:
255,195,43819,1,0,0:0:0:0:
255,195,43894,1,8,0:0:0:0:
255,195,43969,1,0,0:0:0:0:
255,195,44119,1,8,0:0:0:0:
255,195,44269,1,8,0:0:0:0:
192,160,44344,1,8,0:0:0:0:
255,195,44419,1,0,0:0:0:0:
255,195,44494,1,0,0:0:0:0:
255,195,44569,1,8,0:0:0:0:
255,195,44719,1,0,0:0:0:0:
255,195,44869,1,8,0:0:0:0:
255,195,44944,1,8,0:0:0:0:
255,195,45019,1,8,0:0:0:0:
255,195,45094,1,8,0:0:0:0:
255,195,45169,1,0,0:0:0:0:
255,195,45469,1,0,0:0:0:0:
255,195,45619,1,8,0:0:0:0:
255,195,45694,1,0,0:0:0:0:
255,195,45769,1,8,0:0:0:0:
256,192,45919,1,0,0:0:0:0:
256,192,46069,1,8,0:0:0:0:
192,128,46144,1,0,0:0:0:0:
256,192,46219,1,8,0:0:0:0:
256,192,46294,1,8,0:0:0:0:
256,192,46369,1,0,0:0:0:0:
256,192,46519,1,8,0:0:0:0:
256,192,46669,1,0,0:0:0:0:
256,192,46819,1,0,0:0:0:0:
256,192,46969,1,0,0:0:0:0:
256,192,47119,1,0,0:0:0:0:
256,192,47269,1,8,0:0:0:0:
256,192,47419,1,0,0:0:0:0:
256,192,47494,1,0,0:0:0:0:
256,192,47569,1,8,0:0:0:0:
256,192,47869,1,4,0:0:0:0:
256,192,48169,1,0,0:0:0:0:
256,192,48469,1,8,0:0:0:0:
256,192,49069,1,8,0:0:0:0:
256,192,49219,1,0,0:0:0:0:
256,192,49369,1,0,0:0:0:0:
256,192,49519,1,8,0:0:0:0:
256,192,49669,1,0,0:0:0:0:
256,192,49969,1,0,0:0:0:0:
256,192,50269,1,8,0:0:0:0:
256,192,50569,1,0,0:0:0:0:
256,192,50719,1,8,0:0:0:0:
256,192,50869,1,0,0:0:0:0:
259,193,51169,1,0,0:0:0:0:
256,192,51469,1,8,0:0:0:0:
256,192,51769,1,8,0:0:0:0:
256,192,51919,1,0,0:0:0:0:
259,193,52069,1,0,0:0:0:0:
256,192,52369,1,8,0:0:0:0:
256,192,52669,1,4,0:0:0:0:
256,192,52969,1,0,0:0:0:0:
256,192,53269,1,8,0:0:0:0:
256,192,53869,1,8,0:0:0:0:
256,192,54019,1,8,0:0:0:0:
256,192,54169,1,0,0:0:0:0:
256,192,54319,1,8,0:0:0:0:
256,192,54469,1,0,0:0:0:0:
256,192,54769,1,0,0:0:0:0:
256,192,55069,1,8,0:0:0:0:
256,192,55369,1,8,0:0:0:0:
256,192,55519,1,0,0:0:0:0:
256,192,55669,1,8,0:0:0:0:
256,192,55969,1,0,0:0:0:0:
256,192,56269,1,8,0:0:0:0:
256,192,56419,1,0,0:0:0:0:
256,192,56494,1,0,0:0:0:0:
256,192,56569,1,8,0:0:0:0:
256,192,56719,1,8,0:0:0:0:
256,192,56869,1,0,0:0:0:0:
256,192,57469,1,4,0:0:0:0:
256,192,57769,1,0,0:0:0:0:
256,192,58069,1,8,0:0:0:0:
256,192,58369,1,0,0:0:0:0:
256,192,58669,1,8,0:0:0:0:
256,192,58819,1,0,0:0:0:0:
256,192,58969,1,0,0:0:0:0:
256,192,59119,1,8,0:0:0:0:
256,192,59269,1,0,0:0:0:0:
256,192,59569,1,0,0:0:0:0:
256,192,59869,1,8,0:0:0:0:
256,192,60169,1,0,0:0:0:0:
256,192,60319,1,8,0:0:0:0:
256,192,60469,1,8,0:0:0:0:
256,192,60769,1,0,0:0:0:0:
256,192,61069,1,8,0:0:0:0:
256,192,61369,1,0,0:0:0:0:
256,192,61519,1,8,0:0:0:0:
256,192,61669,1,0,0:0:0:0:
256,192,61969,1,8,0:0:0:0:
256,192,62269,1,4,0:0:0:0:
256,192,62569,1,0,0:0:0:0:
256,192,62869,1,8,0:0:0:0:
256,192,63169,1,0,0:0:0:0:
256,192,63469,1,8,0:0:0:0:
256,192,63619,1,8,0:0:0:0:
256,192,63769,1,0,0:0:0:0:
256,192,63919,1,8,0:0:0:0:
256,192,64069,1,0,0:0:0:0:
256,192,64369,1,0,0:0:0:0:
256,192,64669,1,8,0:0:0:0:
256,192,64744,1,0,0:0:0:0:
256,192,64819,1,8,0:0:0:0:
256,192,64969,1,8,0:0:0:0:
256,192,65119,1,0,0:0:0:0:
256,192,65269,1,8,0:0:0:0:
256,192,65344,1,8,0:0:0:0:
256,192,65419,1,0,0:0:0:0:
256,192,65569,1,8,0:0:0:0:
256,192,65719,1,0,0:0:0:0:
256,192,65869,1,12,0:0:0:0:
256,192,66019,1,12,0:0:0:0:
256,192,66169,1,4,0:0:0:0:
256,192,66319,1,4,0:0:0:0:
256,192,66469,1,12,0:0:0:0:
256,192,67069,1,8,0:0:0:0:
256,192,67219,1,0,0:0:0:0:
256,191,67294,1,0,0:0:0:0:
256,191,67369,1,8,0:0:0:0:
256,191,67519,1,8,0:0:0:0:
256,191,67669,1,0,0:0:0:0:
256,191,67744,1,0,0:0:0:0:
256,191,67819,1,8,0:0:0:0:
256,192,67969,1,8,0:0:0:0:
256,192,68119,1,0,0:0:0:0:
256,192,68269,1,8,0:0:0:0:
256,192,68344,1,0,0:0:0:0:
256,192,68419,1,0,0:0:0:0:
256,192,68569,1,8,0:0:0:0:
256,192,68719,1,0,0:0:0:0:
256,192,68869,1,8,0:0:0:0:
256,192,68944,1,8,0:0:0:0:
256,192,69019,1,8,0:0:0:0:
256,192,69094,1,8,0:0:0:0:
256,193,69169,1,0,0:0:0:0:
256,192,69469,1,0,0:0:0:0:
256,192,69619,1,0,0:0:0:0:
256,192,69694,1,0,0:0:0:0:
256,192,69769,1,8,0:0:0:0:
256,192,69919,1,8,0:0:0:0:
256,192,70069,1,0,0:0:0:0:
256,192,70219,1,8,0:0:0:0:
256,192,70294,1,0,0:0:0:0:
256,193,70369,1,8,0:0:0:0:
256,192,70519,1,0,0:0:0:0:
256,192,70669,1,8,0:0:0:0:
256,192,70744,1,0,0:0:0:0:
256,192,70819,1,0,0:0:0:0:
256,192,70894,1,0,0:0:0:0:
256,192,70969,1,8,0:0:0:0:
256,192,71119,1,8,0:0:0:0:
256,192,71269,1,8,0:0:0:0:
256,192,71344,1,8,0:0:0:0:
256,192,71419,1,8,0:0:0:0:
256,193,71494,1,8,0:0:0:0:
256,192,71569,1,0,0:0:0:0:
256,192,71869,1,0,0:0:0:0:
256,192,72019,1,0,0:0:0:0:
256,192,72094,1,0,0:0:0:0:
256,192,72169,1,8,0:0:0:0:
256,192,72319,1,8,0:0:0:0:
256,193,72469,1,0,0:0:0:0:
256,192,72619,1,8,0:0:0:0:
256,192,72694,1,0,0:0:0:0:
256,192,72769,1,8,0:0:0:0:
256,192,72919,1,0,0:0:0:0:
256,192,73069,1,8,0:0:0:0:
256,192,73144,1,0,0:0:0:0:
256,192,73219,1,0,0:0:0:0:
256,192,73369,1,8,0:0:0:0:
256,192,73519,1,0,0:0:0:0:
256,191,73669,1,8,0:0:0:0:
256,191,73744,1,8,0:0:0:0:
256,191,73819,1,8,0:0:0:0:
256,191,73894,1,8,0:0:0:0:
256,191,73969,1,0,0:0:0:0:
256,191,74269,1,0,0:0:0:0:
256,191,74419,1,0,0:0:0:0:
256,191,74494,1,0,0:0:0:0:
256,192,74569,1,8,0:0:0:0:
256,191,74719,1,8,0:0:0:0:
256,191,74869,1,0,0:0:0:0:
256,191,74944,1,0,0:0:0:0:
256,191,75019,1,8,0:0:0:0:
256,191,75169,1,8,0:0:0:0:
256,191,75319,1,0,0:0:0:0:
256,191,75469,1,0,0:0:0:0:
256,191,75544,1,0,0:0:0:0:
256,191,75619,1,0,0:0:0:0:
256,192,75694,1,0,0:0:0:0:
256,191,75769,1,8,0:0:0:0:
256,191,75919,1,8,0:0:0:0:
256,191,76069,1,4,0:0:0:0:
256,191,76219,1,12,0:0:0:0:
256,191,76369,1,12,0:0:0:0:
256,191,76669,5,0,0:0:0:0:
256,191,76819,1,8,0:0:0:0:
256,191,76969,1,0,0:0:0:0:
256,191,77119,1,8,0:0:0:0:
256,191,77269,1,0,0:0:0:0:
256,191,77569,1,8,0:0:0:0:
256,191,77869,1,0,0:0:0:0:
192,96,78019,1,0,0:0:0:0:
256,191,78169,1,8,0:0:0:0:
256,191,78319,1,0,0:0:0:0:
256,191,78469,1,8,0:0:0:0:
256,191,78769,1,8,0:0:0:0:
256,191,79069,1,8,0:0:0:0:
256,191,79219,1,0,0:0:0:0:
256,191,79369,1,8,0:0:0:0:
256,191,79519,1,8,0:0:0:0:
256,191,79669,1,0,0:0:0:0:
192,96,79819,1,0,0:0:0:0:
256,191,79969,1,8,0:0:0:0:
256,191,80269,1,12,0:0:0:0:
256,191,80419,1,0,0:0:0:0:
256,191,80569,1,0,0:0:0:0:
256,191,80719,1,12,0:0:0:0:
256,191,80869,1,12,0:0:0:0:
256,191,81019,1,0,0:0:0:0:
256,191,81169,1,12,0:0:0:0:
256,191,81469,1,8,0:0:0:0:
256,191,81619,1,8,0:0:0:0:
256,191,81694,1,8,0:0:0:0:
256,191,81769,1,0,0:0:0:0:
256,191,81919,1,8,0:0:0:0:
256,191,82069,1,0,0:0:0:0:
256,191,82219,1,8,0:0:0:0:
256,191,82294,1,0,0:0:0:0:
256,191,82369,1,8,0:0:0:0:
256,191,82519,1,0,0:0:0:0:
256,191,82669,1,8,0:0:0:0:
256,191,82819,1,8,0:0:0:0:
256,191,82894,1,8,0:0:0:0:
256,191,82969,1,0,0:0:0:0:
256,191,83119,1,8,0:0:0:0:
256,191,83269,1,8,0:0:0:0:
256,191,83344,1,8,0:0:0:0:
256,191,83419,1,0,0:0:0:0:
256,191,83494,1,0,0:0:0:0:
256,191,83569,1,8,0:0:0:0:
256,191,83869,1,8,0:0:0:0:
256,191,84019,1,0,0:0:0:0:
256,191,84094,1,0,0:0:0:0:
256,191,84169,1,8,0:0:0:0:
256,191,84319,1,8,0:0:0:0:
256,191,84469,1,0,0:0:0:0:
256,191,84619,1,8,0:0:0:0:
256,191,84694,1,0,0:0:0:0:
256,191,84769,1,8,0:0:0:0:
256,191,84919,1,8,0:0:0:0:
256,191,85069,1,0,0:0:0:0:
256,192,85144,1,0,0:0:0:0:
256,191,85219,1,8,0:0:0:0:
256,191,85294,1,8,0:0:0:0:
256,191,85369,1,0,0:0:0:0:
256,191,85519,1,8,0:0:0:0:
256,191,85669,1,8,0:0:0:0:
256,191,85744,1,0,0:0:0:0:
256,191,85819,1,8,0:0:0:0:
256,191,85894,1,0,0:0:0:0:
256,191,85969,1,8,0:0:0:0:
256,191,86269,1,0,0:0:0:0:
256,191,86419,1,8,0:0:0:0:
256,191,86494,1,0,0:0:0:0:
256,191,86569,1,8,0:0:0:0:
256,191,86719,1,0,0:0:0:0:
256,191,86869,1,8,0:0:0:0:
256,191,87019,1,8,0:0:0:0:
256,191,87094,1,8,0:0:0:0:
256,191,87169,1,0,0:0:0:0:
256,191,87319,1,8,0:0:0:0:
256,191,87469,1,0,0:0:0:0:
256,191,87619,1,8,0:0:0:0:
256,191,87694,1,8,0:0:0:0:
256,191,87769,1,0,0:0:0:0:
256,191,87919,1,8,0:0:0:0:
256,191,88069,1,0,0:0:0:0:
256,191,88144,1,0,0:0:0:0:
256,191,88219,1,8,0:0:0:0:
256,191,88294,1,8,0:0:0:0:
256,191,88369,1,0,0:0:0:0:
256,191,88669,1,4,0:0:0:0:
256,191,89269,1,4,0:0:0:0:
256,191,89869,1,4,0:0:0:0:
256,191,90469,1,4,0:0:0:0:
256,191,90619,1,0,0:0:0:0:
256,191,90694,1,0,0:0:0:0:
256,191,90769,1,8,0:0:0:0:
256,191,90919,1,8,0:0:0:0:
256,192,91069,1,4,0:0:0:0:
256,192,91369,1,0,0:0:0:0:
256,192,91669,1,8,0:0:0:0:
256,192,92269,1,8,0:0:0:0:
256,192,92419,1,0,0:0:0:0:
256,192,92569,1,0,0:0:0:0:
256,192,92719,1,8,0:0:0:0:
256,192,92869,1,0,0:0:0:0:
256,192,93169,1,0,0:0:0:0:
256,192,93469,1,8,0:0:0:0:
256,192,93769,1,0,0:0:0:0:
256,192,93919,1,8,0:0:0:0:
256,192,94069,1,0,0:0:0:0:
259,193,94369,1,0,0:0:0:0:
256,192,94669,1,8,0:0:0:0:
256,192,94969,1,8,0:0:0:0:
256,192,95119,1,0,0:0:0:0:
259,193,95269,1,0,0:0:0:0:
256,192,95569,1,8,0:0:0:0:
256,192,95869,1,4,0:0:0:0:
256,192,96169,1,0,0:0:0:0:
256,192,96469,1,8,0:0:0:0:
256,192,97069,1,8,0:0:0:0:
256,192,97219,1,8,0:0:0:0:
256,192,97369,1,0,0:0:0:0:
256,192,97519,1,8,0:0:0:0:
256,192,97669,1,0,0:0:0:0:
256,192,97969,1,0,0:0:0:0:
256,192,98269,1,8,0:0:0:0:
256,192,98569,1,8,0:0:0:0:
256,192,98719,1,0,0:0:0:0:
256,192,98869,1,8,0:0:0:0:
256,192,99169,1,0,0:0:0:0:
256,192,99469,1,8,0:0:0:0:
256,192,99619,1,0,0:0:0:0:
256,192,99694,1,0,0:0:0:0:
256,192,99769,1,8,0:0:0:0:
256,192,99919,1,8,0:0:0:0:
256,192,100069,1,0,0:0:0:0:
256,192,100669,1,4,0:0:0:0:
256,192,100969,1,0,0:0:0:0:
256,192,101269,1,8,0:0:0:0:
256,192,101569,1,0,0:0:0:0:
256,192,101869,1,8,0:0:0:0:
256,192,102019,1,0,0:0:0:0:
256,192,102169,1,0,0:0:0:0:
256,192,102319,1,8,0:0:0:0:
256,192,102469,1,0,0:0:0:0:
256,192,102769,1,0,0:0:0:0:
256,192,103069,1,8,0:0:0:0:
256,192,103369,1,0,0:0:0:0:
256,192,103519,1,8,0:0:0:0:
256,192,103669,1,8,0:0:0:0:
256,192,103969,1,0,0:0:0:0:
256,192,104269,1,8,0:0:0:0:
256,192,104569,1,0,0:0:0:0:
256,192,104719,1,8,0:0:0:0:
256,192,104869,1,0,0:0:0:0:
256,192,105169,1,8,0:0:0:0:
256,192,105469,1,4,0:0:0:0:
256,192,105769,1,0,0:0:0:0:
256,192,106069,1,8,0:0:0:0:
256,192,106369,1,0,0:0:0:0:
256,192,106669,1,8,0:0:0:0:
256,192,106819,1,8,0:0:0:0:
256,192,106969,1,0,0:0:0:0:
256,192,107119,1,8,0:0:0:0:
256,192,107269,1,0,0:0:0:0:
256,192,107569,1,0,0:0:0:0:
256,192,107869,1,8,0:0:0:0:
256,192,107944,1,0,0:0:0:0:
256,192,108019,1,8,0:0:0:0:
256,192,108169,1,8,0:0:0:0:
256,192,108319,1,0,0:0:0:0:
256,192,108469,1,8,0:0:0:0:
256,192,108544,1,8,0:0:0:0:
256,192,108619,1,0,0:0:0:0:
256,192,108769,1,8,0:0:0:0:
256,192,108919,1,0,0:0:0:0:
256,192,109069,1,12,0:0:0:0:
256,192,109219,5,12,0:0:0:0:
256,192,109369,1,4,0:0:0:0:
256,192,109519,1,4,0:0:0:0:
256,192,109669,1,12,0:0:0:0:
256,192,110269,5,4,0:0:0:0:
256,192,110719,1,8,0:0:0:0:
256,192,111469,1,8,0:0:0:0:
256,192,111544,1,0,0:0:0:0:
256,192,111619,1,0,0:0:0:0:
256,192,111769,1,8,0:0:0:0:
256,192,111919,1,0,0:0:0:0:
256,192,112069,1,8,0:0:0:0:
256,192,112144,1,8,0:0:0:0:
256,192,112219,1,0,0:0:0:0:
256,192,112369,1,0,0:0:0:0:
255,192,112519,1,8,0:0:0:0:
256,192,112669,1,4,0:0:0:0:
256,192,113119,1,8,0:0:0:0:
256,192,113869,1,8,0:0:0:0:
256,192,114019,1,0,0:0:0:0:
256,192,114169,1,0,0:0:0:0:
256,192,114469,1,8,0:0:0:0:
256,192,114619,1,0,0:0:0:0:
256,192,114769,1,8,0:0:0:0:
256,192,115069,1,4,0:0:0:0:
256,192,115519,1,8,0:0:0:0:
256,192,116269,1,8,0:0:0:0:
256,192,116344,1,8,0:0:0:0:
256,192,116419,1,0,0:0:0:0:
256,192,116569,1,0,0:0:0:0:
256,192,116719,1,0,0:0:0:0:
256,192,116869,1,8,0:0:0:0:
256,192,116944,1,0,0:0:0:0:
256,192,117019,1,0,0:0:0:0:
256,192,117169,1,0,0:0:0:0:
256,192,117319,1,8,0:0:0:0:
256,192,117469,1,4,0:0:0:0:
256,192,117919,1,8,0:0:0:0:
256,192,118369,1,0,0:0:0:0:
256,192,118519,1,0,0:0:0:0:
256,192,118669,1,8,0:0:0:0:
256,192,118819,1,0,0:0:0:0:
256,192,119119,1,0,0:0:0:0:
256,192,119269,1,8,0:0:0:0:
256,192,119419,1,0,0:0:0:0:
256,192,119719,1,0,0:0:0:0:
256,192,119869,1,4,0:0:0:0:
256,192,120319,1,8,0:0:0:0:
256,192,121069,1,8,0:0:0:0:
256,192,121144,1,0,0:0:0:0:
256,193,121219,1,0,0:0:0:0:
256,193,121369,1,8,0:0:0:0:
256,193,121519,1,0,0:0:0:0:
256,193,121669,1,8,0:0:0:0:
256,193,121744,1,8,0:0:0:0:
256,193,121819,1,0,0:0:0:0:
256,193,121969,1,0,0:0:0:0:
256,193,122119,1,8,0:0:0:0:
256,193,122269,1,4,0:0:0:0:
256,193,122719,1,8,0:0:0:0:
256,193,123469,1,8,0:0:0:0:
256,193,123619,1,0,0:0:0:0:
256,193,123769,1,8,0:0:0:0:
256,193,124069,1,0,0:0:0:0:
256,193,124219,1,8,0:0:0:0:
256,193,124369,1,8,0:0:0:0:
256,193,124669,1,4,0:0:0:0:
256,193,125119,1,8,0:0:0:0:
256,193,125869,1,8,0:0:0:0:
256,193,125944,1,8,0:0:0:0:
256,193,126019,1,0,0:0:0:0:
256,192,126169,1,0,0:0:0:0:
256,192,126319,1,0,0:0:0:0:
256,192,126469,1,8,0:0:0:0:
256,192,126544,1,0,0:0:0:0:
256,192,126619,1,0,0:0:0:0:
256,192,126769,1,0,0:0:0:0:
256,192,126919,1,8,0:0:0:0:
256,192,127069,1,4,0:0:0:0:
256,192,127519,1,8,0:0:0:0:
256,192,127969,1,8,0:0:0:0:
256,192,128044,1,8,0:0:0:0:
256,192,128119,1,8,0:0:0:0:
256,192,128269,1,4,0:0:0:0:
256,192,128469,1,4,0:0:0:0:
256,192,128669,1,4,0:0:0:0:
256,192,128869,1,4,0:0:0:0:
256,192,129469,1,4,0:0:0:0:
256,192,129919,1,0,0:0:0:0:
256,192,130369,1,0,0:0:0:0:
256,192,130669,1,8,0:0:0:0:
256,192,130969,1,0,0:0:0:0:
256,192,131269,1,8,0:0:0:0:
256,192,131419,1,0,0:0:0:0:
256,192,131569,1,8,0:0:0:0:
256,192,131869,1,0,0:0:0:0:
256,192,132319,1,0,0:0:0:0:
256,192,132769,1,0,0:0:0:0:
256,192,133069,1,8,0:0:0:0:
256,192,133219,1,0,0:0:0:0:
256,192,133369,1,0,0:0:0:0:
256,192,133519,1,0,0:0:0:0:
256,192,133669,1,8,0:0:0:0:
256,192,133969,1,8,0:0:0:0:
256,192,134269,1,4,0:0:0:0:
256,192,134719,1,0,0:0:0:0:
256,192,135169,1,0,0:0:0:0:
256,192,135469,1,8,0:0:0:0:
256,192,135769,1,0,0:0:0:0:
256,192,136069,1,0,0:0:0:0:
256,192,136219,1,8,0:0:0:0:
256,192,136369,1,8,0:0:0:0:
256,192,136669,1,0,0:0:0:0:
256,192,137119,1,0,0:0:0:0:
256,192,137569,1,0,0:0:0:0:
256,192,137869,1,8,0:0:0:0:
256,192,138019,1,8,0:0:0:0:
256,192,138094,1,0,0:0:0:0:
256,192,138169,1,8,0:0:0:0:
256,192,138319,1,0,0:0:0:0:
256,192,138469,1,8,0:0:0:0:
256,192,138769,1,0,0:0:0:0:
256,192,139069,1,4,0:0:0:0:
256,192,139969,1,0,0:0:0:0:
256,192,140269,1,12,0:0:0:0:
256,192,141469,1,12,0:0:0:0:
256,192,141919,1,8,0:0:0:0:
256,192,142669,1,4,0:0:0:0:
256,192,143269,1,8,0:0:0:0:
256,192,143869,1,12,0:0:0:0:
256,192,144769,1,0,0:0:0:0:
256,192,145069,1,12,0:0:0:0:
256,192,145969,1,0,0:0:0:0:
256,192,146044,1,0,0:0:0:0:
256,192,146119,1,0,0:0:0:0:
256,192,146269,1,12,0:0:0:0:
256,192,147469,5,0,0:0:0:0:
256,192,147769,1,0,0:0:0:0:
256,192,148069,1,12,0:0:0:0:
256,192,152719,5,0,0:0:0:0:
256,192,152794,1,0,0:0:0:0:
256,192,152869,1,8,0:0:0:0:
256,192,153019,1,0,0:0:0:0:
256,192,153169,1,0,0:0:0:0:
256,192,153319,1,8,0:0:0:0:
256,192,153469,1,4,0:0:0:0:
256,192,154669,1,12,0:0:0:0:
256,192,155119,1,0,0:0:0:0:
256,192,155194,1,0,0:0:0:0:
256,192,155269,1,8,0:0:0:0:
256,192,155419,1,8,0:0:0:0:
256,192,155569,1,0,0:0:0:0:
256,192,155869,1,12,0:0:0:0:
256,192,156169,1,0,0:0:0:0:
256,192,156319,1,0,0:0:0:0:
256,192,156469,1,8,0:0:0:0:
256,192,156769,1,0,0:0:0:0:
256,192,157069,1,8,0:0:0:0:
256,192,157369,1,8,0:0:0:0:
256,192,157519,1,0,0:0:0:0:
256,192,157669,1,0,0:0:0:0:
256,192,157969,1,8,0:0:0:0:
256,192,158269,1,0,0:0:0:0:
256,192,158569,1,0,0:0:0:0:
256,192,158869,1,8,0:0:0:0:
256,192,159469,1,8,0:0:0:0:
256,192,159619,1,8,0:0:0:0:
256,192,159769,1,0,0:0:0:0:
256,192,159919,1,8,0:0:0:0:
256,192,160069,1,0,0:0:0:0:
256,192,160369,1,0,0:0:0:0:
256,192,160669,1,8,0:0:0:0:
256,192,160969,1,8,0:0:0:0:
256,192,161119,1,0,0:0:0:0:
256,192,161269,1,8,0:0:0:0:
256,192,161569,1,0,0:0:0:0:
256,192,161869,1,8,0:0:0:0:
256,192,162019,1,0,0:0:0:0:
256,192,162094,1,0,0:0:0:0:
256,192,162169,1,8,0:0:0:0:
256,192,162319,1,8,0:0:0:0:
256,192,162469,1,0,0:0:0:0:
256,192,163069,1,4,0:0:0:0:
256,192,163369,1,0,0:0:0:0:
256,192,163669,1,8,0:0:0:0:
256,192,163969,1,0,0:0:0:0:
256,192,164269,1,8,0:0:0:0:
256,192,164419,1,0,0:0:0:0:
256,192,164569,1,0,0:0:0:0:
256,192,164719,1,8,0:0:0:0:
256,192,164869,1,0,0:0:0:0:
256,192,165169,1,0,0:0:0:0:
256,192,165469,1,8,0:0:0:0:
256,192,165769,1,0,0:0:0:0:
256,192,165919,1,0,0:0:0:0:
256,192,166069,1,8,0:0:0:0:
256,192,166369,1,0,0:0:0:0:
256,192,166669,1,8,0:0:0:0:
256,192,166969,1,8,0:0:0:0:
256,192,167119,1,8,0:0:0:0:
256,192,167269,1,0,0:0:0:0:
256,192,167569,1,8,0:0:0:0:
256,192,167869,1,4,0:0:0:0:
256,192,168169,1,0,0:0:0:0:
256,192,168469,1,8,0:0:0:0:
256,192,168769,1,0,0:0:0:0:
256,192,169069,1,8,0:0:0:0:
256,192,169219,1,8,0:0:0:0:
256,192,169369,1,0,0:0:0:0:
256,192,169519,1,8,0:0:0:0:
256,192,169669,1,0,0:0:0:0:
256,192,169969,1,0,0:0:0:0:
256,192,170269,1,8,0:0:0:0:
256,192,170569,1,8,0:0:0:0:
256,192,170719,1,0,0:0:0:0:
256,192,170869,1,8,0:0:0:0:
256,192,171169,1,0,0:0:0:0:
256,192,171469,1,8,0:0:0:0:
256,192,171769,1,0,0:0:0:0:
256,192,171919,1,0,0:0:0:0:
256,192,172069,1,8,0:0:0:0:
256,192,172669,1,4,0:0:0:0:
256,192,172969,1,0,0:0:0:0:
256,192,173269,1,8,0:0:0:0:
256,192,173569,1,0,0:0:0:0:
256,192,173869,1,8,0:0:0:0:
256,192,174019,1,0,0:0:0:0:
256,192,174169,1,0,0:0:0:0:
256,192,174319,1,8,0:0:0:0:
256,192,174469,1,0,0:0:0:0:
256,192,174769,1,0,0:0:0:0:
256,192,175069,1,8,0:0:0:0:
256,192,175369,1,0,0:0:0:0:
256,192,175519,1,8,0:0:0:0:
256,192,175669,1,0,0:0:0:0:
256,192,175969,1,0,0:0:0:0:
256,192,176269,1,8,0:0:0:0:
256,192,176569,1,8,0:0:0:0:
256,192,176719,1,0,0:0:0:0:
256,192,176869,1,0,0:0:0:0:
256,192,177169,1,8,0:0:0:0:
256,192,177469,1,4,0:0:0:0:
256,192,177769,1,0,0:0:0:0:
256,192,178069,1,8,0:0:0:0:
256,192,178369,1,0,0:0:0:0:
256,192,178669,1,8,0:0:0:0:
256,192,178819,1,8,0:0:0:0:
256,192,178969,1,0,0:0:0:0:
256,192,179119,1,8,0:0:0:0:
256,192,179269,1,0,0:0:0:0:
256,192,179569,1,0,0:0:0:0:
256,192,179869,1,8,0:0:0:0:
256,192,180169,1,8,0:0:0:0:
256,192,180319,1,0,0:0:0:0:
256,192,180469,1,8,0:0:0:0:
256,192,180619,1,0,0:0:0:0:
256,192,180769,1,8,0:0:0:0:
256,192,181069,1,8,0:0:0:0:
256,192,181369,1,0,0:0:0:0:
256,192,181519,1,8,0:0:0:0:
256,192,181669,1,8,0:0:0:0:
256,192,181969,1,0,0:0:0:0:
256,192,182269,1,4,0:0:0:0:
256,192,183169,1,0,0:0:0:0:
256,192,183319,1,0,0:0:0:0:
256,192,183469,1,8,0:0:0:0:
256,192,184669,1,8,0:0:0:0:
256,192,185569,1,0,0:0:0:0:
256,192,185869,1,8,0:0:0:0:
256,192,186169,1,8,0:0:0:0:
256,192,186319,1,0,0:0:0:0:
256,192,186469,1,8,0:0:0:0:
256,192,186769,1,8,0:0:0:0:
256,192,187069,1,4,0:0:0:0:
256,192,187969,1,0,0:0:0:0:
256,192,188119,1,0,0:0:0:0:
256,192,188269,1,8,0:0:0:0:
256,192,188569,1,0,0:0:0:0:
256,192,188719,1,8,0:0:0:0:
256,192,188869,1,8,0:0:0:0:
256,192,189019,1,8,0:0:0:0:
256,192,189169,1,0,0:0:0:0:
256,192,189469,1,8,0:0:0:0:
256,192,189544,1,8,0:0:0:0:
256,192,189619,1,0,0:0:0:0:
256,192,189769,1,8,0:0:0:0:
256,192,189919,1,0,0:0:0:0:
256,192,190069,1,8,0:0:0:0:
256,192,190144,1,8,0:0:0:0:
256,192,190219,1,0,0:0:0:0:
256,192,190369,1,8,0:0:0:0:
256,192,190519,1,0,0:0:0:0:
256,192,190669,1,12,0:0:0:0:
256,192,190819,1,12,0:0:0:0:
256,192,190969,1,4,0:0:0:0:
256,192,191119,1,4,0:0:0:0:
256,192,191269,1,12,0:0:0:0:
256,192,191869,1,8,0:0:0:0:
256,192,191944,1,8,0:0:0:0:
256,192,192019,1,0,0:0:0:0:
256,192,192169,1,8,0:0:0:0:
256,192,192319,1,0,0:0:0:0:
256,192,192469,1,8,0:0:0:0:
256,192,192544,1,8,0:0:0:0:
256,192,192619,1,0,0:0:0:0:
256,192,192769,1,8,0:0:0:0:
256,192,192919,1,0,0:0:0:0:
256,192,193069,1,12,0:0:0:0:
256,192,193219,1,12,0:0:0:0:
256,192,193369,1,4,0:0:0:0:
256,192,193519,1,4,0:0:0:0:
256,192,193669,1,12,0:0:0:0:
256,192,194269,1,12,0:0:0:0:
256,192,194569,1,12,0:0:0:0:
256,192,194869,1,4,0:0:0:0:
256,192,195169,1,4,0:0:0:0:
256,192,195469,1,12,0:0:0:0:
256,192,195769,1,12,0:0:0:0:
256,192,196069,1,4,0:0:0:0:
256,192,196369,1,4,0:0:0:0:
256,192,196669,1,12,0:0:0:0:
256,192,196969,1,4,0:0:0:0:
256,192,197269,1,12,0:0:0:0:
256,192,197569,1,4,0:0:0:0:
256,192,197869,1,12,0:0:0:0:
256,192,198319,1,0,0:0:0:0:
256,192,198394,1,0,0:0:0:0:
256,192,198469,1,0,0:0:0:0:
256,192,199069,1,4,0:0:0:0:
256,192,199219,12,0,207469,0:0:0:0:
