osu file format v14

[General]
AudioFilename: audio.ogg
AudioLeadIn: 0
PreviewTime: 59772
Countdown: 0
SampleSet: Soft
StackLeniency: 0.7
Mode: 3
LetterboxInBreaks: 0
SpecialStyle: 0
WidescreenStoryboard: 0

[Editor]
Bookmarks: 37954,46681,51045,55409,59772,68500,77227,94681,99045,103409,112136,120863,129590,138318,153590,162318,171045,180863,189590,207045,215772,220136,222318,224500
DistanceSpacing: 1.5
BeatDivisor: 4
GridSize: 32
TimelineZoom: 2

[Metadata]
Title:Sorochinskaya Yarmarka
TitleUnicode:Сорочинская Ярмарка
Artist:Zmey Gorynich
ArtistUnicode:Zmey Gorynich
Creator:keksikosu
Version:MAKE ME DANCE, OR YOU DIE
Source:
Tags:death extreme metal folk metalcore progressive rock deathcore breakdown music jumpstream js chordjack chord jack cj russian русский mother russia stamina Maxim-Miau Demether Grail Mityay Дмитрий Лебедев Dmitriy Lebedev Rys Александра Сидорова Alexandra Sidorova Змей Горыныч
BeatmapID:3914452
BeatmapSetID:1899136

[Difficulty]
HPDrainRate:8.5
CircleSize:4
OverallDifficulty:8.5
ApproachRate:5
SliderMultiplier:1.4
SliderTickRate:1

[Events]
//Background and Video events
0,0,"d6e95295855eac1380239940fac24346.jpg",0,0
//Break Periods
//Storyboard Layer 0 (Background)
//Storyboard Layer 1 (Fail)
//Storyboard Layer 2 (Pass)
//Storyboard Layer 3 (Foreground)
//Storyboard Layer 4 (Overlay)
//Storyboard Sound Samples

[TimingPoints]
20500,272.727272727273,4,2,1,30,1,0
46681,-100,4,2,1,20,0,0
48045,-100,4,2,1,30,0,0
48863,-100,4,2,1,20,0,0
49954,-100,4,2,1,30,0,0
54318,-100,4,2,1,20,0,0
55409,-100,4,2,1,30,0,0
59772,-100,4,2,1,30,0,1
76681,-100,4,2,1,30,0,0
94681,-100,4,2,1,20,0,0
96863,-100,4,2,1,30,0,0
103409,-100,4,2,1,30,0,1
120318,-100,4,2,1,30,0,0
162045,-100,4,2,1,20,0,0
171045,-100,4,2,1,30,0,0
180863,-100,4,2,1,30,0,1
189045,-100,4,2,1,30,0,0
206500,-100,4,2,1,20,0,0
207045,-100,4,2,1,30,0,1
220136,-100,4,2,1,20,0,0
222045,-100,4,2,1,30,0,1
224500,-100,4,2,1,30,0,0

[HitObjects]
192,192,20500,5,0,0:0:0:0:
64,192,20500,1,0,0:0:0:0:
320,192,20500,1,0,0:0:0:0:
448,192,20568,1,0,0:0:0:0:
192,192,20636,1,0,0:0:0:0:
64,192,20704,1,0,0:0:0:0:
448,192,20772,1,0,0:0:0:0:
320,192,20772,1,0,0:0:0:0:
192,192,20840,1,0,0:0:0:0:
448,192,20909,1,0,0:0:0:0:
192,192,20977,1,0,0:0:0:0:
448,192,21045,1,0,0:0:0:0:
320,192,21045,1,0,0:0:0:0:
64,192,21113,1,0,0:0:0:0:
192,192,21181,1,0,0:0:0:0:
448,192,21250,1,0,0:0:0:0:
320,192,21318,1,0,0:0:0:0:
192,192,21318,1,0,0:0:0:0:
64,192,21386,1,0,0:0:0:0:
320,192,21454,1,0,0:0:0:0:
192,192,21522,1,0,0:0:0:0:
64,192,21590,1,0,0:0:0:0:
448,192,21590,1,0,0:0:0:0:
320,192,21659,1,0,0:0:0:0:
192,192,21727,1,0,0:0:0:0:
320,192,21795,1,0,0:0:0:0:
64,192,21863,1,0,0:0:0:0:
192,192,21863,1,0,0:0:0:0:
448,192,21931,1,0,0:0:0:0:
64,192,22000,1,0,0:0:0:0:
320,192,22000,1,0,0:0:0:0:
192,192,22068,1,0,0:0:0:0:
448,192,22136,1,0,0:0:0:0:
320,192,22136,1,0,0:0:0:0:
192,192,22204,1,0,0:0:0:0:
64,192,22272,1,0,0:0:0:0:
320,192,22340,1,0,0:0:0:0:
192,192,22409,1,0,0:0:0:0:
448,192,22409,1,0,0:0:0:0:
320,192,22477,1,0,0:0:0:0:
448,192,22545,1,0,0:0:0:0:
64,192,22613,1,0,0:0:0:0:
320,192,22681,1,0,0:0:0:0:
192,192,22681,1,0,0:0:0:0:
448,192,22750,1,0,0:0:0:0:
320,192,22818,1,0,0:0:0:0:
192,192,22886,1,0,0:0:0:0:
448,192,22954,1,0,0:0:0:0:
64,192,22954,1,0,0:0:0:0:
320,192,23022,1,0,0:0:0:0:
64,192,23090,1,0,0:0:0:0:
320,192,23159,1,0,0:0:0:0:
64,192,23227,1,0,0:0:0:0:
448,192,23227,1,0,0:0:0:0:
192,192,23295,1,0,0:0:0:0:
320,192,23363,1,0,0:0:0:0:
64,192,23431,1,0,0:0:0:0:
448,192,23500,1,0,0:0:0:0:
320,192,23500,1,0,0:0:0:0:
192,192,23568,1,0,0:0:0:0:
448,192,23636,1,0,0:0:0:0:
320,192,23704,1,0,0:0:0:0:
192,192,23772,1,0,0:0:0:0:
64,192,23772,1,0,0:0:0:0:
448,192,23840,1,0,0:0:0:0:
320,192,23909,1,0,0:0:0:0:
192,192,23909,1,0,0:0:0:0:
64,192,23977,1,0,0:0:0:0:
320,192,24045,1,0,0:0:0:0:
448,192,24045,1,0,0:0:0:0:
192,192,24113,1,0,0:0:0:0:
64,192,24181,1,0,0:0:0:0:
320,192,24181,1,0,0:0:0:0:
448,192,24250,1,0,0:0:0:0:
192,192,24318,1,0,0:0:0:0:
64,192,24318,1,0,0:0:0:0:
320,192,24386,1,0,0:0:0:0:
192,192,24454,1,0,0:0:0:0:
64,192,24522,1,0,0:0:0:0:
320,192,24590,1,0,0:0:0:0:
448,192,24590,1,0,0:0:0:0:
192,192,24659,1,0,0:0:0:0:
64,192,24659,1,0,0:0:0:0:
320,192,24727,1,0,0:0:0:0:
448,192,24727,1,0,0:0:0:0:
192,192,24795,1,0,0:0:0:0:
64,192,24795,1,0,0:0:0:0:
320,192,24863,1,0,0:0:0:0:
448,192,24863,1,0,0:0:0:0:
192,192,24931,1,0,0:0:0:0:
448,192,25000,1,0,0:0:0:0:
320,192,25068,1,0,0:0:0:0:
192,192,25136,1,0,0:0:0:0:
64,192,25136,1,0,0:0:0:0:
448,192,25204,1,0,0:0:0:0:
64,192,25272,1,0,0:0:0:0:
320,192,25340,1,0,0:0:0:0:
64,192,25409,1,0,0:0:0:0:
192,192,25409,1,0,0:0:0:0:
320,192,25477,1,0,0:0:0:0:
448,192,25545,1,0,0:0:0:0:
192,192,25613,1,0,0:0:0:0:
64,192,25681,1,0,0:0:0:0:
448,192,25681,1,0,0:0:0:0:
320,192,25750,1,0,0:0:0:0:
64,192,25818,1,0,0:0:0:0:
192,192,25886,1,0,0:0:0:0:
320,192,25954,1,0,0:0:0:0:
448,192,25954,1,0,0:0:0:0:
192,192,26022,1,0,0:0:0:0:
448,192,26090,1,0,0:0:0:0:
64,192,26159,1,0,0:0:0:0:
192,192,26227,1,0,0:0:0:0:
320,192,26227,1,0,0:0:0:0:
448,192,26295,1,0,0:0:0:0:
192,192,26363,1,0,0:0:0:0:
64,192,26363,1,0,0:0:0:0:
320,192,26431,1,0,0:0:0:0:
192,192,26500,1,0,0:0:0:0:
448,192,26500,1,0,0:0:0:0:
64,192,26568,1,0,0:0:0:0:
320,192,26636,1,0,0:0:0:0:
192,192,26704,1,0,0:0:0:0:
448,192,26772,1,0,0:0:0:0:
64,192,26772,1,0,0:0:0:0:
320,192,26840,1,0,0:0:0:0:
448,192,26909,1,0,0:0:0:0:
192,192,26977,1,0,0:0:0:0:
64,192,27045,1,0,0:0:0:0:
320,192,27045,1,0,0:0:0:0:
192,192,27113,1,0,0:0:0:0:
64,192,27181,1,0,0:0:0:0:
448,192,27250,1,0,0:0:0:0:
320,192,27318,1,0,0:0:0:0:
192,192,27318,1,0,0:0:0:0:
64,192,27386,1,0,0:0:0:0:
320,192,27454,1,0,0:0:0:0:
64,192,27522,1,0,0:0:0:0:
320,192,27590,1,0,0:0:0:0:
192,192,27590,1,0,0:0:0:0:
448,192,27659,1,0,0:0:0:0:
64,192,27727,1,0,0:0:0:0:
192,192,27795,1,0,0:0:0:0:
320,192,27863,1,0,0:0:0:0:
448,192,27863,1,0,0:0:0:0:
192,192,27931,1,0,0:0:0:0:
64,192,28000,1,0,0:0:0:0:
320,192,28068,1,0,0:0:0:0:
448,192,28136,1,0,0:0:0:0:
192,192,28136,1,0,0:0:0:0:
320,192,28204,1,0,0:0:0:0:
192,192,28272,1,0,0:0:0:0:
64,192,28272,1,0,0:0:0:0:
448,192,28340,1,0,0:0:0:0:
64,192,28409,1,0,0:0:0:0:
320,192,28409,1,0,0:0:0:0:
192,192,28477,1,0,0:0:0:0:
320,192,28545,1,0,0:0:0:0:
448,192,28545,1,0,0:0:0:0:
192,192,28613,1,0,0:0:0:0:
64,192,28681,1,0,0:0:0:0:
448,192,28681,1,0,0:0:0:0:
192,192,28750,1,0,0:0:0:0:
320,192,28750,1,0,0:0:0:0:
64,192,28818,1,0,0:0:0:0:
448,192,28818,1,0,0:0:0:0:
320,192,28886,1,0,0:0:0:0:
192,192,28954,1,0,0:0:0:0:
64,192,28954,1,0,0:0:0:0:
320,192,29022,1,0,0:0:0:0:
448,192,29022,1,0,0:0:0:0:
192,192,29090,1,0,0:0:0:0:
64,192,29090,1,0,0:0:0:0:
448,192,29159,1,0,0:0:0:0:
192,192,29227,1,0,0:0:0:0:
64,192,29227,1,0,0:0:0:0:
320,192,29227,1,0,0:0:0:0:
448,192,29295,1,0,0:0:0:0:
320,192,29363,1,0,0:0:0:0:
64,192,29431,1,0,0:0:0:0:
192,192,29500,1,0,0:0:0:0:
448,192,29500,1,0,0:0:0:0:
320,192,29568,1,0,0:0:0:0:
192,192,29636,1,0,0:0:0:0:
320,192,29704,1,0,0:0:0:0:
192,192,29772,1,0,0:0:0:0:
448,192,29772,1,0,0:0:0:0:
64,192,29840,1,0,0:0:0:0:
320,192,29909,1,0,0:0:0:0:
192,192,29977,1,0,0:0:0:0:
64,192,30045,1,0,0:0:0:0:
448,192,30045,1,0,0:0:0:0:
320,192,30113,1,0,0:0:0:0:
192,192,30181,1,0,0:0:0:0:
448,192,30250,1,0,0:0:0:0:
64,192,30318,1,0,0:0:0:0:
192,192,30318,1,0,0:0:0:0:
320,192,30386,1,0,0:0:0:0:
448,192,30454,1,0,0:0:0:0:
192,192,30522,1,0,0:0:0:0:
64,192,30590,1,0,0:0:0:0:
320,192,30590,1,0,0:0:0:0:
192,192,30659,1,0,0:0:0:0:
320,192,30727,1,0,0:0:0:0:
448,192,30727,1,0,0:0:0:0:
64,192,30795,1,0,0:0:0:0:
192,192,30863,1,0,0:0:0:0:
448,192,30863,1,0,0:0:0:0:
320,192,30931,1,0,0:0:0:0:
64,192,31000,1,0,0:0:0:0:
192,192,31068,1,0,0:0:0:0:
448,192,31136,1,0,0:0:0:0:
64,192,31136,1,0,0:0:0:0:
320,192,31204,1,0,0:0:0:0:
448,192,31272,1,0,0:0:0:0:
64,192,31340,1,0,0:0:0:0:
192,192,31409,1,0,0:0:0:0:
320,192,31409,1,0,0:0:0:0:
448,192,31477,1,0,0:0:0:0:
64,192,31545,1,0,0:0:0:0:
320,192,31613,1,0,0:0:0:0:
192,192,31681,1,0,0:0:0:0:
64,192,31681,1,0,0:0:0:0:
448,192,31750,1,0,0:0:0:0:
192,192,31818,1,0,0:0:0:0:
320,192,31886,1,0,0:0:0:0:
64,192,31954,1,0,0:0:0:0:
192,192,31954,1,0,0:0:0:0:
448,192,32022,1,0,0:0:0:0:
320,192,32090,1,0,0:0:0:0:
192,192,32159,1,0,0:0:0:0:
320,192,32227,1,0,0:0:0:0:
448,192,32227,1,0,0:0:0:0:
64,192,32295,1,0,0:0:0:0:
448,192,32363,1,0,0:0:0:0:
192,192,32431,1,0,0:0:0:0:
64,192,32500,1,0,0:0:0:0:
320,192,32500,1,0,0:0:0:0:
192,192,32568,1,0,0:0:0:0:
64,192,32636,1,0,0:0:0:0:
448,192,32636,1,0,0:0:0:0:
320,192,32704,1,0,0:0:0:0:
448,192,32772,1,0,0:0:0:0:
192,192,32772,1,0,0:0:0:0:
320,192,32840,1,0,0:0:0:0:
64,192,32909,1,0,0:0:0:0:
192,192,32909,1,0,0:0:0:0:
448,192,32977,1,0,0:0:0:0:
64,192,33045,1,0,0:0:0:0:
320,192,33045,1,0,0:0:0:0:
192,192,33113,1,0,0:0:0:0:
320,192,33181,1,0,0:0:0:0:
448,192,33250,1,0,0:0:0:0:
64,192,33318,1,0,0:0:0:0:
192,192,33318,1,0,0:0:0:0:
448,192,33386,1,0,0:0:0:0:
320,192,33386,1,0,0:0:0:0:
64,192,33454,1,0,0:0:0:0:
192,192,33454,1,0,0:0:0:0:
320,192,33522,1,0,0:0:0:0:
448,192,33522,1,0,0:0:0:0:
192,192,33590,1,0,0:0:0:0:
64,192,33590,1,0,0:0:0:0:
320,192,33659,1,0,0:0:0:0:
64,192,33727,1,0,0:0:0:0:
192,192,33795,1,0,0:0:0:0:
320,192,33863,1,0,0:0:0:0:
448,192,33863,1,0,0:0:0:0:
64,192,33931,1,0,0:0:0:0:
448,192,34000,1,0,0:0:0:0:
192,192,34068,1,0,0:0:0:0:
448,192,34136,1,0,0:0:0:0:
320,192,34136,1,0,0:0:0:0:
192,192,34204,1,0,0:0:0:0:
64,192,34272,1,0,0:0:0:0:
448,192,34340,1,0,0:0:0:0:
64,192,34409,1,0,0:0:0:0:
320,192,34409,1,0,0:0:0:0:
192,192,34477,1,0,0:0:0:0:
320,192,34545,1,0,0:0:0:0:
448,192,34613,1,0,0:0:0:0:
192,192,34681,1,0,0:0:0:0:
64,192,34681,1,0,0:0:0:0:
320,192,34750,1,0,0:0:0:0:
192,192,34818,1,0,0:0:0:0:
320,192,34886,1,0,0:0:0:0:
64,192,34954,1,0,0:0:0:0:
448,192,34954,1,0,0:0:0:0:
192,192,35022,1,0,0:0:0:0:
320,192,35090,1,0,0:0:0:0:
448,192,35090,1,0,0:0:0:0:
192,192,35159,1,0,0:0:0:0:
64,192,35227,1,0,0:0:0:0:
320,192,35227,1,0,0:0:0:0:
448,192,35295,1,0,0:0:0:0:
192,192,35363,1,0,0:0:0:0:
320,192,35431,1,0,0:0:0:0:
192,192,35500,1,0,0:0:0:0:
64,192,35500,1,0,0:0:0:0:
448,192,35568,1,0,0:0:0:0:
320,192,35636,1,0,0:0:0:0:
192,192,35704,1,0,0:0:0:0:
320,192,35772,1,0,0:0:0:0:
448,192,35772,1,0,0:0:0:0:
64,192,35840,1,0,0:0:0:0:
192,192,35909,1,0,0:0:0:0:
320,192,35977,1,0,0:0:0:0:
64,192,36045,1,0,0:0:0:0:
448,192,36045,1,0,0:0:0:0:
192,192,36113,1,0,0:0:0:0:
448,192,36181,1,0,0:0:0:0:
192,192,36250,1,0,0:0:0:0:
64,192,36318,1,0,0:0:0:0:
448,192,36318,1,0,0:0:0:0:
320,192,36386,1,0,0:0:0:0:
192,192,36454,1,0,0:0:0:0:
64,192,36522,1,0,0:0:0:0:
320,192,36590,1,0,0:0:0:0:
448,192,36590,1,0,0:0:0:0:
192,192,36659,1,0,0:0:0:0:
320,192,36727,1,0,0:0:0:0:
448,192,36795,1,0,0:0:0:0:
192,192,36863,1,0,0:0:0:0:
64,192,36863,1,0,0:0:0:0:
448,192,36931,1,0,0:0:0:0:
320,192,36931,1,0,0:0:0:0:
192,192,37000,1,0,0:0:0:0:
64,192,37000,1,0,0:0:0:0:
320,192,37068,1,0,0:0:0:0:
448,192,37068,1,0,0:0:0:0:
192,192,37136,1,0,0:0:0:0:
64,192,37136,1,0,0:0:0:0:
320,192,37204,1,0,0:0:0:0:
64,192,37272,1,0,0:0:0:0:
448,192,37272,1,0,0:0:0:0:
192,192,37340,1,0,0:0:0:0:
448,192,37409,1,0,0:0:0:0:
320,192,37409,1,0,0:0:0:0:
64,192,37477,1,0,0:0:0:0:
320,192,37545,1,0,0:0:0:0:
64,192,37613,1,0,0:0:0:0:
320,192,37681,1,0,0:0:0:0:
64,192,37750,1,0,0:0:0:0:
320,192,37818,1,0,0:0:0:0:
64,192,37886,1,0,0:0:0:0:
320,192,37954,1,0,0:0:0:0:
192,192,37954,1,0,0:0:0:0:
448,192,38090,1,0,0:0:0:0:
192,192,38090,1,0,0:0:0:0:
64,192,38090,1,0,0:0:0:0:
320,192,38227,1,0,0:0:0:0:
192,192,38295,1,0,0:0:0:0:
448,192,38363,1,0,0:0:0:0:
320,192,38363,1,0,0:0:0:0:
64,192,38363,1,0,0:0:0:0:
448,192,38500,1,0,0:0:0:0:
192,192,38500,1,0,0:0:0:0:
320,192,38636,1,0,0:0:0:0:
192,192,38636,1,0,0:0:0:0:
64,192,38636,1,0,0:0:0:0:
448,192,38772,1,0,0:0:0:0:
320,192,38840,1,0,0:0:0:0:
64,192,38909,1,0,0:0:0:0:
192,192,38909,1,0,0:0:0:0:
448,192,38909,1,0,0:0:0:0:
320,192,39045,1,0,0:0:0:0:
64,192,39045,1,0,0:0:0:0:
192,192,39181,1,0,0:0:0:0:
448,192,39181,1,0,0:0:0:0:
320,192,39181,1,0,0:0:0:0:
192,192,39318,128,0,39454:0:0:0:0:
64,192,39318,1,0,0:0:0:0:
448,192,39454,128,0,39590:0:0:0:0:
320,192,39454,1,0,0:0:0:0:
64,192,39590,128,0,39727:0:0:0:0:
192,192,39590,1,0,0:0:0:0:
320,192,39727,128,0,39863:0:0:0:0:
448,192,39727,1,0,0:0:0:0:
192,192,39863,128,0,40000:0:0:0:0:
64,192,39863,1,0,0:0:0:0:
448,192,40000,128,0,40136:0:0:0:0:
320,192,40000,1,0,0:0:0:0:
64,192,40136,1,0,0:0:0:0:
192,192,40136,1,0,0:0:0:0:
64,192,40272,1,0,0:0:0:0:
448,192,40272,1,0,0:0:0:0:
320,192,40272,1,0,0:0:0:0:
192,192,40409,1,0,0:0:0:0:
320,192,40477,1,0,0:0:0:0:
192,192,40545,1,0,0:0:0:0:
64,192,40545,1,0,0:0:0:0:
448,192,40545,1,0,0:0:0:0:
448,192,40681,1,0,0:0:0:0:
320,192,40681,1,0,0:0:0:0:
64,192,40818,1,0,0:0:0:0:
192,192,40818,1,0,0:0:0:0:
320,192,40818,1,0,0:0:0:0:
448,192,40954,1,0,0:0:0:0:
64,192,41022,1,0,0:0:0:0:
192,192,41090,1,0,0:0:0:0:
320,192,41090,1,0,0:0:0:0:
448,192,41090,1,0,0:0:0:0:
64,192,41227,1,0,0:0:0:0:
320,192,41227,1,0,0:0:0:0:
192,192,41363,1,0,0:0:0:0:
64,192,41363,1,0,0:0:0:0:
448,192,41363,1,0,0:0:0:0:
320,192,41500,128,0,41636:0:0:0:0:
448,192,41500,1,0,0:0:0:0:
192,192,41636,128,0,41772:0:0:0:0:
64,192,41636,1,0,0:0:0:0:
320,192,41772,128,0,41909:0:0:0:0:
448,192,41772,1,0,0:0:0:0:
64,192,41909,128,0,42045:0:0:0:0:
192,192,41909,1,0,0:0:0:0:
320,192,42045,1,0,0:0:0:0:
192,192,42045,1,0,0:0:0:0:
448,192,42045,128,0,42318:0:0:0:0:
192,192,42318,1,0,0:0:0:0:
64,192,42318,1,0,0:0:0:0:
320,192,42454,1,0,0:0:0:0:
448,192,42454,1,0,0:0:0:0:
64,192,42454,1,0,0:0:0:0:
192,192,42590,1,0,0:0:0:0:
448,192,42659,1,0,0:0:0:0:
320,192,42727,1,0,0:0:0:0:
192,192,42727,1,0,0:0:0:0:
64,192,42727,1,0,0:0:0:0:
448,192,42863,1,0,0:0:0:0:
64,192,42863,1,0,0:0:0:0:
192,192,43000,1,0,0:0:0:0:
320,192,43000,1,0,0:0:0:0:
448,192,43000,1,0,0:0:0:0:
64,192,43136,1,0,0:0:0:0:
192,192,43204,1,0,0:0:0:0:
320,192,43272,1,0,0:0:0:0:
64,192,43272,1,0,0:0:0:0:
448,192,43272,1,0,0:0:0:0:
192,192,43409,1,0,0:0:0:0:
448,192,43409,1,0,0:0:0:0:
64,192,43545,1,0,0:0:0:0:
320,192,43545,1,0,0:0:0:0:
192,192,43545,1,0,0:0:0:0:
448,192,43681,1,0,0:0:0:0:
320,192,43681,128,0,43818:0:0:0:0:
192,192,43818,1,0,0:0:0:0:
64,192,43818,128,0,43954:0:0:0:0:
320,192,43954,1,0,0:0:0:0:
448,192,43954,128,0,44090:0:0:0:0:
64,192,44090,1,0,0:0:0:0:
192,192,44090,128,0,44227:0:0:0:0:
448,192,44227,1,0,0:0:0:0:
320,192,44227,128,0,44363:0:0:0:0:
64,192,44363,128,0,44500:0:0:0:0:
192,192,44363,1,0,0:0:0:0:
320,192,44500,1,0,0:0:0:0:
448,192,44500,1,0,0:0:0:0:
192,192,44636,1,0,0:0:0:0:
64,192,44636,1,0,0:0:0:0:
448,192,44636,1,0,0:0:0:0:
320,192,44772,1,0,0:0:0:0:
192,192,44840,1,0,0:0:0:0:
320,192,44909,1,0,0:0:0:0:
64,192,44909,1,0,0:0:0:0:
448,192,44909,1,0,0:0:0:0:
192,192,45045,1,0,0:0:0:0:
448,192,45045,1,0,0:0:0:0:
192,192,45181,1,0,0:0:0:0:
64,192,45181,1,0,0:0:0:0:
320,192,45181,1,0,0:0:0:0:
448,192,45318,1,0,0:0:0:0:
64,192,45386,1,0,0:0:0:0:
192,192,45454,1,0,0:0:0:0:
448,192,45454,1,0,0:0:0:0:
320,192,45454,1,0,0:0:0:0:
64,192,45590,1,0,0:0:0:0:
320,192,45590,1,0,0:0:0:0:
192,192,45659,1,0,0:0:0:0:
320,192,45727,1,0,0:0:0:0:
192,192,45795,1,0,0:0:0:0:
320,192,45863,1,0,0:0:0:0:
448,192,45863,1,0,0:0:0:0:
192,192,45931,1,0,0:0:0:0:
64,192,45931,1,0,0:0:0:0:
320,192,46000,1,0,0:0:0:0:
448,192,46000,1,0,0:0:0:0:
192,192,46068,1,0,0:0:0:0:
64,192,46068,1,0,0:0:0:0:
448,192,46136,1,0,0:0:0:0:
64,192,46204,1,0,0:0:0:0:
448,192,46272,1,0,0:0:0:0:
64,192,46340,1,0,0:0:0:0:
320,192,46409,1,0,0:0:0:0:
192,192,46477,1,0,0:0:0:0:
320,192,46545,1,0,0:0:0:0:
192,192,46613,1,0,0:0:0:0:
320,192,46681,1,0,0:0:0:0:
64,192,46681,1,0,0:0:0:0:
448,192,46681,128,0,46750:0:0:0:0:
448,192,46818,128,0,46886:0:0:0:0:
192,192,46954,128,0,47045:0:0:0:0:
320,192,47045,128,0,47136:0:0:0:0:
448,192,47136,128,0,47227:0:0:0:0:
64,192,47227,128,0,47295:0:0:0:0:
64,192,47363,128,0,47431:0:0:0:0:
320,192,47500,128,0,47590:0:0:0:0:
192,192,47590,128,0,47681:0:0:0:0:
64,192,47681,128,0,47772:0:0:0:0:
448,192,47772,128,0,47840:0:0:0:0:
448,192,47909,128,0,47977:0:0:0:0:
192,192,48045,1,0,0:0:0:0:
64,192,48045,1,0,0:0:0:0:
320,192,48045,1,0,0:0:0:0:
448,192,48181,1,0,0:0:0:0:
192,192,48181,1,0,0:0:0:0:
320,192,48318,1,0,0:0:0:0:
64,192,48318,1,0,0:0:0:0:
192,192,48454,1,0,0:0:0:0:
448,192,48454,1,0,0:0:0:0:
64,192,48590,1,0,0:0:0:0:
320,192,48590,1,0,0:0:0:0:
448,192,48590,1,0,0:0:0:0:
320,192,48727,1,0,0:0:0:0:
64,192,48727,1,0,0:0:0:0:
448,192,48727,1,0,0:0:0:0:
64,192,48863,1,0,0:0:0:0:
320,192,48863,1,0,0:0:0:0:
192,192,48863,128,0,48931:0:0:0:0:
192,192,49000,128,0,49068:0:0:0:0:
320,192,49136,128,0,49272:0:0:0:0:
448,192,49272,128,0,49409:0:0:0:0:
64,192,49409,128,0,49681:0:0:0:0:
320,192,49681,128,0,49750:0:0:0:0:
320,192,49818,128,0,49886:0:0:0:0:
64,192,49886,1,0,0:0:0:0:
192,192,49954,1,0,0:0:0:0:
320,192,49954,1,0,0:0:0:0:
448,192,49954,1,0,0:0:0:0:
64,192,50090,1,0,0:0:0:0:
320,192,50090,1,0,0:0:0:0:
192,192,50227,1,0,0:0:0:0:
64,192,50227,1,0,0:0:0:0:
448,192,50227,1,0,0:0:0:0:
192,192,50363,1,0,0:0:0:0:
320,192,50363,1,0,0:0:0:0:
448,192,50500,1,0,0:0:0:0:
320,192,50500,1,0,0:0:0:0:
192,192,50568,1,0,0:0:0:0:
64,192,50568,1,0,0:0:0:0:
320,192,50636,1,0,0:0:0:0:
448,192,50636,1,0,0:0:0:0:
192,192,50704,1,0,0:0:0:0:
64,192,50704,1,0,0:0:0:0:
320,192,50772,1,0,0:0:0:0:
448,192,50840,1,0,0:0:0:0:
64,192,50909,1,0,0:0:0:0:
192,192,50977,1,0,0:0:0:0:
448,192,51045,1,0,0:0:0:0:
320,192,51045,1,0,0:0:0:0:
192,192,51113,1,0,0:0:0:0:
64,192,51113,1,0,0:0:0:0:
320,192,51181,1,0,0:0:0:0:
448,192,51181,1,0,0:0:0:0:
192,192,51318,1,0,0:0:0:0:
320,192,51318,1,0,0:0:0:0:
192,192,51454,1,0,0:0:0:0:
64,192,51454,1,0,0:0:0:0:
320,192,51590,1,0,0:0:0:0:
448,192,51590,1,0,0:0:0:0:
64,192,51590,1,0,0:0:0:0:
192,192,51727,1,0,0:0:0:0:
448,192,51727,1,0,0:0:0:0:
192,192,51863,128,0,52000:0:0:0:0:
320,192,51863,128,0,52000:0:0:0:0:
448,192,52136,1,0,0:0:0:0:
64,192,52136,1,0,0:0:0:0:
192,192,52204,1,0,0:0:0:0:
320,192,52204,1,0,0:0:0:0:
64,192,52272,1,0,0:0:0:0:
448,192,52272,1,0,0:0:0:0:
64,192,52409,1,0,0:0:0:0:
320,192,52409,1,0,0:0:0:0:
192,192,52545,1,0,0:0:0:0:
320,192,52545,1,0,0:0:0:0:
192,192,52681,1,0,0:0:0:0:
448,192,52681,1,0,0:0:0:0:
64,192,52681,1,0,0:0:0:0:
320,192,52818,1,0,0:0:0:0:
64,192,52818,1,0,0:0:0:0:
192,192,52954,128,0,53090:0:0:0:0:
320,192,52954,128,0,53090:0:0:0:0:
320,192,53227,1,0,0:0:0:0:
192,192,53227,1,0,0:0:0:0:
448,192,53295,1,0,0:0:0:0:
64,192,53295,1,0,0:0:0:0:
192,192,53363,1,0,0:0:0:0:
320,192,53363,1,0,0:0:0:0:
320,192,53500,1,0,0:0:0:0:
64,192,53500,1,0,0:0:0:0:
448,192,53636,1,0,0:0:0:0:
64,192,53636,1,0,0:0:0:0:
192,192,53772,1,0,0:0:0:0:
448,192,53772,1,0,0:0:0:0:
320,192,53772,1,0,0:0:0:0:
192,192,53909,1,0,0:0:0:0:
64,192,53909,1,0,0:0:0:0:
320,192,54045,128,0,54181:0:0:0:0:
64,192,54045,128,0,54181:0:0:0:0:
448,192,54045,128,0,54181:0:0:0:0:
320,192,54318,1,0,0:0:0:0:
320,192,54454,1,0,0:0:0:0:
64,192,54590,1,0,0:0:0:0:
64,192,54727,1,0,0:0:0:0:
448,192,54863,1,0,0:0:0:0:
448,192,55000,1,0,0:0:0:0:
192,192,55136,128,0,55409:0:0:0:0:
64,192,55409,1,0,0:0:0:0:
448,192,55409,1,0,0:0:0:0:
320,192,55477,1,0,0:0:0:0:
192,192,55545,1,0,0:0:0:0:
64,192,55545,1,0,0:0:0:0:
448,192,55613,1,0,0:0:0:0:
320,192,55681,1,0,0:0:0:0:
192,192,55681,1,0,0:0:0:0:
64,192,55750,1,0,0:0:0:0:
448,192,55750,1,0,0:0:0:0:
192,192,55818,1,0,0:0:0:0:
320,192,55818,1,0,0:0:0:0:
64,192,55886,1,0,0:0:0:0:
448,192,55954,1,0,0:0:0:0:
320,192,55954,1,0,0:0:0:0:
192,192,56022,1,0,0:0:0:0:
64,192,56090,1,0,0:0:0:0:
448,192,56090,1,0,0:0:0:0:
320,192,56159,1,0,0:0:0:0:
192,192,56227,1,0,0:0:0:0:
64,192,56227,1,0,0:0:0:0:
320,192,56295,1,0,0:0:0:0:
448,192,56295,1,0,0:0:0:0:
192,192,56363,1,0,0:0:0:0:
64,192,56363,1,0,0:0:0:0:
448,192,56431,1,0,0:0:0:0:
320,192,56500,1,0,0:0:0:0:
192,192,56500,1,0,0:0:0:0:
64,192,56568,1,0,0:0:0:0:
448,192,56636,1,0,0:0:0:0:
320,192,56636,1,0,0:0:0:0:
192,192,56704,1,0,0:0:0:0:
64,192,56772,1,0,0:0:0:0:
320,192,56772,1,0,0:0:0:0:
448,192,56840,1,0,0:0:0:0:
192,192,56909,1,0,0:0:0:0:
64,192,56909,1,0,0:0:0:0:
320,192,56977,1,0,0:0:0:0:
448,192,57045,1,0,0:0:0:0:
64,192,57045,1,0,0:0:0:0:
192,192,57113,1,0,0:0:0:0:
320,192,57181,1,0,0:0:0:0:
448,192,57181,1,0,0:0:0:0:
64,192,57250,1,0,0:0:0:0:
192,192,57318,1,0,0:0:0:0:
448,192,57318,1,0,0:0:0:0:
320,192,57386,1,0,0:0:0:0:
192,192,57454,1,0,0:0:0:0:
64,192,57454,1,0,0:0:0:0:
448,192,57522,1,0,0:0:0:0:
320,192,57590,1,0,0:0:0:0:
64,192,57590,1,0,0:0:0:0:
192,192,57659,1,0,0:0:0:0:
448,192,57727,1,0,0:0:0:0:
320,192,57727,1,0,0:0:0:0:
192,192,57795,1,0,0:0:0:0:
64,192,57863,1,0,0:0:0:0:
448,192,57863,1,0,0:0:0:0:
320,192,57931,1,0,0:0:0:0:
192,192,58000,1,0,0:0:0:0:
64,192,58000,1,0,0:0:0:0:
320,192,58068,1,0,0:0:0:0:
448,192,58136,1,0,0:0:0:0:
64,192,58136,1,0,0:0:0:0:
192,192,58204,1,0,0:0:0:0:
320,192,58272,1,0,0:0:0:0:
448,192,58272,1,0,0:0:0:0:
64,192,58340,1,0,0:0:0:0:
192,192,58409,1,0,0:0:0:0:
320,192,58409,1,0,0:0:0:0:
448,192,58477,1,0,0:0:0:0:
192,192,58545,1,0,0:0:0:0:
64,192,58545,1,0,0:0:0:0:
320,192,58613,1,0,0:0:0:0:
448,192,58681,1,0,0:0:0:0:
64,192,58681,1,0,0:0:0:0:
192,192,58750,1,0,0:0:0:0:
320,192,58750,1,0,0:0:0:0:
64,192,58818,1,0,0:0:0:0:
448,192,58818,1,0,0:0:0:0:
192,192,58886,1,0,0:0:0:0:
320,192,58886,1,0,0:0:0:0:
64,192,58954,1,0,0:0:0:0:
448,192,58954,1,0,0:0:0:0:
320,192,59090,1,0,0:0:0:0:
192,192,59090,1,0,0:0:0:0:
64,192,59227,1,0,0:0:0:0:
448,192,59227,1,0,0:0:0:0:
192,192,59363,1,0,0:0:0:0:
320,192,59363,1,0,0:0:0:0:
192,192,59500,1,0,0:0:0:0:
64,192,59500,1,0,0:0:0:0:
448,192,59500,1,0,0:0:0:0:
320,192,59500,1,0,0:0:0:0:
64,192,59772,5,0,0:0:0:0:
448,192,59772,1,0,0:0:0:0:
192,192,59772,1,0,0:0:0:0:
320,192,59772,1,0,0:0:0:0:
64,192,59909,1,0,0:0:0:0:
192,192,59909,1,0,0:0:0:0:
320,192,60045,1,0,0:0:0:0:
64,192,60045,1,0,0:0:0:0:
448,192,60045,1,0,0:0:0:0:
448,192,60181,1,0,0:0:0:0:
192,192,60181,1,0,0:0:0:0:
320,192,60318,1,0,0:0:0:0:
192,192,60318,1,0,0:0:0:0:
192,192,60454,1,0,0:0:0:0:
320,192,60454,1,0,0:0:0:0:
320,192,60590,1,0,0:0:0:0:
448,192,60590,1,0,0:0:0:0:
64,192,60590,1,0,0:0:0:0:
64,192,60727,1,0,0:0:0:0:
192,192,60727,1,0,0:0:0:0:
320,192,60863,1,0,0:0:0:0:
448,192,60863,1,0,0:0:0:0:
448,192,61000,1,0,0:0:0:0:
320,192,61000,1,0,0:0:0:0:
448,192,61136,1,0,0:0:0:0:
64,192,61136,1,0,0:0:0:0:
192,192,61136,1,0,0:0:0:0:
320,192,61272,1,0,0:0:0:0:
192,192,61272,1,0,0:0:0:0:
448,192,61409,1,0,0:0:0:0:
64,192,61409,1,0,0:0:0:0:
64,192,61545,1,0,0:0:0:0:
448,192,61545,1,0,0:0:0:0:
64,192,61681,1,0,0:0:0:0:
320,192,61681,1,0,0:0:0:0:
448,192,61681,1,0,0:0:0:0:
192,192,61750,1,0,0:0:0:0:
320,192,61818,1,0,0:0:0:0:
192,192,61886,1,0,0:0:0:0:
320,192,61954,1,0,0:0:0:0:
192,192,62022,1,0,0:0:0:0:
320,192,62090,1,0,0:0:0:0:
192,192,62159,1,0,0:0:0:0:
64,192,62227,1,0,0:0:0:0:
320,192,62227,1,0,0:0:0:0:
448,192,62227,1,0,0:0:0:0:
192,192,62363,1,0,0:0:0:0:
448,192,62363,1,0,0:0:0:0:
64,192,62500,1,0,0:0:0:0:
320,192,62500,1,0,0:0:0:0:
64,192,62636,1,0,0:0:0:0:
320,192,62636,1,0,0:0:0:0:
448,192,62772,1,0,0:0:0:0:
192,192,62772,1,0,0:0:0:0:
64,192,62772,1,0,0:0:0:0:
320,192,62909,1,0,0:0:0:0:
448,192,62909,1,0,0:0:0:0:
64,192,63045,1,0,0:0:0:0:
192,192,63045,1,0,0:0:0:0:
64,192,63181,1,0,0:0:0:0:
192,192,63181,1,0,0:0:0:0:
448,192,63318,1,0,0:0:0:0:
320,192,63318,1,0,0:0:0:0:
192,192,63318,1,0,0:0:0:0:
64,192,63454,1,0,0:0:0:0:
448,192,63454,1,0,0:0:0:0:
320,192,63590,1,0,0:0:0:0:
192,192,63590,1,0,0:0:0:0:
192,192,63727,1,0,0:0:0:0:
320,192,63727,1,0,0:0:0:0:
64,192,63863,1,0,0:0:0:0:
192,192,63863,1,0,0:0:0:0:
448,192,63863,1,0,0:0:0:0:
320,192,64000,1,0,0:0:0:0:
448,192,64000,1,0,0:0:0:0:
64,192,64000,1,0,0:0:0:0:
192,192,64136,1,0,0:0:0:0:
320,192,64136,1,0,0:0:0:0:
448,192,64272,1,0,0:0:0:0:
64,192,64272,1,0,0:0:0:0:
192,192,64409,1,0,0:0:0:0:
320,192,64409,1,0,0:0:0:0:
448,192,64409,1,0,0:0:0:0:
64,192,64545,1,0,0:0:0:0:
192,192,64545,1,0,0:0:0:0:
320,192,64681,1,0,0:0:0:0:
448,192,64681,1,0,0:0:0:0:
320,192,64818,1,0,0:0:0:0:
448,192,64818,1,0,0:0:0:0:
320,192,64954,1,0,0:0:0:0:
192,192,64954,1,0,0:0:0:0:
64,192,64954,1,0,0:0:0:0:
448,192,65090,1,0,0:0:0:0:
192,192,65090,1,0,0:0:0:0:
320,192,65227,1,0,0:0:0:0:
64,192,65227,1,0,0:0:0:0:
64,192,65363,1,0,0:0:0:0:
320,192,65363,1,0,0:0:0:0:
448,192,65500,1,0,0:0:0:0:
320,192,65500,1,0,0:0:0:0:
192,192,65500,1,0,0:0:0:0:
64,192,65636,1,0,0:0:0:0:
448,192,65636,1,0,0:0:0:0:
320,192,65772,1,0,0:0:0:0:
192,192,65772,1,0,0:0:0:0:
192,192,65909,1,0,0:0:0:0:
320,192,65909,1,0,0:0:0:0:
64,192,66045,1,0,0:0:0:0:
192,192,66045,1,0,0:0:0:0:
448,192,66045,1,0,0:0:0:0:
320,192,66113,1,0,0:0:0:0:
64,192,66181,1,0,0:0:0:0:
320,192,66250,1,0,0:0:0:0:
64,192,66318,1,0,0:0:0:0:
320,192,66386,1,0,0:0:0:0:
64,192,66454,1,0,0:0:0:0:
320,192,66522,1,0,0:0:0:0:
448,192,66590,1,0,0:0:0:0:
192,192,66590,1,0,0:0:0:0:
64,192,66590,1,0,0:0:0:0:
320,192,66727,1,0,0:0:0:0:
192,192,66727,1,0,0:0:0:0:
448,192,66863,1,0,0:0:0:0:
64,192,66863,1,0,0:0:0:0:
64,192,67000,1,0,0:0:0:0:
448,192,67000,1,0,0:0:0:0:
448,192,67136,1,0,0:0:0:0:
192,192,67136,1,0,0:0:0:0:
320,192,67136,1,0,0:0:0:0:
320,192,67272,1,0,0:0:0:0:
64,192,67272,1,0,0:0:0:0:
192,192,67409,1,0,0:0:0:0:
448,192,67409,1,0,0:0:0:0:
192,192,67545,1,0,0:0:0:0:
448,192,67545,1,0,0:0:0:0:
448,192,67681,1,0,0:0:0:0:
320,192,67681,1,0,0:0:0:0:
64,192,67681,1,0,0:0:0:0:
192,192,67818,1,0,0:0:0:0:
320,192,67818,1,0,0:0:0:0:
192,192,67954,1,0,0:0:0:0:
64,192,67954,1,0,0:0:0:0:
448,192,67954,1,0,0:0:0:0:
192,192,68090,1,0,0:0:0:0:
64,192,68090,1,0,0:0:0:0:
448,192,68090,1,0,0:0:0:0:
320,192,68227,1,0,0:0:0:0:
448,192,68227,1,0,0:0:0:0:
192,192,68363,1,0,0:0:0:0:
320,192,68363,1,0,0:0:0:0:
64,192,68500,1,0,0:0:0:0:
192,192,68500,1,0,0:0:0:0:
320,192,68500,1,0,0:0:0:0:
448,192,68500,1,0,0:0:0:0:
448,192,68636,1,0,0:0:0:0:
64,192,68772,1,0,0:0:0:0:
192,192,68772,1,0,0:0:0:0:
64,192,68909,1,0,0:0:0:0:
192,192,68909,1,0,0:0:0:0:
448,192,69045,1,0,0:0:0:0:
320,192,69045,128,0,69318:0:0:0:0:
64,192,69045,128,0,69318:0:0:0:0:
192,192,69318,1,0,0:0:0:0:
448,192,69318,1,0,0:0:0:0:
192,192,69454,1,0,0:0:0:0:
448,192,69454,1,0,0:0:0:0:
320,192,69590,1,0,0:0:0:0:
64,192,69590,128,0,69863:0:0:0:0:
448,192,69590,128,0,69863:0:0:0:0:
192,192,69863,1,0,0:0:0:0:
320,192,69863,1,0,0:0:0:0:
192,192,70000,1,0,0:0:0:0:
320,192,70000,1,0,0:0:0:0:
64,192,70136,1,0,0:0:0:0:
192,192,70136,128,0,70409:0:0:0:0:
448,192,70136,128,0,70409:0:0:0:0:
320,192,70409,1,0,0:0:0:0:
64,192,70477,1,0,0:0:0:0:
320,192,70545,1,0,0:0:0:0:
64,192,70613,1,0,0:0:0:0:
448,192,70681,1,0,0:0:0:0:
192,192,70750,1,0,0:0:0:0:
448,192,70818,1,0,0:0:0:0:
192,192,70886,1,0,0:0:0:0:
448,192,70954,1,0,0:0:0:0:
320,192,70954,1,0,0:0:0:0:
320,192,71090,1,0,0:0:0:0:
448,192,71090,1,0,0:0:0:0:
192,192,71227,1,0,0:0:0:0:
320,192,71227,1,0,0:0:0:0:
64,192,71227,1,0,0:0:0:0:
64,192,71363,1,0,0:0:0:0:
448,192,71500,1,0,0:0:0:0:
192,192,71500,1,0,0:0:0:0:
192,192,71636,1,0,0:0:0:0:
448,192,71636,1,0,0:0:0:0:
64,192,71772,1,0,0:0:0:0:
192,192,71772,128,0,72045:0:0:0:0:
320,192,71772,128,0,72045:0:0:0:0:
64,192,72045,1,0,0:0:0:0:
448,192,72045,1,0,0:0:0:0:
64,192,72181,1,0,0:0:0:0:
448,192,72181,1,0,0:0:0:0:
192,192,72318,1,0,0:0:0:0:
320,192,72318,128,0,72590:0:0:0:0:
448,192,72318,128,0,72590:0:0:0:0:
192,192,72590,1,0,0:0:0:0:
64,192,72590,1,0,0:0:0:0:
64,192,72727,1,0,0:0:0:0:
192,192,72863,1,0,0:0:0:0:
64,192,72863,1,0,0:0:0:0:
320,192,72863,1,0,0:0:0:0:
448,192,72863,1,0,0:0:0:0:
320,192,73000,1,0,0:0:0:0:
192,192,73136,1,0,0:0:0:0:
448,192,73136,1,0,0:0:0:0:
192,192,73272,1,0,0:0:0:0:
448,192,73272,1,0,0:0:0:0:
320,192,73409,1,0,0:0:0:0:
64,192,73409,128,0,73681:0:0:0:0:
192,192,73409,128,0,73681:0:0:0:0:
448,192,73681,1,0,0:0:0:0:
320,192,73681,1,0,0:0:0:0:
448,192,73818,1,0,0:0:0:0:
320,192,73818,1,0,0:0:0:0:
192,192,73954,1,0,0:0:0:0:
64,192,73954,128,0,74227:0:0:0:0:
320,192,73954,128,0,74227:0:0:0:0:
448,192,74227,1,0,0:0:0:0:
192,192,74227,1,0,0:0:0:0:
192,192,74363,1,0,0:0:0:0:
448,192,74363,1,0,0:0:0:0:
64,192,74500,1,0,0:0:0:0:
192,192,74500,128,0,74772:0:0:0:0:
320,192,74500,128,0,74772:0:0:0:0:
448,192,74772,1,0,0:0:0:0:
64,192,74840,1,0,0:0:0:0:
448,192,74909,1,0,0:0:0:0:
64,192,74977,1,0,0:0:0:0:
320,192,75045,1,0,0:0:0:0:
192,192,75113,1,0,0:0:0:0:
320,192,75181,1,0,0:0:0:0:
192,192,75250,1,0,0:0:0:0:
64,192,75318,1,0,0:0:0:0:
448,192,75318,1,0,0:0:0:0:
320,192,75454,1,0,0:0:0:0:
192,192,75454,1,0,0:0:0:0:
448,192,75454,1,0,0:0:0:0:
64,192,75590,128,0,75727:0:0:0:0:
192,192,75590,128,0,75727:0:0:0:0:
320,192,75590,128,0,75727:0:0:0:0:
64,192,75863,1,0,0:0:0:0:
448,192,75863,1,0,0:0:0:0:
320,192,76000,1,0,0:0:0:0:
192,192,76000,1,0,0:0:0:0:
64,192,76000,1,0,0:0:0:0:
192,192,76136,128,0,76272:0:0:0:0:
320,192,76136,128,0,76272:0:0:0:0:
448,192,76136,128,0,76272:0:0:0:0:
64,192,76409,1,0,0:0:0:0:
192,192,76409,1,0,0:0:0:0:
64,192,76545,1,0,0:0:0:0:
448,192,76545,1,0,0:0:0:0:
320,192,76545,1,0,0:0:0:0:
64,192,76681,128,0,76818:0:0:0:0:
192,192,76681,128,0,76818:0:0:0:0:
448,192,76681,128,0,76818:0:0:0:0:
448,192,77227,1,0,0:0:0:0:
320,192,77227,1,0,0:0:0:0:
64,192,77227,1,0,0:0:0:0:
192,192,77295,1,0,0:0:0:0:
320,192,77363,1,0,0:0:0:0:
64,192,77431,1,0,0:0:0:0:
448,192,77500,1,0,0:0:0:0:
192,192,77500,1,0,0:0:0:0:
320,192,77568,1,0,0:0:0:0:
192,192,77636,1,0,0:0:0:0:
320,192,77704,1,0,0:0:0:0:
448,192,77772,1,0,0:0:0:0:
192,192,77772,1,0,0:0:0:0:
64,192,77840,1,0,0:0:0:0:
320,192,77909,1,0,0:0:0:0:
192,192,77977,1,0,0:0:0:0:
448,192,78045,1,0,0:0:0:0:
320,192,78045,1,0,0:0:0:0:
64,192,78113,1,0,0:0:0:0:
192,192,78181,1,0,0:0:0:0:
448,192,78250,1,0,0:0:0:0:
320,192,78318,1,0,0:0:0:0:
64,192,78318,1,0,0:0:0:0:
192,192,78386,1,0,0:0:0:0:
448,192,78454,1,0,0:0:0:0:
320,192,78522,1,0,0:0:0:0:
192,192,78590,1,0,0:0:0:0:
448,192,78590,1,0,0:0:0:0:
64,192,78659,1,0,0:0:0:0:
320,192,78727,1,0,0:0:0:0:
192,192,78727,1,0,0:0:0:0:
448,192,78795,1,0,0:0:0:0:
64,192,78863,1,0,0:0:0:0:
320,192,78863,1,0,0:0:0:0:
192,192,78931,1,0,0:0:0:0:
64,192,79000,1,0,0:0:0:0:
320,192,79068,1,0,0:0:0:0:
448,192,79136,1,0,0:0:0:0:
192,192,79136,1,0,0:0:0:0:
64,192,79204,1,0,0:0:0:0:
448,192,79272,1,0,0:0:0:0:
320,192,79340,1,0,0:0:0:0:
64,192,79409,1,0,0:0:0:0:
192,192,79409,1,0,0:0:0:0:
320,192,79477,1,0,0:0:0:0:
192,192,79545,1,0,0:0:0:0:
64,192,79613,1,0,0:0:0:0:
320,192,79681,1,0,0:0:0:0:
448,192,79681,1,0,0:0:0:0:
192,192,79750,1,0,0:0:0:0:
320,192,79818,1,0,0:0:0:0:
192,192,79886,1,0,0:0:0:0:
320,192,79954,1,0,0:0:0:0:
448,192,79954,1,0,0:0:0:0:
64,192,80022,1,0,0:0:0:0:
192,192,80090,1,0,0:0:0:0:
448,192,80159,1,0,0:0:0:0:
320,192,80227,1,0,0:0:0:0:
64,192,80227,1,0,0:0:0:0:
192,192,80295,1,0,0:0:0:0:
64,192,80363,1,0,0:0:0:0:
448,192,80431,1,0,0:0:0:0:
192,192,80500,1,0,0:0:0:0:
320,192,80500,1,0,0:0:0:0:
64,192,80568,1,0,0:0:0:0:
448,192,80636,1,0,0:0:0:0:
320,192,80636,1,0,0:0:0:0:
192,192,80704,1,0,0:0:0:0:
448,192,80772,1,0,0:0:0:0:
64,192,80772,1,0,0:0:0:0:
320,192,80840,1,0,0:0:0:0:
192,192,80909,1,0,0:0:0:0:
64,192,80909,1,0,0:0:0:0:
320,192,80977,1,0,0:0:0:0:
448,192,81045,1,0,0:0:0:0:
64,192,81045,1,0,0:0:0:0:
192,192,81113,1,0,0:0:0:0:
320,192,81181,1,0,0:0:0:0:
448,192,81250,1,0,0:0:0:0:
64,192,81318,1,0,0:0:0:0:
192,192,81318,1,0,0:0:0:0:
320,192,81386,1,0,0:0:0:0:
448,192,81386,1,0,0:0:0:0:
192,192,81454,1,0,0:0:0:0:
64,192,81454,1,0,0:0:0:0:
320,192,81522,1,0,0:0:0:0:
448,192,81522,1,0,0:0:0:0:
192,192,81590,1,0,0:0:0:0:
64,192,81590,1,0,0:0:0:0:
448,192,81659,1,0,0:0:0:0:
320,192,81727,1,0,0:0:0:0:
192,192,81795,1,0,0:0:0:0:
64,192,81863,1,0,0:0:0:0:
448,192,81863,1,0,0:0:0:0:
320,192,81931,1,0,0:0:0:0:
64,192,82000,1,0,0:0:0:0:
320,192,82068,1,0,0:0:0:0:
64,192,82136,1,0,0:0:0:0:
448,192,82136,1,0,0:0:0:0:
192,192,82204,1,0,0:0:0:0:
320,192,82272,1,0,0:0:0:0:
64,192,82340,1,0,0:0:0:0:
448,192,82409,1,0,0:0:0:0:
320,192,82409,1,0,0:0:0:0:
192,192,82477,1,0,0:0:0:0:
448,192,82545,1,0,0:0:0:0:
320,192,82613,1,0,0:0:0:0:
192,192,82681,1,0,0:0:0:0:
64,192,82681,1,0,0:0:0:0:
448,192,82750,1,0,0:0:0:0:
192,192,82818,1,0,0:0:0:0:
320,192,82886,1,0,0:0:0:0:
64,192,82954,1,0,0:0:0:0:
448,192,82954,1,0,0:0:0:0:
192,192,83022,1,0,0:0:0:0:
320,192,83090,1,0,0:0:0:0:
64,192,83090,1,0,0:0:0:0:
192,192,83159,1,0,0:0:0:0:
320,192,83227,1,0,0:0:0:0:
448,192,83227,1,0,0:0:0:0:
64,192,83295,1,0,0:0:0:0:
448,192,83363,1,0,0:0:0:0:
320,192,83431,1,0,0:0:0:0:
64,192,83500,1,0,0:0:0:0:
192,192,83500,1,0,0:0:0:0:
448,192,83568,1,0,0:0:0:0:
192,192,83636,1,0,0:0:0:0:
320,192,83704,1,0,0:0:0:0:
448,192,83772,1,0,0:0:0:0:
64,192,83772,1,0,0:0:0:0:
192,192,83840,1,0,0:0:0:0:
320,192,83909,1,0,0:0:0:0:
64,192,83977,1,0,0:0:0:0:
192,192,84045,1,0,0:0:0:0:
448,192,84045,1,0,0:0:0:0:
320,192,84113,1,0,0:0:0:0:
448,192,84181,1,0,0:0:0:0:
320,192,84250,1,0,0:0:0:0:
448,192,84318,1,0,0:0:0:0:
192,192,84318,1,0,0:0:0:0:
64,192,84386,1,0,0:0:0:0:
320,192,84454,1,0,0:0:0:0:
448,192,84522,1,0,0:0:0:0:
192,192,84590,1,0,0:0:0:0:
64,192,84590,1,0,0:0:0:0:
320,192,84659,1,0,0:0:0:0:
192,192,84727,1,0,0:0:0:0:
64,192,84795,1,0,0:0:0:0:
320,192,84863,1,0,0:0:0:0:
448,192,84863,1,0,0:0:0:0:
192,192,84931,1,0,0:0:0:0:
64,192,85000,1,0,0:0:0:0:
320,192,85000,1,0,0:0:0:0:
448,192,85068,1,0,0:0:0:0:
192,192,85136,1,0,0:0:0:0:
64,192,85136,1,0,0:0:0:0:
320,192,85204,1,0,0:0:0:0:
448,192,85272,1,0,0:0:0:0:
192,192,85272,1,0,0:0:0:0:
64,192,85340,1,0,0:0:0:0:
320,192,85409,1,0,0:0:0:0:
448,192,85409,1,0,0:0:0:0:
192,192,85477,1,0,0:0:0:0:
64,192,85477,1,0,0:0:0:0:
320,192,85545,1,0,0:0:0:0:
448,192,85545,1,0,0:0:0:0:
192,192,85613,1,0,0:0:0:0:
64,192,85681,1,0,0:0:0:0:
448,192,85681,1,0,0:0:0:0:
320,192,85750,1,0,0:0:0:0:
192,192,85750,1,0,0:0:0:0:
448,192,85818,1,0,0:0:0:0:
64,192,85818,1,0,0:0:0:0:
320,192,85886,1,0,0:0:0:0:
448,192,85954,1,0,0:0:0:0:
192,192,85954,1,0,0:0:0:0:
64,192,85954,1,0,0:0:0:0:
320,192,86022,1,0,0:0:0:0:
192,192,86090,1,0,0:0:0:0:
64,192,86159,1,0,0:0:0:0:
448,192,86227,1,0,0:0:0:0:
320,192,86227,1,0,0:0:0:0:
192,192,86295,1,0,0:0:0:0:
448,192,86363,1,0,0:0:0:0:
192,192,86431,1,0,0:0:0:0:
448,192,86500,1,0,0:0:0:0:
320,192,86500,1,0,0:0:0:0:
64,192,86568,1,0,0:0:0:0:
192,192,86636,1,0,0:0:0:0:
320,192,86704,1,0,0:0:0:0:
192,192,86772,1,0,0:0:0:0:
448,192,86772,1,0,0:0:0:0:
64,192,86840,1,0,0:0:0:0:
320,192,86909,1,0,0:0:0:0:
192,192,86977,1,0,0:0:0:0:
448,192,87045,1,0,0:0:0:0:
64,192,87045,1,0,0:0:0:0:
320,192,87113,1,0,0:0:0:0:
192,192,87181,1,0,0:0:0:0:
320,192,87250,1,0,0:0:0:0:
192,192,87318,1,0,0:0:0:0:
64,192,87318,1,0,0:0:0:0:
448,192,87386,1,0,0:0:0:0:
64,192,87454,1,0,0:0:0:0:
320,192,87454,1,0,0:0:0:0:
192,192,87522,1,0,0:0:0:0:
448,192,87590,1,0,0:0:0:0:
320,192,87590,1,0,0:0:0:0:
64,192,87659,1,0,0:0:0:0:
192,192,87727,1,0,0:0:0:0:
320,192,87795,1,0,0:0:0:0:
448,192,87863,1,0,0:0:0:0:
192,192,87863,1,0,0:0:0:0:
64,192,87931,1,0,0:0:0:0:
320,192,88000,1,0,0:0:0:0:
192,192,88068,1,0,0:0:0:0:
64,192,88136,1,0,0:0:0:0:
448,192,88136,1,0,0:0:0:0:
320,192,88204,1,0,0:0:0:0:
192,192,88272,1,0,0:0:0:0:
448,192,88340,1,0,0:0:0:0:
64,192,88409,1,0,0:0:0:0:
320,192,88409,1,0,0:0:0:0:
192,192,88477,1,0,0:0:0:0:
320,192,88545,1,0,0:0:0:0:
192,192,88613,1,0,0:0:0:0:
320,192,88681,1,0,0:0:0:0:
64,192,88681,1,0,0:0:0:0:
448,192,88750,1,0,0:0:0:0:
192,192,88818,1,0,0:0:0:0:
320,192,88886,1,0,0:0:0:0:
64,192,88954,1,0,0:0:0:0:
448,192,88954,1,0,0:0:0:0:
192,192,89022,1,0,0:0:0:0:
320,192,89090,1,0,0:0:0:0:
64,192,89159,1,0,0:0:0:0:
192,192,89227,1,0,0:0:0:0:
448,192,89227,1,0,0:0:0:0:
320,192,89295,1,0,0:0:0:0:
448,192,89363,1,0,0:0:0:0:
64,192,89363,1,0,0:0:0:0:
192,192,89431,1,0,0:0:0:0:
320,192,89500,1,0,0:0:0:0:
64,192,89500,1,0,0:0:0:0:
448,192,89568,1,0,0:0:0:0:
320,192,89636,1,0,0:0:0:0:
192,192,89636,1,0,0:0:0:0:
64,192,89704,1,0,0:0:0:0:
448,192,89772,1,0,0:0:0:0:
192,192,89772,1,0,0:0:0:0:
320,192,89840,1,0,0:0:0:0:
64,192,89909,1,0,0:0:0:0:
192,192,89977,1,0,0:0:0:0:
448,192,90045,1,0,0:0:0:0:
320,192,90045,1,0,0:0:0:0:
192,192,90113,1,0,0:0:0:0:
64,192,90113,1,0,0:0:0:0:
448,192,90181,1,0,0:0:0:0:
320,192,90181,1,0,0:0:0:0:
64,192,90250,1,0,0:0:0:0:
192,192,90250,1,0,0:0:0:0:
448,192,90318,1,0,0:0:0:0:
320,192,90318,1,0,0:0:0:0:
192,192,90386,1,0,0:0:0:0:
448,192,90454,1,0,0:0:0:0:
320,192,90522,1,0,0:0:0:0:
192,192,90590,1,0,0:0:0:0:
64,192,90590,1,0,0:0:0:0:
448,192,90659,1,0,0:0:0:0:
192,192,90727,1,0,0:0:0:0:
448,192,90795,1,0,0:0:0:0:
192,192,90863,1,0,0:0:0:0:
64,192,90863,1,0,0:0:0:0:
320,192,90931,1,0,0:0:0:0:
448,192,91000,1,0,0:0:0:0:
64,192,91068,1,0,0:0:0:0:
192,192,91136,1,0,0:0:0:0:
320,192,91136,1,0,0:0:0:0:
448,192,91204,1,0,0:0:0:0:
64,192,91272,1,0,0:0:0:0:
320,192,91340,1,0,0:0:0:0:
448,192,91409,1,0,0:0:0:0:
192,192,91409,1,0,0:0:0:0:
320,192,91477,1,0,0:0:0:0:
64,192,91545,1,0,0:0:0:0:
192,192,91613,1,0,0:0:0:0:
320,192,91681,1,0,0:0:0:0:
448,192,91681,1,0,0:0:0:0:
192,192,91750,1,0,0:0:0:0:
448,192,91818,1,0,0:0:0:0:
64,192,91818,1,0,0:0:0:0:
320,192,91886,1,0,0:0:0:0:
64,192,91954,1,0,0:0:0:0:
192,192,91954,1,0,0:0:0:0:
448,192,92022,1,0,0:0:0:0:
320,192,92090,1,0,0:0:0:0:
192,192,92159,1,0,0:0:0:0:
64,192,92227,1,0,0:0:0:0:
320,192,92227,1,0,0:0:0:0:
448,192,92295,1,0,0:0:0:0:
192,192,92363,1,0,0:0:0:0:
320,192,92431,1,0,0:0:0:0:
64,192,92500,1,0,0:0:0:0:
448,192,92500,1,0,0:0:0:0:
320,192,92568,1,0,0:0:0:0:
192,192,92636,1,0,0:0:0:0:
448,192,92704,1,0,0:0:0:0:
320,192,92772,1,0,0:0:0:0:
64,192,92772,1,0,0:0:0:0:
192,192,92840,1,0,0:0:0:0:
64,192,92909,1,0,0:0:0:0:
192,192,92977,1,0,0:0:0:0:
64,192,93045,1,0,0:0:0:0:
320,192,93045,1,0,0:0:0:0:
448,192,93113,1,0,0:0:0:0:
192,192,93181,1,0,0:0:0:0:
64,192,93250,1,0,0:0:0:0:
320,192,93318,1,0,0:0:0:0:
448,192,93318,1,0,0:0:0:0:
192,192,93386,1,0,0:0:0:0:
448,192,93454,1,0,0:0:0:0:
320,192,93522,1,0,0:0:0:0:
192,192,93590,1,0,0:0:0:0:
64,192,93590,1,0,0:0:0:0:
320,192,93659,1,0,0:0:0:0:
448,192,93659,1,0,0:0:0:0:
192,192,93727,1,0,0:0:0:0:
64,192,93727,1,0,0:0:0:0:
320,192,93795,1,0,0:0:0:0:
448,192,93795,1,0,0:0:0:0:
192,192,93863,1,0,0:0:0:0:
64,192,93863,1,0,0:0:0:0:
448,192,93931,1,0,0:0:0:0:
320,192,94000,1,0,0:0:0:0:
64,192,94000,1,0,0:0:0:0:
192,192,94068,1,0,0:0:0:0:
448,192,94136,1,0,0:0:0:0:
320,192,94136,1,0,0:0:0:0:
64,192,94204,1,0,0:0:0:0:
448,192,94272,1,0,0:0:0:0:
64,192,94340,1,0,0:0:0:0:
448,192,94409,1,0,0:0:0:0:
64,192,94477,1,0,0:0:0:0:
448,192,94545,1,0,0:0:0:0:
64,192,94613,1,0,0:0:0:0:
448,192,94681,1,0,0:0:0:0:
192,192,94681,1,0,0:0:0:0:
192,192,94818,1,0,0:0:0:0:
320,192,94954,1,0,0:0:0:0:
320,192,95090,1,0,0:0:0:0:
64,192,95227,1,0,0:0:0:0:
64,192,95348,1,0,0:0:0:0:
448,192,95500,128,0,95636:0:0:0:0:
448,192,95704,1,0,0:0:0:0:
192,192,95772,1,0,0:0:0:0:
64,192,95772,1,0,0:0:0:0:
192,192,95909,1,0,0:0:0:0:
320,192,96045,1,0,0:0:0:0:
320,192,96181,1,0,0:0:0:0:
64,192,96318,1,0,0:0:0:0:
448,192,96318,1,0,0:0:0:0:
448,192,96454,1,0,0:0:0:0:
64,192,96590,128,0,96863:0:0:0:0:
448,192,96863,1,0,0:0:0:0:
192,192,96863,1,0,0:0:0:0:
320,192,96863,1,0,0:0:0:0:
448,192,97000,1,0,0:0:0:0:
448,192,97136,1,0,0:0:0:0:
64,192,97272,1,0,0:0:0:0:
192,192,97272,1,0,0:0:0:0:
64,192,97409,1,0,0:0:0:0:
192,192,97409,1,0,0:0:0:0:
64,192,97545,1,0,0:0:0:0:
448,192,97545,1,0,0:0:0:0:
320,192,97545,1,0,0:0:0:0:
448,192,97681,1,0,0:0:0:0:
64,192,97681,1,0,0:0:0:0:
320,192,97681,1,0,0:0:0:0:
320,192,97818,1,0,0:0:0:0:
448,192,97818,1,0,0:0:0:0:
64,192,97818,1,0,0:0:0:0:
192,192,97954,1,0,0:0:0:0:
320,192,97954,1,0,0:0:0:0:
448,192,98022,1,0,0:0:0:0:
64,192,98022,1,0,0:0:0:0:
320,192,98090,1,0,0:0:0:0:
192,192,98090,1,0,0:0:0:0:
64,192,98159,1,0,0:0:0:0:
448,192,98159,1,0,0:0:0:0:
192,192,98227,1,0,0:0:0:0:
320,192,98295,1,0,0:0:0:0:
448,192,98363,1,0,0:0:0:0:
64,192,98431,1,0,0:0:0:0:
448,192,98500,1,0,0:0:0:0:
320,192,98568,1,0,0:0:0:0:
192,192,98636,1,0,0:0:0:0:
64,192,98704,1,0,0:0:0:0:
320,192,98772,1,0,0:0:0:0:
448,192,98772,1,0,0:0:0:0:
192,192,98840,1,0,0:0:0:0:
64,192,98840,1,0,0:0:0:0:
448,192,98909,1,0,0:0:0:0:
320,192,98909,1,0,0:0:0:0:
192,192,98977,1,0,0:0:0:0:
64,192,98977,1,0,0:0:0:0:
320,192,99045,1,0,0:0:0:0:
448,192,99045,1,0,0:0:0:0:
192,192,99113,1,0,0:0:0:0:
448,192,99181,1,0,0:0:0:0:
64,192,99181,1,0,0:0:0:0:
320,192,99250,1,0,0:0:0:0:
192,192,99318,1,0,0:0:0:0:
64,192,99318,1,0,0:0:0:0:
320,192,99386,1,0,0:0:0:0:
448,192,99386,1,0,0:0:0:0:
192,192,99454,1,0,0:0:0:0:
64,192,99454,1,0,0:0:0:0:
448,192,99522,1,0,0:0:0:0:
320,192,99590,1,0,0:0:0:0:
192,192,99590,1,0,0:0:0:0:
64,192,99659,1,0,0:0:0:0:
448,192,99727,1,0,0:0:0:0:
320,192,99727,1,0,0:0:0:0:
192,192,99795,1,0,0:0:0:0:
64,192,99863,1,0,0:0:0:0:
448,192,99863,1,0,0:0:0:0:
320,192,99931,1,0,0:0:0:0:
192,192,99931,1,0,0:0:0:0:
64,192,100000,1,0,0:0:0:0:
448,192,100000,1,0,0:0:0:0:
320,192,100068,1,0,0:0:0:0:
192,192,100136,1,0,0:0:0:0:
64,192,100136,1,0,0:0:0:0:
448,192,100204,1,0,0:0:0:0:
320,192,100272,1,0,0:0:0:0:
192,192,100272,1,0,0:0:0:0:
64,192,100340,1,0,0:0:0:0:
448,192,100409,1,0,0:0:0:0:
320,192,100409,1,0,0:0:0:0:
192,192,100477,1,0,0:0:0:0:
64,192,100545,1,0,0:0:0:0:
448,192,100545,1,0,0:0:0:0:
320,192,100613,1,0,0:0:0:0:
192,192,100681,1,0,0:0:0:0:
64,192,100681,1,0,0:0:0:0:
320,192,100750,1,0,0:0:0:0:
448,192,100818,1,0,0:0:0:0:
192,192,100818,1,0,0:0:0:0:
64,192,100886,1,0,0:0:0:0:
448,192,100954,1,0,0:0:0:0:
320,192,100954,1,0,0:0:0:0:
192,192,101022,1,0,0:0:0:0:
64,192,101090,1,0,0:0:0:0:
320,192,101090,1,0,0:0:0:0:
448,192,101159,1,0,0:0:0:0:
192,192,101227,1,0,0:0:0:0:
64,192,101227,1,0,0:0:0:0:
320,192,101295,1,0,0:0:0:0:
64,192,101363,1,0,0:0:0:0:
448,192,101363,1,0,0:0:0:0:
192,192,101431,1,0,0:0:0:0:
448,192,101500,1,0,0:0:0:0:
320,192,101500,1,0,0:0:0:0:
64,192,101568,1,0,0:0:0:0:
192,192,101636,1,0,0:0:0:0:
320,192,101636,1,0,0:0:0:0:
448,192,101704,1,0,0:0:0:0:
192,192,101772,1,0,0:0:0:0:
64,192,101772,1,0,0:0:0:0:
320,192,101840,1,0,0:0:0:0:
448,192,101909,1,0,0:0:0:0:
64,192,101909,1,0,0:0:0:0:
192,192,101977,1,0,0:0:0:0:
320,192,102045,1,0,0:0:0:0:
448,192,102045,1,0,0:0:0:0:
192,192,102113,1,0,0:0:0:0:
64,192,102113,1,0,0:0:0:0:
320,192,102181,1,0,0:0:0:0:
448,192,102181,1,0,0:0:0:0:
64,192,102250,1,0,0:0:0:0:
192,192,102318,128,0,102454:0:0:0:0:
320,192,102318,128,0,102386:0:0:0:0:
448,192,102318,128,0,102454:0:0:0:0:
192,192,102590,128,0,102727:0:0:0:0:
320,192,102590,128,0,102659:0:0:0:0:
448,192,102590,128,0,102727:0:0:0:0:
192,192,102863,128,0,103000:0:0:0:0:
320,192,102863,128,0,102931:0:0:0:0:
448,192,102863,128,0,103000:0:0:0:0:
192,192,103136,128,0,103272:0:0:0:0:
320,192,103136,128,0,103204:0:0:0:0:
448,192,103136,128,0,103272:0:0:0:0:
448,192,103409,1,0,0:0:0:0:
320,192,103409,1,0,0:0:0:0:
192,192,103409,1,0,0:0:0:0:
64,192,103409,1,0,0:0:0:0:
320,192,103545,1,0,0:0:0:0:
192,192,103545,1,0,0:0:0:0:
192,192,103681,1,0,0:0:0:0:
64,192,103681,1,0,0:0:0:0:
448,192,103681,1,0,0:0:0:0:
448,192,103818,1,0,0:0:0:0:
320,192,103818,1,0,0:0:0:0:
192,192,103954,1,0,0:0:0:0:
64,192,103954,1,0,0:0:0:0:
192,192,104090,1,0,0:0:0:0:
64,192,104090,1,0,0:0:0:0:
64,192,104227,1,0,0:0:0:0:
320,192,104227,1,0,0:0:0:0:
448,192,104227,1,0,0:0:0:0:
192,192,104363,1,0,0:0:0:0:
320,192,104363,1,0,0:0:0:0:
64,192,104500,1,0,0:0:0:0:
448,192,104500,1,0,0:0:0:0:
448,192,104636,1,0,0:0:0:0:
64,192,104636,1,0,0:0:0:0:
192,192,104772,1,0,0:0:0:0:
320,192,104772,1,0,0:0:0:0:
448,192,104772,1,0,0:0:0:0:
64,192,104909,1,0,0:0:0:0:
192,192,104909,1,0,0:0:0:0:
320,192,105045,1,0,0:0:0:0:
448,192,105045,1,0,0:0:0:0:
320,192,105181,1,0,0:0:0:0:
448,192,105181,1,0,0:0:0:0:
448,192,105318,1,0,0:0:0:0:
64,192,105318,1,0,0:0:0:0:
192,192,105318,1,0,0:0:0:0:
320,192,105386,1,0,0:0:0:0:
192,192,105454,1,0,0:0:0:0:
320,192,105522,1,0,0:0:0:0:
192,192,105590,1,0,0:0:0:0:
320,192,105659,1,0,0:0:0:0:
192,192,105727,1,0,0:0:0:0:
320,192,105795,1,0,0:0:0:0:
192,192,105863,1,0,0:0:0:0:
64,192,105863,1,0,0:0:0:0:
448,192,105863,1,0,0:0:0:0:
320,192,106000,1,0,0:0:0:0:
64,192,106000,1,0,0:0:0:0:
192,192,106136,1,0,0:0:0:0:
448,192,106136,1,0,0:0:0:0:
192,192,106272,1,0,0:0:0:0:
448,192,106272,1,0,0:0:0:0:
320,192,106409,1,0,0:0:0:0:
192,192,106409,1,0,0:0:0:0:
64,192,106409,1,0,0:0:0:0:
448,192,106545,1,0,0:0:0:0:
64,192,106545,1,0,0:0:0:0:
192,192,106681,1,0,0:0:0:0:
320,192,106681,1,0,0:0:0:0:
192,192,106818,1,0,0:0:0:0:
320,192,106818,1,0,0:0:0:0:
320,192,106954,1,0,0:0:0:0:
64,192,106954,1,0,0:0:0:0:
448,192,106954,1,0,0:0:0:0:
192,192,107090,1,0,0:0:0:0:
448,192,107090,1,0,0:0:0:0:
320,192,107227,1,0,0:0:0:0:
64,192,107227,1,0,0:0:0:0:
64,192,107363,1,0,0:0:0:0:
320,192,107363,1,0,0:0:0:0:
192,192,107500,1,0,0:0:0:0:
64,192,107500,1,0,0:0:0:0:
448,192,107500,1,0,0:0:0:0:
448,192,107636,1,0,0:0:0:0:
320,192,107636,1,0,0:0:0:0:
192,192,107636,1,0,0:0:0:0:
320,192,107772,1,0,0:0:0:0:
64,192,107772,1,0,0:0:0:0:
192,192,107909,1,0,0:0:0:0:
448,192,107909,1,0,0:0:0:0:
448,192,108045,1,0,0:0:0:0:
320,192,108045,1,0,0:0:0:0:
64,192,108045,1,0,0:0:0:0:
64,192,108181,1,0,0:0:0:0:
192,192,108181,1,0,0:0:0:0:
320,192,108318,1,0,0:0:0:0:
448,192,108318,1,0,0:0:0:0:
320,192,108454,1,0,0:0:0:0:
448,192,108454,1,0,0:0:0:0:
192,192,108590,1,0,0:0:0:0:
64,192,108590,1,0,0:0:0:0:
320,192,108590,1,0,0:0:0:0:
64,192,108727,1,0,0:0:0:0:
448,192,108727,1,0,0:0:0:0:
192,192,108863,1,0,0:0:0:0:
320,192,108863,1,0,0:0:0:0:
192,192,109000,1,0,0:0:0:0:
320,192,109000,1,0,0:0:0:0:
448,192,109136,1,0,0:0:0:0:
192,192,109136,1,0,0:0:0:0:
64,192,109136,1,0,0:0:0:0:
448,192,109272,1,0,0:0:0:0:
320,192,109272,1,0,0:0:0:0:
192,192,109409,1,0,0:0:0:0:
64,192,109409,1,0,0:0:0:0:
64,192,109545,1,0,0:0:0:0:
192,192,109545,1,0,0:0:0:0:
448,192,109681,1,0,0:0:0:0:
320,192,109681,1,0,0:0:0:0:
192,192,109681,1,0,0:0:0:0:
64,192,109750,1,0,0:0:0:0:
448,192,109818,1,0,0:0:0:0:
64,192,109886,1,0,0:0:0:0:
448,192,109954,1,0,0:0:0:0:
64,192,110022,1,0,0:0:0:0:
448,192,110090,1,0,0:0:0:0:
64,192,110159,1,0,0:0:0:0:
320,192,110227,1,0,0:0:0:0:
448,192,110227,1,0,0:0:0:0:
192,192,110227,1,0,0:0:0:0:
320,192,110363,1,0,0:0:0:0:
64,192,110363,1,0,0:0:0:0:
192,192,110500,1,0,0:0:0:0:
448,192,110500,1,0,0:0:0:0:
192,192,110636,1,0,0:0:0:0:
448,192,110636,1,0,0:0:0:0:
64,192,110772,1,0,0:0:0:0:
320,192,110772,1,0,0:0:0:0:
448,192,110772,1,0,0:0:0:0:
192,192,110909,1,0,0:0:0:0:
320,192,110909,1,0,0:0:0:0:
64,192,111045,5,0,0:0:0:0:
448,192,111045,1,0,0:0:0:0:
64,192,111181,1,0,0:0:0:0:
448,192,111181,1,0,0:0:0:0:
192,192,111318,1,0,0:0:0:0:
64,192,111318,1,0,0:0:0:0:
320,192,111318,1,0,0:0:0:0:
448,192,111454,1,0,0:0:0:0:
320,192,111454,1,0,0:0:0:0:
64,192,111590,1,0,0:0:0:0:
192,192,111590,1,0,0:0:0:0:
448,192,111590,1,0,0:0:0:0:
64,192,111727,1,0,0:0:0:0:
192,192,111727,1,0,0:0:0:0:
448,192,111727,1,0,0:0:0:0:
320,192,111863,1,0,0:0:0:0:
192,192,111863,1,0,0:0:0:0:
320,192,112000,1,0,0:0:0:0:
64,192,112000,1,0,0:0:0:0:
448,192,112136,5,0,0:0:0:0:
320,192,112136,1,0,0:0:0:0:
192,192,112136,1,0,0:0:0:0:
64,192,112136,1,0,0:0:0:0:
448,192,112272,1,0,0:0:0:0:
192,192,112409,1,0,0:0:0:0:
64,192,112409,1,0,0:0:0:0:
64,192,112545,1,0,0:0:0:0:
192,192,112545,1,0,0:0:0:0:
320,192,112681,1,0,0:0:0:0:
64,192,112681,128,0,112954:0:0:0:0:
448,192,112681,128,0,112954:0:0:0:0:
320,192,112954,1,0,0:0:0:0:
192,192,112954,1,0,0:0:0:0:
192,192,113090,1,0,0:0:0:0:
320,192,113090,1,0,0:0:0:0:
64,192,113227,1,0,0:0:0:0:
320,192,113227,128,0,113500:0:0:0:0:
448,192,113227,128,0,113500:0:0:0:0:
192,192,113500,1,0,0:0:0:0:
64,192,113500,1,0,0:0:0:0:
64,192,113636,1,0,0:0:0:0:
192,192,113636,1,0,0:0:0:0:
448,192,113772,1,0,0:0:0:0:
192,192,113772,128,0,114045:0:0:0:0:
320,192,113772,128,0,114045:0:0:0:0:
64,192,114045,1,0,0:0:0:0:
448,192,114113,1,0,0:0:0:0:
64,192,114181,1,0,0:0:0:0:
448,192,114250,1,0,0:0:0:0:
192,192,114318,1,0,0:0:0:0:
320,192,114386,1,0,0:0:0:0:
192,192,114454,1,0,0:0:0:0:
320,192,114522,1,0,0:0:0:0:
192,192,114590,1,0,0:0:0:0:
448,192,114590,1,0,0:0:0:0:
448,192,114727,1,0,0:0:0:0:
192,192,114727,1,0,0:0:0:0:
64,192,114863,1,0,0:0:0:0:
320,192,114863,1,0,0:0:0:0:
448,192,114863,1,0,0:0:0:0:
64,192,115000,1,0,0:0:0:0:
448,192,115136,1,0,0:0:0:0:
192,192,115136,1,0,0:0:0:0:
192,192,115272,1,0,0:0:0:0:
448,192,115272,1,0,0:0:0:0:
320,192,115409,1,0,0:0:0:0:
192,192,115409,128,0,115681:0:0:0:0:
64,192,115409,128,0,115681:0:0:0:0:
448,192,115681,1,0,0:0:0:0:
320,192,115681,1,0,0:0:0:0:
320,192,115818,1,0,0:0:0:0:
448,192,115818,1,0,0:0:0:0:
64,192,115954,1,0,0:0:0:0:
192,192,115954,128,0,116227:0:0:0:0:
448,192,115954,128,0,116227:0:0:0:0:
320,192,116227,1,0,0:0:0:0:
64,192,116227,1,0,0:0:0:0:
320,192,116363,1,0,0:0:0:0:
448,192,116500,1,0,0:0:0:0:
320,192,116500,1,0,0:0:0:0:
192,192,116500,1,0,0:0:0:0:
64,192,116500,1,0,0:0:0:0:
192,192,116636,1,0,0:0:0:0:
64,192,116772,1,0,0:0:0:0:
448,192,116772,1,0,0:0:0:0:
448,192,116909,1,0,0:0:0:0:
64,192,116909,1,0,0:0:0:0:
192,192,117045,1,0,0:0:0:0:
320,192,117045,128,0,117318:0:0:0:0:
64,192,117045,128,0,117318:0:0:0:0:
192,192,117318,1,0,0:0:0:0:
448,192,117318,1,0,0:0:0:0:
192,192,117454,1,0,0:0:0:0:
448,192,117454,1,0,0:0:0:0:
320,192,117590,1,0,0:0:0:0:
448,192,117590,128,0,117863:0:0:0:0:
64,192,117590,128,0,117863:0:0:0:0:
192,192,117863,1,0,0:0:0:0:
320,192,117863,1,0,0:0:0:0:
192,192,118000,1,0,0:0:0:0:
320,192,118000,1,0,0:0:0:0:
64,192,118136,1,0,0:0:0:0:
192,192,118136,128,0,118409:0:0:0:0:
448,192,118136,128,0,118409:0:0:0:0:
320,192,118409,1,0,0:0:0:0:
64,192,118477,1,0,0:0:0:0:
320,192,118545,1,0,0:0:0:0:
64,192,118613,1,0,0:0:0:0:
448,192,118681,1,0,0:0:0:0:
192,192,118750,1,0,0:0:0:0:
448,192,118818,1,0,0:0:0:0:
192,192,118886,1,0,0:0:0:0:
448,192,118954,1,0,0:0:0:0:
320,192,118954,1,0,0:0:0:0:
192,192,119090,1,0,0:0:0:0:
64,192,119090,1,0,0:0:0:0:
320,192,119090,1,0,0:0:0:0:
64,192,119227,128,0,119363:0:0:0:0:
192,192,119227,128,0,119363:0:0:0:0:
448,192,119227,128,0,119363:0:0:0:0:
320,192,119500,1,0,0:0:0:0:
192,192,119500,1,0,0:0:0:0:
64,192,119636,1,0,0:0:0:0:
192,192,119636,1,0,0:0:0:0:
448,192,119636,1,0,0:0:0:0:
64,192,119772,128,0,119909:0:0:0:0:
320,192,119772,128,0,119909:0:0:0:0:
448,192,119772,128,0,119909:0:0:0:0:
192,192,120045,1,0,0:0:0:0:
320,192,120045,1,0,0:0:0:0:
64,192,120181,1,0,0:0:0:0:
320,192,120181,1,0,0:0:0:0:
192,192,120318,128,0,120454:0:0:0:0:
320,192,120318,128,0,120590:0:0:0:0:
448,192,120318,128,0,120795:0:0:0:0:
64,192,120454,128,0,120795:0:0:0:0:
192,192,120590,128,0,120795:0:0:0:0:
320,192,120727,128,0,120795:0:0:0:0:
64,192,120863,1,0,0:0:0:0:
320,192,120863,1,0,0:0:0:0:
192,192,120863,1,0,0:0:0:0:
448,192,120863,128,0,121136:0:0:0:0:
192,192,121136,128,0,121409:0:0:0:0:
64,192,121136,1,0,0:0:0:0:
448,192,121409,128,0,121545:0:0:0:0:
320,192,121409,128,0,121545:0:0:0:0:
64,192,121545,128,0,121681:0:0:0:0:
192,192,121545,128,0,121681:0:0:0:0:
448,192,121681,1,0,0:0:0:0:
320,192,121681,128,0,121954:0:0:0:0:
448,192,121954,1,0,0:0:0:0:
64,192,121954,128,0,123045:0:0:0:0:
192,192,121954,1,0,0:0:0:0:
192,192,122227,128,0,123045:0:0:0:0:
320,192,122227,1,0,0:0:0:0:
320,192,122500,128,0,122977:0:0:0:0:
448,192,122500,1,0,0:0:0:0:
448,192,123045,128,0,123318:0:0:0:0:
320,192,123045,1,0,0:0:0:0:
192,192,123318,128,0,123590:0:0:0:0:
64,192,123318,1,0,0:0:0:0:
320,192,123590,128,0,123727:0:0:0:0:
448,192,123590,128,0,123727:0:0:0:0:
64,192,123727,128,0,123863:0:0:0:0:
192,192,123727,128,0,123863:0:0:0:0:
320,192,123863,128,0,124136:0:0:0:0:
448,192,123863,1,0,0:0:0:0:
192,192,124136,1,0,0:0:0:0:
448,192,124136,1,0,0:0:0:0:
64,192,124136,128,0,125159:0:0:0:0:
192,192,124409,128,0,125159:0:0:0:0:
320,192,124409,1,0,0:0:0:0:
320,192,124681,128,0,125159:0:0:0:0:
448,192,124681,1,0,0:0:0:0:
64,192,125227,1,0,0:0:0:0:
448,192,125227,128,0,125568:0:0:0:0:
320,192,125227,128,0,125500:0:0:0:0:
192,192,125227,128,0,125363:0:0:0:0:
64,192,125363,128,0,125568:0:0:0:0:
192,192,125500,128,0,125568:0:0:0:0:
320,192,125636,128,0,125704:0:0:0:0:
448,192,125636,128,0,125704:0:0:0:0:
64,192,125636,128,0,125704:0:0:0:0:
448,192,125772,128,0,125909:0:0:0:0:
320,192,125772,128,0,125909:0:0:0:0:
448,192,126045,128,0,126181:0:0:0:0:
320,192,126045,128,0,126181:0:0:0:0:
192,192,126318,1,0,0:0:0:0:
64,192,126318,128,0,126454:0:0:0:0:
448,192,126318,128,0,126454:0:0:0:0:
64,192,126590,128,0,126727:0:0:0:0:
448,192,126590,128,0,126727:0:0:0:0:
64,192,126863,128,0,127340:0:0:0:0:
192,192,126863,128,0,127136:0:0:0:0:
320,192,126863,128,0,127000:0:0:0:0:
448,192,127000,128,0,127340:0:0:0:0:
320,192,127136,128,0,127340:0:0:0:0:
192,192,127272,128,0,127340:0:0:0:0:
64,192,127409,128,0,127750:0:0:0:0:
192,192,127409,128,0,127681:0:0:0:0:
320,192,127409,128,0,127545:0:0:0:0:
448,192,127545,128,0,127750:0:0:0:0:
320,192,127681,128,0,127750:0:0:0:0:
64,192,127818,128,0,127886:0:0:0:0:
192,192,127818,128,0,127886:0:0:0:0:
448,192,127818,128,0,127886:0:0:0:0:
64,192,127954,128,0,128090:0:0:0:0:
192,192,127954,128,0,128090:0:0:0:0:
64,192,128227,1,0,0:0:0:0:
320,192,128295,1,0,0:0:0:0:
64,192,128363,1,0,0:0:0:0:
320,192,128431,1,0,0:0:0:0:
64,192,128500,1,0,0:0:0:0:
192,192,128500,128,0,128636:0:0:0:0:
448,192,128500,128,0,128636:0:0:0:0:
448,192,128772,128,0,128909:0:0:0:0:
192,192,128772,128,0,128909:0:0:0:0:
320,192,129045,128,0,129318:0:0:0:0:
448,192,129045,128,0,129454:0:0:0:0:
64,192,129045,128,0,129181:0:0:0:0:
192,192,129318,1,0,0:0:0:0:
64,192,129318,1,0,0:0:0:0:
192,192,129454,1,0,0:0:0:0:
64,192,129454,1,0,0:0:0:0:
64,192,129590,1,0,0:0:0:0:
192,192,129590,1,0,0:0:0:0:
320,192,129590,128,0,130000:0:0:0:0:
448,192,129590,1,0,0:0:0:0:
448,192,129795,128,0,130000:0:0:0:0:
192,192,130000,128,0,130136:0:0:0:0:
64,192,130000,128,0,130136:0:0:0:0:
320,192,130136,128,0,130409:0:0:0:0:
448,192,130136,1,0,0:0:0:0:
192,192,130409,128,0,130681:0:0:0:0:
64,192,130409,1,0,0:0:0:0:
320,192,130681,1,0,0:0:0:0:
448,192,130681,1,0,0:0:0:0:
64,192,130681,128,0,131772:0:0:0:0:
448,192,130954,128,0,131363:0:0:0:0:
320,192,130954,1,0,0:0:0:0:
192,192,131227,1,0,0:0:0:0:
320,192,131227,128,0,131500:0:0:0:0:
192,192,131500,128,0,131772:0:0:0:0:
448,192,131500,1,0,0:0:0:0:
320,192,131772,128,0,132181:0:0:0:0:
448,192,131772,1,0,0:0:0:0:
448,192,131977,128,0,132181:0:0:0:0:
192,192,132181,128,0,132318:0:0:0:0:
64,192,132181,128,0,132318:0:0:0:0:
320,192,132318,128,0,132590:0:0:0:0:
448,192,132318,1,0,0:0:0:0:
192,192,132590,128,0,132863:0:0:0:0:
64,192,132590,1,0,0:0:0:0:
320,192,132863,1,0,0:0:0:0:
448,192,132863,1,0,0:0:0:0:
64,192,132863,128,0,133818:0:0:0:0:
448,192,133136,128,0,133545:0:0:0:0:
320,192,133136,1,0,0:0:0:0:
320,192,133409,128,0,133681:0:0:0:0:
192,192,133409,1,0,0:0:0:0:
448,192,133681,1,0,0:0:0:0:
192,192,133681,1,0,0:0:0:0:
448,192,133818,1,0,0:0:0:0:
192,192,133818,1,0,0:0:0:0:
448,192,133954,1,0,0:0:0:0:
64,192,133954,1,0,0:0:0:0:
192,192,133954,128,0,134363:0:0:0:0:
320,192,133954,1,0,0:0:0:0:
64,192,134363,1,0,0:0:0:0:
448,192,134363,1,0,0:0:0:0:
320,192,134363,128,0,134500:0:0:0:0:
192,192,134500,1,0,0:0:0:0:
64,192,134500,128,0,134772:0:0:0:0:
448,192,134772,128,0,135045:0:0:0:0:
320,192,134772,1,0,0:0:0:0:
192,192,135045,128,0,135318:0:0:0:0:
320,192,135045,1,0,0:0:0:0:
64,192,135045,128,0,135590:0:0:0:0:
448,192,135318,1,0,0:0:0:0:
320,192,135318,128,0,135727:0:0:0:0:
192,192,135590,128,0,135863:0:0:0:0:
320,192,135863,1,0,0:0:0:0:
448,192,135863,128,0,136136:0:0:0:0:
64,192,135863,1,0,0:0:0:0:
192,192,136136,128,0,136545:0:0:0:0:
320,192,136136,1,0,0:0:0:0:
320,192,136545,128,0,136681:0:0:0:0:
448,192,136545,1,0,0:0:0:0:
64,192,136545,1,0,0:0:0:0:
64,192,136681,128,0,136954:0:0:0:0:
192,192,136681,1,0,0:0:0:0:
320,192,136954,1,0,0:0:0:0:
448,192,136954,128,0,137227:0:0:0:0:
64,192,137227,128,0,137772:0:0:0:0:
192,192,137227,128,0,137500:0:0:0:0:
320,192,137227,1,0,0:0:0:0:
320,192,137500,128,0,137909:0:0:0:0:
448,192,137500,1,0,0:0:0:0:
448,192,137772,1,0,0:0:0:0:
192,192,137772,128,0,138045:0:0:0:0:
64,192,138045,1,0,0:0:0:0:
320,192,138045,1,0,0:0:0:0:
448,192,138045,1,0,0:0:0:0:
64,192,138181,1,0,0:0:0:0:
192,192,138181,1,0,0:0:0:0:
448,192,138181,1,0,0:0:0:0:
64,192,138318,1,0,0:0:0:0:
192,192,138318,1,0,0:0:0:0:
320,192,138318,1,0,0:0:0:0:
448,192,138318,128,0,138590:0:0:0:0:
192,192,138590,1,0,0:0:0:0:
320,192,138659,1,0,0:0:0:0:
192,192,138727,1,0,0:0:0:0:
320,192,138795,1,0,0:0:0:0:
64,192,138863,1,0,0:0:0:0:
192,192,138931,1,0,0:0:0:0:
64,192,139000,1,0,0:0:0:0:
448,192,139068,1,0,0:0:0:0:
320,192,139136,1,0,0:0:0:0:
448,192,139204,1,0,0:0:0:0:
192,192,139272,1,0,0:0:0:0:
320,192,139340,1,0,0:0:0:0:
192,192,139409,1,0,0:0:0:0:
448,192,139409,1,0,0:0:0:0:
64,192,139409,128,0,139681:0:0:0:0:
320,192,139681,128,0,139954:0:0:0:0:
448,192,139681,1,0,0:0:0:0:
192,192,139954,128,0,140022:0:0:0:0:
448,192,140022,128,0,140090:0:0:0:0:
192,192,140090,128,0,140159:0:0:0:0:
448,192,140159,128,0,140227:0:0:0:0:
192,192,140227,128,0,140295:0:0:0:0:
448,192,140295,128,0,140363:0:0:0:0:
192,192,140363,128,0,140431:0:0:0:0:
448,192,140431,128,0,140500:0:0:0:0:
320,192,140500,1,0,0:0:0:0:
64,192,140500,128,0,140772:0:0:0:0:
320,192,140772,1,0,0:0:0:0:
192,192,140840,1,0,0:0:0:0:
320,192,140909,1,0,0:0:0:0:
192,192,140977,1,0,0:0:0:0:
448,192,141045,1,0,0:0:0:0:
320,192,141113,1,0,0:0:0:0:
448,192,141181,1,0,0:0:0:0:
64,192,141250,1,0,0:0:0:0:
192,192,141318,1,0,0:0:0:0:
64,192,141386,1,0,0:0:0:0:
320,192,141454,1,0,0:0:0:0:
192,192,141522,1,0,0:0:0:0:
64,192,141590,1,0,0:0:0:0:
320,192,141590,1,0,0:0:0:0:
448,192,141590,128,0,141863:0:0:0:0:
192,192,141863,128,0,142136:0:0:0:0:
64,192,141863,1,0,0:0:0:0:
320,192,142136,128,0,142204:0:0:0:0:
64,192,142204,128,0,142272:0:0:0:0:
320,192,142272,128,0,142340:0:0:0:0:
64,192,142340,128,0,142409:0:0:0:0:
320,192,142409,128,0,142477:0:0:0:0:
64,192,142477,128,0,142545:0:0:0:0:
320,192,142545,128,0,142613:0:0:0:0:
64,192,142613,128,0,142681:0:0:0:0:
448,192,142681,1,0,0:0:0:0:
192,192,142681,128,0,142954:0:0:0:0:
320,192,142818,128,0,143090:0:0:0:0:
448,192,142954,128,0,143159:0:0:0:0:
64,192,143090,1,0,0:0:0:0:
192,192,143159,1,0,0:0:0:0:
320,192,143227,128,0,143363:0:0:0:0:
448,192,143227,128,0,143363:0:0:0:0:
320,192,143500,128,0,143636:0:0:0:0:
448,192,143500,128,0,143636:0:0:0:0:
192,192,143772,1,0,0:0:0:0:
64,192,143772,1,0,0:0:0:0:
448,192,143772,1,0,0:0:0:0:
320,192,143840,1,0,0:0:0:0:
64,192,143909,1,0,0:0:0:0:
320,192,143977,1,0,0:0:0:0:
64,192,144045,1,0,0:0:0:0:
320,192,144113,1,0,0:0:0:0:
64,192,144181,1,0,0:0:0:0:
320,192,144250,1,0,0:0:0:0:
192,192,144318,1,0,0:0:0:0:
448,192,144386,1,0,0:0:0:0:
192,192,144454,1,0,0:0:0:0:
448,192,144522,1,0,0:0:0:0:
192,192,144590,1,0,0:0:0:0:
448,192,144659,1,0,0:0:0:0:
192,192,144727,1,0,0:0:0:0:
448,192,144795,1,0,0:0:0:0:
64,192,144863,1,0,0:0:0:0:
320,192,144863,128,0,145136:0:0:0:0:
192,192,145000,128,0,145272:0:0:0:0:
64,192,145136,128,0,145340:0:0:0:0:
448,192,145272,1,0,0:0:0:0:
320,192,145340,1,0,0:0:0:0:
64,192,145409,128,0,145545:0:0:0:0:
192,192,145409,128,0,145545:0:0:0:0:
64,192,145681,128,0,145818:0:0:0:0:
192,192,145681,128,0,145818:0:0:0:0:
64,192,145954,1,0,0:0:0:0:
320,192,145954,1,0,0:0:0:0:
448,192,145954,1,0,0:0:0:0:
192,192,146022,1,0,0:0:0:0:
320,192,146090,1,0,0:0:0:0:
192,192,146159,1,0,0:0:0:0:
320,192,146227,1,0,0:0:0:0:
192,192,146295,1,0,0:0:0:0:
320,192,146363,1,0,0:0:0:0:
192,192,146431,1,0,0:0:0:0:
448,192,146500,1,0,0:0:0:0:
320,192,146500,1,0,0:0:0:0:
192,192,146568,1,0,0:0:0:0:
64,192,146568,1,0,0:0:0:0:
448,192,146636,1,0,0:0:0:0:
320,192,146636,1,0,0:0:0:0:
192,192,146704,1,0,0:0:0:0:
64,192,146704,1,0,0:0:0:0:
448,192,146772,1,0,0:0:0:0:
64,192,146840,1,0,0:0:0:0:
448,192,146909,1,0,0:0:0:0:
64,192,146977,1,0,0:0:0:0:
448,192,147045,1,0,0:0:0:0:
192,192,147045,128,0,147454:0:0:0:0:
320,192,147045,128,0,147454:0:0:0:0:
64,192,147454,128,0,147590:0:0:0:0:
448,192,147454,128,0,147590:0:0:0:0:
192,192,147590,128,0,147863:0:0:0:0:
320,192,147590,128,0,147863:0:0:0:0:
64,192,147863,1,0,0:0:0:0:
448,192,147931,1,0,0:0:0:0:
64,192,148000,1,0,0:0:0:0:
448,192,148068,1,0,0:0:0:0:
64,192,148136,1,0,0:0:0:0:
192,192,148136,1,0,0:0:0:0:
320,192,148136,1,0,0:0:0:0:
448,192,148204,1,0,0:0:0:0:
192,192,148272,1,0,0:0:0:0:
448,192,148340,1,0,0:0:0:0:
64,192,148409,1,0,0:0:0:0:
320,192,148477,1,0,0:0:0:0:
64,192,148545,1,0,0:0:0:0:
320,192,148613,1,0,0:0:0:0:
448,192,148681,1,0,0:0:0:0:
192,192,148750,1,0,0:0:0:0:
448,192,148818,1,0,0:0:0:0:
192,192,148886,1,0,0:0:0:0:
320,192,148954,128,0,149227:0:0:0:0:
448,192,149227,128,0,149636:0:0:0:0:
64,192,149227,128,0,149636:0:0:0:0:
192,192,149227,1,0,0:0:0:0:
320,192,149636,128,0,149772:0:0:0:0:
192,192,149636,128,0,149772:0:0:0:0:
64,192,149772,128,0,150045:0:0:0:0:
448,192,149772,128,0,150045:0:0:0:0:
320,192,150045,1,0,0:0:0:0:
192,192,150113,1,0,0:0:0:0:
320,192,150181,1,0,0:0:0:0:
192,192,150250,1,0,0:0:0:0:
320,192,150318,1,0,0:0:0:0:
64,192,150318,1,0,0:0:0:0:
448,192,150318,1,0,0:0:0:0:
192,192,150386,1,0,0:0:0:0:
448,192,150454,1,0,0:0:0:0:
192,192,150522,1,0,0:0:0:0:
448,192,150590,1,0,0:0:0:0:
64,192,150659,1,0,0:0:0:0:
320,192,150727,1,0,0:0:0:0:
64,192,150795,1,0,0:0:0:0:
320,192,150863,1,0,0:0:0:0:
192,192,150931,1,0,0:0:0:0:
448,192,151000,1,0,0:0:0:0:
64,192,151068,1,0,0:0:0:0:
448,192,151136,1,0,0:0:0:0:
320,192,151136,1,0,0:0:0:0:
192,192,151136,1,0,0:0:0:0:
64,192,151204,1,0,0:0:0:0:
320,192,151272,1,0,0:0:0:0:
192,192,151340,1,0,0:0:0:0:
320,192,151409,1,0,0:0:0:0:
448,192,151409,1,0,0:0:0:0:
64,192,151409,1,0,0:0:0:0:
192,192,151477,1,0,0:0:0:0:
64,192,151545,1,0,0:0:0:0:
320,192,151613,1,0,0:0:0:0:
448,192,151681,1,0,0:0:0:0:
192,192,151750,1,0,0:0:0:0:
320,192,151818,1,0,0:0:0:0:
448,192,151818,1,0,0:0:0:0:
64,192,151886,1,0,0:0:0:0:
320,192,151954,1,0,0:0:0:0:
192,192,151954,1,0,0:0:0:0:
448,192,151954,1,0,0:0:0:0:
64,192,152022,1,0,0:0:0:0:
192,192,152090,1,0,0:0:0:0:
320,192,152159,1,0,0:0:0:0:
448,192,152227,1,0,0:0:0:0:
64,192,152227,1,0,0:0:0:0:
320,192,152295,1,0,0:0:0:0:
192,192,152363,1,0,0:0:0:0:
448,192,152431,1,0,0:0:0:0:
64,192,152500,1,0,0:0:0:0:
320,192,152500,1,0,0:0:0:0:
192,192,152500,1,0,0:0:0:0:
448,192,152568,1,0,0:0:0:0:
64,192,152636,1,0,0:0:0:0:
192,192,152704,1,0,0:0:0:0:
64,192,152772,1,0,0:0:0:0:
448,192,152772,1,0,0:0:0:0:
320,192,152772,1,0,0:0:0:0:
192,192,152840,1,0,0:0:0:0:
320,192,152909,1,0,0:0:0:0:
448,192,152977,1,0,0:0:0:0:
192,192,153045,1,0,0:0:0:0:
64,192,153045,1,0,0:0:0:0:
320,192,153113,1,0,0:0:0:0:
448,192,153181,1,0,0:0:0:0:
64,192,153250,1,0,0:0:0:0:
320,192,153318,1,0,0:0:0:0:
448,192,153318,1,0,0:0:0:0:
192,192,153318,1,0,0:0:0:0:
64,192,153386,1,0,0:0:0:0:
320,192,153454,1,0,0:0:0:0:
192,192,153522,1,0,0:0:0:0:
320,192,153590,1,0,0:0:0:0:
64,192,153590,1,0,0:0:0:0:
448,192,153590,128,0,154000:0:0:0:0:
64,192,154000,128,0,154136:0:0:0:0:
192,192,154000,1,0,0:0:0:0:
320,192,154136,128,0,154681:0:0:0:0:
448,192,154136,1,0,0:0:0:0:
64,192,154409,1,0,0:0:0:0:
448,192,154409,1,0,0:0:0:0:
192,192,154409,128,0,154954:0:0:0:0:
448,192,154681,1,0,0:0:0:0:
64,192,154681,128,0,155227:0:0:0:0:
448,192,154954,128,0,155500:0:0:0:0:
320,192,154954,1,0,0:0:0:0:
320,192,155227,128,0,155772:0:0:0:0:
192,192,155227,1,0,0:0:0:0:
192,192,155500,128,0,155772:0:0:0:0:
64,192,155500,1,0,0:0:0:0:
64,192,155772,128,0,156863:0:0:0:0:
448,192,155772,1,0,0:0:0:0:
320,192,156863,128,0,157409:0:0:0:0:
448,192,156863,1,0,0:0:0:0:
192,192,157409,128,0,157954:0:0:0:0:
64,192,157409,1,0,0:0:0:0:
64,192,157954,1,0,0:0:0:0:
448,192,157954,128,0,162045:0:0:0:0:
320,192,157954,128,0,160136:0:0:0:0:
64,192,162045,1,0,0:0:0:0:
320,192,162181,1,0,0:0:0:0:
192,192,162250,1,0,0:0:0:0:
64,192,162318,1,0,0:0:0:0:
448,192,162318,1,0,0:0:0:0:
320,192,162590,1,0,0:0:0:0:
192,192,162863,1,0,0:0:0:0:
64,192,163136,1,0,0:0:0:0:
320,192,163272,1,0,0:0:0:0:
448,192,163409,1,0,0:0:0:0:
192,192,163681,1,0,0:0:0:0:
448,192,163954,1,0,0:0:0:0:
192,192,164227,1,0,0:0:0:0:
320,192,164363,1,0,0:0:0:0:
448,192,164500,1,0,0:0:0:0:
64,192,164772,1,0,0:0:0:0:
320,192,165045,1,0,0:0:0:0:
192,192,165318,1,0,0:0:0:0:
192,192,165454,1,0,0:0:0:0:
448,192,165590,1,0,0:0:0:0:
64,192,165863,1,0,0:0:0:0:
320,192,166136,1,0,0:0:0:0:
192,192,166409,1,0,0:0:0:0:
448,192,166545,1,0,0:0:0:0:
64,192,166681,1,0,0:0:0:0:
192,192,166681,1,0,0:0:0:0:
320,192,166954,1,0,0:0:0:0:
192,192,167227,1,0,0:0:0:0:
448,192,167500,1,0,0:0:0:0:
64,192,167636,1,0,0:0:0:0:
320,192,167772,1,0,0:0:0:0:
192,192,168045,1,0,0:0:0:0:
448,192,168318,1,0,0:0:0:0:
320,192,168590,1,0,0:0:0:0:
192,192,168727,1,0,0:0:0:0:
64,192,168863,1,0,0:0:0:0:
448,192,169136,1,0,0:0:0:0:
192,192,169409,1,0,0:0:0:0:
320,192,169681,1,0,0:0:0:0:
320,192,169818,1,0,0:0:0:0:
64,192,169954,1,0,0:0:0:0:
448,192,170227,1,0,0:0:0:0:
192,192,170500,128,0,170772:0:0:0:0:
64,192,170772,1,0,0:0:0:0:
448,192,170909,1,0,0:0:0:0:
320,192,170977,1,0,0:0:0:0:
64,192,171045,1,0,0:0:0:0:
192,192,171045,1,0,0:0:0:0:
448,192,171045,1,0,0:0:0:0:
64,192,171318,1,0,0:0:0:0:
192,192,171318,1,0,0:0:0:0:
192,192,171590,1,0,0:0:0:0:
64,192,171590,1,0,0:0:0:0:
64,192,171863,1,0,0:0:0:0:
192,192,171863,1,0,0:0:0:0:
192,192,172136,1,0,0:0:0:0:
64,192,172136,1,0,0:0:0:0:
64,192,172409,1,0,0:0:0:0:
192,192,172409,1,0,0:0:0:0:
64,192,172681,1,0,0:0:0:0:
192,192,172681,1,0,0:0:0:0:
64,192,172954,1,0,0:0:0:0:
192,192,172954,1,0,0:0:0:0:
64,192,173227,1,0,0:0:0:0:
320,192,173227,1,0,0:0:0:0:
448,192,173227,1,0,0:0:0:0:
320,192,173500,1,0,0:0:0:0:
448,192,173500,1,0,0:0:0:0:
320,192,173772,1,0,0:0:0:0:
448,192,173772,1,0,0:0:0:0:
320,192,174045,1,0,0:0:0:0:
448,192,174045,1,0,0:0:0:0:
448,192,174318,1,0,0:0:0:0:
320,192,174318,1,0,0:0:0:0:
320,192,174590,1,0,0:0:0:0:
448,192,174590,1,0,0:0:0:0:
448,192,174863,1,0,0:0:0:0:
320,192,174863,1,0,0:0:0:0:
320,192,175136,1,0,0:0:0:0:
448,192,175136,1,0,0:0:0:0:
64,192,175272,1,0,0:0:0:0:
192,192,175340,1,0,0:0:0:0:
320,192,175409,128,0,175613:0:0:0:0:
448,192,175409,128,0,175613:0:0:0:0:
64,192,175409,1,0,0:0:0:0:
320,192,175681,128,0,175886:0:0:0:0:
192,192,175681,128,0,175886:0:0:0:0:
448,192,175954,128,0,176159:0:0:0:0:
192,192,175954,128,0,176159:0:0:0:0:
64,192,176227,128,0,176431:0:0:0:0:
448,192,176227,128,0,176431:0:0:0:0:
64,192,176500,128,0,176704:0:0:0:0:
192,192,176500,128,0,176704:0:0:0:0:
320,192,176500,1,0,0:0:0:0:
320,192,176772,128,0,176977:0:0:0:0:
192,192,176772,128,0,176977:0:0:0:0:
448,192,177045,128,0,177250:0:0:0:0:
320,192,177045,128,0,177250:0:0:0:0:
64,192,177318,128,0,177454:0:0:0:0:
448,192,177318,128,0,177454:0:0:0:0:
192,192,177454,1,0,0:0:0:0:
320,192,177522,1,0,0:0:0:0:
64,192,177590,128,0,177795:0:0:0:0:
192,192,177590,128,0,177795:0:0:0:0:
448,192,177590,128,0,177795:0:0:0:0:
192,192,177863,128,0,178068:0:0:0:0:
64,192,177863,128,0,178068:0:0:0:0:
320,192,177863,128,0,178068:0:0:0:0:
192,192,178136,128,0,178340:0:0:0:0:
320,192,178136,128,0,178340:0:0:0:0:
448,192,178136,128,0,178340:0:0:0:0:
64,192,178409,128,0,178613:0:0:0:0:
320,192,178409,128,0,178613:0:0:0:0:
448,192,178409,128,0,178613:0:0:0:0:
192,192,178681,1,0,0:0:0:0:
64,192,178681,1,0,0:0:0:0:
448,192,178681,1,0,0:0:0:0:
320,192,178681,1,0,0:0:0:0:
64,192,180181,1,0,0:0:0:0:
192,192,180250,1,0,0:0:0:0:
320,192,180318,1,0,0:0:0:0:
448,192,180318,1,0,0:0:0:0:
64,192,180386,1,0,0:0:0:0:
192,192,180386,1,0,0:0:0:0:
320,192,180454,1,0,0:0:0:0:
448,192,180454,1,0,0:0:0:0:
192,192,180522,1,0,0:0:0:0:
64,192,180522,1,0,0:0:0:0:
320,192,180590,1,0,0:0:0:0:
448,192,180659,1,0,0:0:0:0:
192,192,180727,1,0,0:0:0:0:
320,192,180795,1,0,0:0:0:0:
448,192,180863,1,0,0:0:0:0:
64,192,180863,1,0,0:0:0:0:
192,192,180863,1,0,0:0:0:0:
320,192,181000,1,0,0:0:0:0:
64,192,181000,1,0,0:0:0:0:
192,192,181136,1,0,0:0:0:0:
320,192,181136,1,0,0:0:0:0:
448,192,181136,1,0,0:0:0:0:
192,192,181272,1,0,0:0:0:0:
64,192,181272,1,0,0:0:0:0:
320,192,181409,1,0,0:0:0:0:
448,192,181409,1,0,0:0:0:0:
320,192,181545,1,0,0:0:0:0:
448,192,181545,1,0,0:0:0:0:
192,192,181681,1,0,0:0:0:0:
64,192,181681,1,0,0:0:0:0:
448,192,181681,1,0,0:0:0:0:
320,192,181818,1,0,0:0:0:0:
192,192,181818,1,0,0:0:0:0:
64,192,181954,1,0,0:0:0:0:
448,192,181954,1,0,0:0:0:0:
64,192,182090,1,0,0:0:0:0:
448,192,182090,1,0,0:0:0:0:
320,192,182227,1,0,0:0:0:0:
192,192,182227,1,0,0:0:0:0:
64,192,182227,1,0,0:0:0:0:
448,192,182363,1,0,0:0:0:0:
320,192,182363,1,0,0:0:0:0:
192,192,182500,1,0,0:0:0:0:
64,192,182500,1,0,0:0:0:0:
64,192,182636,1,0,0:0:0:0:
192,192,182636,1,0,0:0:0:0:
448,192,182772,1,0,0:0:0:0:
320,192,182772,1,0,0:0:0:0:
64,192,182772,1,0,0:0:0:0:
192,192,182840,1,0,0:0:0:0:
448,192,182909,1,0,0:0:0:0:
192,192,182977,1,0,0:0:0:0:
448,192,183045,1,0,0:0:0:0:
192,192,183113,1,0,0:0:0:0:
448,192,183181,1,0,0:0:0:0:
192,192,183250,1,0,0:0:0:0:
64,192,183318,1,0,0:0:0:0:
320,192,183318,1,0,0:0:0:0:
448,192,183318,1,0,0:0:0:0:
192,192,183454,1,0,0:0:0:0:
320,192,183454,1,0,0:0:0:0:
64,192,183590,1,0,0:0:0:0:
448,192,183590,1,0,0:0:0:0:
448,192,183727,1,0,0:0:0:0:
64,192,183727,1,0,0:0:0:0:
320,192,183863,1,0,0:0:0:0:
192,192,183863,1,0,0:0:0:0:
64,192,183863,1,0,0:0:0:0:
192,192,184000,1,0,0:0:0:0:
448,192,184000,1,0,0:0:0:0:
320,192,184136,1,0,0:0:0:0:
64,192,184136,1,0,0:0:0:0:
64,192,184272,1,0,0:0:0:0:
320,192,184272,1,0,0:0:0:0:
448,192,184409,1,0,0:0:0:0:
192,192,184409,1,0,0:0:0:0:
320,192,184409,1,0,0:0:0:0:
64,192,184545,1,0,0:0:0:0:
448,192,184545,1,0,0:0:0:0:
320,192,184681,1,0,0:0:0:0:
192,192,184681,1,0,0:0:0:0:
192,192,184818,1,0,0:0:0:0:
320,192,184818,1,0,0:0:0:0:
64,192,184954,1,0,0:0:0:0:
192,192,184954,1,0,0:0:0:0:
448,192,184954,1,0,0:0:0:0:
320,192,185090,1,0,0:0:0:0:
64,192,185090,1,0,0:0:0:0:
448,192,185090,1,0,0:0:0:0:
320,192,185227,1,0,0:0:0:0:
192,192,185227,1,0,0:0:0:0:
192,192,185363,1,0,0:0:0:0:
448,192,185363,1,0,0:0:0:0:
448,192,185500,1,0,0:0:0:0:
64,192,185500,1,0,0:0:0:0:
320,192,185500,1,0,0:0:0:0:
192,192,185636,1,0,0:0:0:0:
320,192,185636,1,0,0:0:0:0:
448,192,185772,1,0,0:0:0:0:
64,192,185772,1,0,0:0:0:0:
64,192,185909,1,0,0:0:0:0:
448,192,185909,1,0,0:0:0:0:
320,192,186045,1,0,0:0:0:0:
192,192,186045,1,0,0:0:0:0:
64,192,186045,1,0,0:0:0:0:
448,192,186181,1,0,0:0:0:0:
320,192,186181,1,0,0:0:0:0:
192,192,186318,1,0,0:0:0:0:
64,192,186318,1,0,0:0:0:0:
64,192,186454,1,0,0:0:0:0:
192,192,186454,1,0,0:0:0:0:
192,192,186590,1,0,0:0:0:0:
320,192,186590,1,0,0:0:0:0:
448,192,186590,1,0,0:0:0:0:
320,192,186727,1,0,0:0:0:0:
64,192,186727,1,0,0:0:0:0:
192,192,186863,1,0,0:0:0:0:
448,192,186863,1,0,0:0:0:0:
192,192,187000,1,0,0:0:0:0:
448,192,187000,1,0,0:0:0:0:
64,192,187136,1,0,0:0:0:0:
320,192,187136,1,0,0:0:0:0:
448,192,187136,1,0,0:0:0:0:
192,192,187204,1,0,0:0:0:0:
320,192,187272,1,0,0:0:0:0:
192,192,187340,1,0,0:0:0:0:
320,192,187409,1,0,0:0:0:0:
192,192,187477,1,0,0:0:0:0:
320,192,187545,1,0,0:0:0:0:
192,192,187613,1,0,0:0:0:0:
64,192,187681,1,0,0:0:0:0:
320,192,187681,1,0,0:0:0:0:
448,192,187681,1,0,0:0:0:0:
192,192,187818,1,0,0:0:0:0:
64,192,187818,1,0,0:0:0:0:
320,192,187954,1,0,0:0:0:0:
448,192,187954,1,0,0:0:0:0:
320,192,188090,1,0,0:0:0:0:
448,192,188090,1,0,0:0:0:0:
192,192,188227,1,0,0:0:0:0:
64,192,188227,1,0,0:0:0:0:
448,192,188227,1,0,0:0:0:0:
320,192,188363,1,0,0:0:0:0:
192,192,188363,1,0,0:0:0:0:
448,192,188500,1,0,0:0:0:0:
64,192,188500,1,0,0:0:0:0:
64,192,188636,1,0,0:0:0:0:
448,192,188636,1,0,0:0:0:0:
320,192,188772,1,0,0:0:0:0:
192,192,188772,1,0,0:0:0:0:
64,192,188772,1,0,0:0:0:0:
192,192,188909,1,0,0:0:0:0:
448,192,188909,1,0,0:0:0:0:
320,192,189045,1,0,0:0:0:0:
64,192,189045,1,0,0:0:0:0:
320,192,189318,1,0,0:0:0:0:
192,192,189318,1,0,0:0:0:0:
448,192,189590,1,0,0:0:0:0:
64,192,189590,1,0,0:0:0:0:
192,192,189590,128,0,190136:0:0:0:0:
64,192,190136,128,0,190409:0:0:0:0:
320,192,190136,1,0,0:0:0:0:
320,192,190409,128,0,190681:0:0:0:0:
448,192,190409,1,0,0:0:0:0:
64,192,190681,1,0,0:0:0:0:
448,192,190681,1,0,0:0:0:0:
192,192,190681,128,0,191227:0:0:0:0:
320,192,191227,1,0,0:0:0:0:
64,192,191227,128,0,191500:0:0:0:0:
448,192,191500,1,0,0:0:0:0:
320,192,191500,128,0,191772:0:0:0:0:
192,192,191772,128,0,192318:0:0:0:0:
64,192,191772,1,0,0:0:0:0:
64,192,192318,128,0,192590:0:0:0:0:
320,192,192318,1,0,0:0:0:0:
320,192,192590,128,0,192863:0:0:0:0:
448,192,192590,1,0,0:0:0:0:
192,192,192863,128,0,193409:0:0:0:0:
64,192,192863,1,0,0:0:0:0:
448,192,192863,1,0,0:0:0:0:
448,192,193409,1,0,0:0:0:0:
320,192,193409,1,0,0:0:0:0:
448,192,193545,1,0,0:0:0:0:
320,192,193545,1,0,0:0:0:0:
192,192,193681,1,0,0:0:0:0:
64,192,193681,1,0,0:0:0:0:
64,192,193818,1,0,0:0:0:0:
192,192,193818,1,0,0:0:0:0:
448,192,193954,1,0,0:0:0:0:
320,192,193954,1,0,0:0:0:0:
320,192,194090,1,0,0:0:0:0:
448,192,194090,1,0,0:0:0:0:
192,192,194227,1,0,0:0:0:0:
64,192,194227,1,0,0:0:0:0:
192,192,194363,1,0,0:0:0:0:
64,192,194363,1,0,0:0:0:0:
320,192,194500,1,0,0:0:0:0:
448,192,194500,128,0,194772:0:0:0:0:
64,192,194772,1,0,0:0:0:0:
192,192,194772,128,0,195045:0:0:0:0:
448,192,195045,1,0,0:0:0:0:
64,192,195045,1,0,0:0:0:0:
320,192,195045,128,0,195590:0:0:0:0:
448,192,195590,128,0,195863:0:0:0:0:
192,192,195590,1,0,0:0:0:0:
192,192,195863,128,0,196136:0:0:0:0:
64,192,195863,1,0,0:0:0:0:
320,192,196136,128,0,196681:0:0:0:0:
448,192,196136,1,0,0:0:0:0:
448,192,196681,128,0,196954:0:0:0:0:
192,192,196681,1,0,0:0:0:0:
192,192,196954,128,0,197227:0:0:0:0:
64,192,196954,1,0,0:0:0:0:
320,192,197227,128,0,197636:0:0:0:0:
448,192,197227,1,0,0:0:0:0:
64,192,197227,1,0,0:0:0:0:
192,192,197636,1,0,0:0:0:0:
448,192,197704,1,0,0:0:0:0:
64,192,197772,128,0,198318:0:0:0:0:
192,192,197772,128,0,198318:0:0:0:0:
448,192,198318,1,0,0:0:0:0:
320,192,198318,1,0,0:0:0:0:
448,192,198863,1,0,0:0:0:0:
192,192,198863,128,0,199136:0:0:0:0:
64,192,199136,1,0,0:0:0:0:
320,192,199136,128,0,199409:0:0:0:0:
448,192,199409,1,0,0:0:0:0:
192,192,199409,1,0,0:0:0:0:
64,192,199409,128,0,199954:0:0:0:0:
448,192,199954,1,0,0:0:0:0:
192,192,199954,128,0,200227:0:0:0:0:
320,192,200227,128,0,200500:0:0:0:0:
64,192,200227,1,0,0:0:0:0:
64,192,200500,128,0,201045:0:0:0:0:
448,192,200500,1,0,0:0:0:0:
192,192,201045,128,0,201318:0:0:0:0:
448,192,201045,1,0,0:0:0:0:
320,192,201318,128,0,201590:0:0:0:0:
64,192,201318,1,0,0:0:0:0:
448,192,201590,1,0,0:0:0:0:
192,192,201590,1,0,0:0:0:0:
64,192,201590,128,0,202136:0:0:0:0:
192,192,202136,1,0,0:0:0:0:
448,192,202136,1,0,0:0:0:0:
448,192,202272,1,0,0:0:0:0:
192,192,202272,1,0,0:0:0:0:
320,192,202409,1,0,0:0:0:0:
64,192,202409,1,0,0:0:0:0:
64,192,202545,1,0,0:0:0:0:
320,192,202545,1,0,0:0:0:0:
448,192,202681,1,0,0:0:0:0:
192,192,202681,1,0,0:0:0:0:
448,192,202818,1,0,0:0:0:0:
192,192,202818,1,0,0:0:0:0:
320,192,202954,1,0,0:0:0:0:
64,192,202954,1,0,0:0:0:0:
64,192,203090,1,0,0:0:0:0:
320,192,203090,1,0,0:0:0:0:
448,192,203227,1,0,0:0:0:0:
192,192,203227,128,0,203500:0:0:0:0:
64,192,203500,128,0,203772:0:0:0:0:
320,192,203500,1,0,0:0:0:0:
192,192,203772,1,0,0:0:0:0:
320,192,203772,1,0,0:0:0:0:
448,192,203772,128,0,204318:0:0:0:0:
192,192,204318,128,0,204590:0:0:0:0:
64,192,204318,1,0,0:0:0:0:
64,192,204590,128,0,204863:0:0:0:0:
320,192,204590,1,0,0:0:0:0:
448,192,204863,128,0,205409:0:0:0:0:
192,192,204863,1,0,0:0:0:0:
192,192,205409,128,0,205681:0:0:0:0:
64,192,205409,1,0,0:0:0:0:
64,192,205681,128,0,205954:0:0:0:0:
320,192,205681,1,0,0:0:0:0:
448,192,205954,128,0,206227:0:0:0:0:
192,192,205954,128,0,206227:0:0:0:0:
320,192,205954,128,0,206227:0:0:0:0:
320,192,206500,1,0,0:0:0:0:
192,192,206522,1,0,0:0:0:0:
64,192,206670,1,0,0:0:0:0:
448,192,206718,1,0,0:0:0:0:
320,192,206772,1,0,0:0:0:0:
64,192,206909,1,0,0:0:0:0:
192,192,207045,1,0,0:0:0:0:
448,192,207045,1,0,0:0:0:0:
448,192,207181,1,0,0:0:0:0:
64,192,207181,1,0,0:0:0:0:
320,192,207181,1,0,0:0:0:0:
192,192,207318,1,0,0:0:0:0:
320,192,207386,1,0,0:0:0:0:
64,192,207454,1,0,0:0:0:0:
192,192,207454,1,0,0:0:0:0:
448,192,207454,1,0,0:0:0:0:
320,192,207590,1,0,0:0:0:0:
64,192,207590,1,0,0:0:0:0:
192,192,207727,1,0,0:0:0:0:
320,192,207727,1,0,0:0:0:0:
448,192,207727,1,0,0:0:0:0:
64,192,207863,1,0,0:0:0:0:
448,192,207931,1,0,0:0:0:0:
320,192,208000,1,0,0:0:0:0:
192,192,208000,1,0,0:0:0:0:
64,192,208000,1,0,0:0:0:0:
448,192,208136,1,0,0:0:0:0:
192,192,208136,1,0,0:0:0:0:
320,192,208272,1,0,0:0:0:0:
64,192,208272,1,0,0:0:0:0:
448,192,208272,1,0,0:0:0:0:
320,192,208409,1,0,0:0:0:0:
192,192,208409,1,0,0:0:0:0:
64,192,208545,1,0,0:0:0:0:
192,192,208545,1,0,0:0:0:0:
448,192,208545,1,0,0:0:0:0:
320,192,208681,1,0,0:0:0:0:
64,192,208681,1,0,0:0:0:0:
192,192,208818,1,0,0:0:0:0:
320,192,208818,1,0,0:0:0:0:
448,192,208818,1,0,0:0:0:0:
64,192,208954,1,0,0:0:0:0:
192,192,209022,1,0,0:0:0:0:
320,192,209090,1,0,0:0:0:0:
64,192,209090,1,0,0:0:0:0:
448,192,209090,1,0,0:0:0:0:
192,192,209159,1,0,0:0:0:0:
448,192,209227,1,0,0:0:0:0:
320,192,209295,1,0,0:0:0:0:
192,192,209363,1,0,0:0:0:0:
448,192,209363,1,0,0:0:0:0:
64,192,209363,1,0,0:0:0:0:
320,192,209431,1,0,0:0:0:0:
192,192,209500,1,0,0:0:0:0:
64,192,209636,1,0,0:0:0:0:
320,192,209636,1,0,0:0:0:0:
448,192,209636,1,0,0:0:0:0:
192,192,209772,1,0,0:0:0:0:
448,192,209772,1,0,0:0:0:0:
64,192,209909,1,0,0:0:0:0:
192,192,209909,1,0,0:0:0:0:
320,192,209909,1,0,0:0:0:0:
448,192,210045,1,0,0:0:0:0:
64,192,210113,1,0,0:0:0:0:
192,192,210181,1,0,0:0:0:0:
320,192,210181,1,0,0:0:0:0:
448,192,210181,1,0,0:0:0:0:
320,192,210318,1,0,0:0:0:0:
64,192,210318,1,0,0:0:0:0:
448,192,210454,1,0,0:0:0:0:
192,192,210454,1,0,0:0:0:0:
64,192,210454,1,0,0:0:0:0:
320,192,210590,1,0,0:0:0:0:
192,192,210590,1,0,0:0:0:0:
320,192,210727,1,0,0:0:0:0:
448,192,210727,1,0,0:0:0:0:
64,192,210727,1,0,0:0:0:0:
192,192,210863,1,0,0:0:0:0:
448,192,210863,1,0,0:0:0:0:
64,192,211000,1,0,0:0:0:0:
320,192,211000,1,0,0:0:0:0:
192,192,211000,1,0,0:0:0:0:
64,192,211136,1,0,0:0:0:0:
448,192,211136,1,0,0:0:0:0:
192,192,211272,1,0,0:0:0:0:
320,192,211272,1,0,0:0:0:0:
448,192,211272,1,0,0:0:0:0:
320,192,211409,1,0,0:0:0:0:
64,192,211409,1,0,0:0:0:0:
192,192,211545,1,0,0:0:0:0:
64,192,211545,1,0,0:0:0:0:
448,192,211545,1,0,0:0:0:0:
320,192,211681,1,0,0:0:0:0:
192,192,211750,1,0,0:0:0:0:
64,192,211818,1,0,0:0:0:0:
320,192,211818,1,0,0:0:0:0:
448,192,211818,1,0,0:0:0:0:
192,192,211954,1,0,0:0:0:0:
448,192,211954,1,0,0:0:0:0:
64,192,212090,1,0,0:0:0:0:
192,192,212090,1,0,0:0:0:0:
320,192,212090,1,0,0:0:0:0:
448,192,212227,1,0,0:0:0:0:
320,192,212295,1,0,0:0:0:0:
64,192,212363,1,0,0:0:0:0:
192,192,212363,1,0,0:0:0:0:
448,192,212363,1,0,0:0:0:0:
320,192,212500,1,0,0:0:0:0:
192,192,212500,1,0,0:0:0:0:
64,192,212636,1,0,0:0:0:0:
448,192,212636,1,0,0:0:0:0:
320,192,212636,1,0,0:0:0:0:
192,192,212772,1,0,0:0:0:0:
64,192,212772,1,0,0:0:0:0:
448,192,212909,1,0,0:0:0:0:
320,192,212909,1,0,0:0:0:0:
192,192,212909,1,0,0:0:0:0:
64,192,213045,1,0,0:0:0:0:
320,192,213045,1,0,0:0:0:0:
64,192,213181,1,0,0:0:0:0:
192,192,213181,1,0,0:0:0:0:
448,192,213181,1,0,0:0:0:0:
320,192,213318,1,0,0:0:0:0:
192,192,213386,1,0,0:0:0:0:
448,192,213454,1,0,0:0:0:0:
320,192,213522,1,0,0:0:0:0:
192,192,213590,1,0,0:0:0:0:
64,192,213590,1,0,0:0:0:0:
448,192,213659,1,0,0:0:0:0:
320,192,213659,1,0,0:0:0:0:
192,192,213727,1,0,0:0:0:0:
64,192,213727,1,0,0:0:0:0:
320,192,213795,1,0,0:0:0:0:
448,192,213795,1,0,0:0:0:0:
64,192,213863,1,0,0:0:0:0:
192,192,214000,1,0,0:0:0:0:
320,192,214000,1,0,0:0:0:0:
448,192,214000,1,0,0:0:0:0:
64,192,214136,1,0,0:0:0:0:
192,192,214136,1,0,0:0:0:0:
448,192,214136,1,0,0:0:0:0:
320,192,214272,1,0,0:0:0:0:
64,192,214340,1,0,0:0:0:0:
448,192,214409,1,0,0:0:0:0:
192,192,214409,1,0,0:0:0:0:
320,192,214545,1,0,0:0:0:0:
192,192,214545,1,0,0:0:0:0:
64,192,214545,1,0,0:0:0:0:
448,192,214681,1,0,0:0:0:0:
320,192,214681,1,0,0:0:0:0:
64,192,214681,1,0,0:0:0:0:
192,192,214818,1,0,0:0:0:0:
448,192,214886,1,0,0:0:0:0:
320,192,214954,1,0,0:0:0:0:
64,192,214954,1,0,0:0:0:0:
192,192,215090,1,0,0:0:0:0:
64,192,215090,1,0,0:0:0:0:
448,192,215090,1,0,0:0:0:0:
448,192,215227,1,0,0:0:0:0:
320,192,215227,1,0,0:0:0:0:
192,192,215295,1,0,0:0:0:0:
64,192,215295,1,0,0:0:0:0:
320,192,215363,1,0,0:0:0:0:
448,192,215363,1,0,0:0:0:0:
192,192,215431,1,0,0:0:0:0:
64,192,215431,1,0,0:0:0:0:
320,192,215500,1,0,0:0:0:0:
448,192,215500,1,0,0:0:0:0:
192,192,215568,1,0,0:0:0:0:
64,192,215568,1,0,0:0:0:0:
320,192,215636,1,0,0:0:0:0:
448,192,215636,1,0,0:0:0:0:
192,192,215704,1,0,0:0:0:0:
64,192,215704,1,0,0:0:0:0:
320,192,215772,1,0,0:0:0:0:
448,192,215772,1,0,0:0:0:0:
192,192,215840,1,0,0:0:0:0:
64,192,215909,1,0,0:0:0:0:
320,192,215909,1,0,0:0:0:0:
448,192,215977,1,0,0:0:0:0:
192,192,216045,1,0,0:0:0:0:
64,192,216045,1,0,0:0:0:0:
320,192,216113,1,0,0:0:0:0:
448,192,216181,1,0,0:0:0:0:
192,192,216181,1,0,0:0:0:0:
64,192,216250,1,0,0:0:0:0:
448,192,216318,1,0,0:0:0:0:
320,192,216318,1,0,0:0:0:0:
192,192,216386,1,0,0:0:0:0:
320,192,216454,1,0,0:0:0:0:
448,192,216522,1,0,0:0:0:0:
192,192,216590,1,0,0:0:0:0:
64,192,216590,1,0,0:0:0:0:
320,192,216659,1,0,0:0:0:0:
448,192,216727,1,0,0:0:0:0:
192,192,216727,1,0,0:0:0:0:
64,192,216795,1,0,0:0:0:0:
448,192,216863,1,0,0:0:0:0:
320,192,216863,1,0,0:0:0:0:
192,192,216931,1,0,0:0:0:0:
320,192,217000,1,0,0:0:0:0:
448,192,217068,1,0,0:0:0:0:
192,192,217136,1,0,0:0:0:0:
64,192,217136,1,0,0:0:0:0:
320,192,217204,1,0,0:0:0:0:
192,192,217272,1,0,0:0:0:0:
448,192,217272,1,0,0:0:0:0:
64,192,217340,1,0,0:0:0:0:
448,192,217409,1,0,0:0:0:0:
320,192,217409,1,0,0:0:0:0:
192,192,217477,1,0,0:0:0:0:
320,192,217545,1,0,0:0:0:0:
64,192,217613,1,0,0:0:0:0:
192,192,217681,1,0,0:0:0:0:
448,192,217681,1,0,0:0:0:0:
64,192,217750,1,0,0:0:0:0:
320,192,217818,1,0,0:0:0:0:
448,192,217818,1,0,0:0:0:0:
192,192,217886,1,0,0:0:0:0:
64,192,217954,1,0,0:0:0:0:
320,192,217954,1,0,0:0:0:0:
448,192,218022,1,0,0:0:0:0:
192,192,218090,1,0,0:0:0:0:
64,192,218090,1,0,0:0:0:0:
320,192,218159,1,0,0:0:0:0:
448,192,218227,1,0,0:0:0:0:
192,192,218227,1,0,0:0:0:0:
64,192,218295,1,0,0:0:0:0:
448,192,218363,1,0,0:0:0:0:
320,192,218363,1,0,0:0:0:0:
192,192,218431,1,0,0:0:0:0:
320,192,218500,1,0,0:0:0:0:
64,192,218500,1,0,0:0:0:0:
192,192,218568,1,0,0:0:0:0:
64,192,218636,1,0,0:0:0:0:
320,192,218704,1,0,0:0:0:0:
192,192,218772,1,0,0:0:0:0:
448,192,218772,1,0,0:0:0:0:
64,192,218840,1,0,0:0:0:0:
448,192,218909,1,0,0:0:0:0:
320,192,218909,1,0,0:0:0:0:
192,192,218977,1,0,0:0:0:0:
320,192,219045,1,0,0:0:0:0:
64,192,219045,1,0,0:0:0:0:
192,192,219113,1,0,0:0:0:0:
64,192,219181,1,0,0:0:0:0:
320,192,219250,1,0,0:0:0:0:
448,192,219318,1,0,0:0:0:0:
192,192,219318,1,0,0:0:0:0:
64,192,219386,1,0,0:0:0:0:
320,192,219454,1,0,0:0:0:0:
448,192,219454,1,0,0:0:0:0:
192,192,219522,1,0,0:0:0:0:
320,192,219590,1,0,0:0:0:0:
64,192,219590,1,0,0:0:0:0:
192,192,219659,1,0,0:0:0:0:
64,192,219727,1,0,0:0:0:0:
320,192,219795,1,0,0:0:0:0:
192,192,219863,1,0,0:0:0:0:
64,192,219863,1,0,0:0:0:0:
320,192,219931,1,0,0:0:0:0:
448,192,219931,1,0,0:0:0:0:
192,192,220000,1,0,0:0:0:0:
64,192,220000,1,0,0:0:0:0:
448,192,220068,1,0,0:0:0:0:
64,192,220136,128,0,220409:0:0:0:0:
192,192,220136,128,0,220340:0:0:0:0:
320,192,220136,128,0,220272:0:0:0:0:
448,192,220409,1,0,0:0:0:0:
448,192,220545,1,0,0:0:0:0:
320,192,220681,128,0,220954:0:0:0:0:
192,192,220954,1,0,0:0:0:0:
192,192,221090,1,0,0:0:0:0:
64,192,221227,128,0,221500:0:0:0:0:
320,192,221500,1,0,0:0:0:0:
320,192,221636,1,0,0:0:0:0:
192,192,221772,128,0,222045:0:0:0:0:
64,192,222045,1,0,0:0:0:0:
320,192,222045,1,0,0:0:0:0:
448,192,222045,1,0,0:0:0:0:
192,192,222181,1,0,0:0:0:0:
64,192,222181,1,0,0:0:0:0:
448,192,222181,1,0,0:0:0:0:
64,192,222318,1,0,0:0:0:0:
320,192,222318,1,0,0:0:0:0:
448,192,222318,1,0,0:0:0:0:
192,192,222386,1,0,0:0:0:0:
448,192,222454,1,0,0:0:0:0:
64,192,222454,1,0,0:0:0:0:
320,192,222522,1,0,0:0:0:0:
192,192,222590,1,0,0:0:0:0:
64,192,222590,1,0,0:0:0:0:
320,192,222659,1,0,0:0:0:0:
448,192,222727,1,0,0:0:0:0:
64,192,222727,1,0,0:0:0:0:
192,192,222795,1,0,0:0:0:0:
320,192,222863,1,0,0:0:0:0:
448,192,222863,1,0,0:0:0:0:
192,192,222931,1,0,0:0:0:0:
448,192,223000,1,0,0:0:0:0:
64,192,223000,1,0,0:0:0:0:
320,192,223068,1,0,0:0:0:0:
192,192,223136,1,0,0:0:0:0:
64,192,223136,1,0,0:0:0:0:
320,192,223204,1,0,0:0:0:0:
64,192,223272,1,0,0:0:0:0:
448,192,223272,1,0,0:0:0:0:
192,192,223340,1,0,0:0:0:0:
448,192,223409,1,0,0:0:0:0:
320,192,223409,1,0,0:0:0:0:
64,192,223477,1,0,0:0:0:0:
192,192,223477,1,0,0:0:0:0:
320,192,223545,1,0,0:0:0:0:
448,192,223545,1,0,0:0:0:0:
192,192,223613,1,0,0:0:0:0:
64,192,223613,1,0,0:0:0:0:
320,192,223681,1,0,0:0:0:0:
448,192,223750,1,0,0:0:0:0:
64,192,223818,1,0,0:0:0:0:
192,192,223886,1,0,0:0:0:0:
448,192,223954,1,0,0:0:0:0:
320,192,223954,1,0,0:0:0:0:
64,192,223954,1,0,0:0:0:0:
192,192,224022,1,0,0:0:0:0:
320,192,224090,1,0,0:0:0:0:
192,192,224159,1,0,0:0:0:0:
320,192,224227,1,0,0:0:0:0:
192,192,224295,1,0,0:0:0:0:
320,192,224363,1,0,0:0:0:0:
192,192,224431,1,0,0:0:0:0:
320,192,224500,1,0,0:0:0:0:
64,192,224500,1,0,0:0:0:0:
192,192,224636,1,0,0:0:0:0:
448,192,224636,1,0,0:0:0:0:
64,192,224636,1,0,0:0:0:0:
320,192,224772,1,0,0:0:0:0:
448,192,224772,1,0,0:0:0:0:
192,192,224840,1,0,0:0:0:0:
320,192,224909,1,0,0:0:0:0:
64,192,224909,1,0,0:0:0:0:
448,192,224909,1,0,0:0:0:0:
64,192,225045,1,0,0:0:0:0:
192,192,225045,1,0,0:0:0:0:
192,192,225181,1,0,0:0:0:0:
320,192,225181,1,0,0:0:0:0:
448,192,225181,1,0,0:0:0:0:
320,192,225318,1,0,0:0:0:0:
64,192,225318,1,0,0:0:0:0:
192,192,225386,1,0,0:0:0:0:
448,192,225454,1,0,0:0:0:0:
320,192,225454,1,0,0:0:0:0:
64,192,225454,1,0,0:0:0:0:
448,192,225590,1,0,0:0:0:0:
192,192,225590,1,0,0:0:0:0:
320,192,225727,1,0,0:0:0:0:
192,192,225727,1,0,0:0:0:0:
64,192,225727,1,0,0:0:0:0:
320,192,225863,1,0,0:0:0:0:
448,192,225863,1,0,0:0:0:0:
448,192,226000,1,0,0:0:0:0:
192,192,226000,1,0,0:0:0:0:
64,192,226000,1,0,0:0:0:0:
320,192,226136,1,0,0:0:0:0:
192,192,226136,1,0,0:0:0:0:
448,192,226272,1,0,0:0:0:0:
320,192,226272,1,0,0:0:0:0:
64,192,226272,1,0,0:0:0:0:
192,192,226409,1,0,0:0:0:0:
448,192,226409,1,0,0:0:0:0:
192,192,226545,1,0,0:0:0:0:
320,192,226545,1,0,0:0:0:0:
64,192,226545,1,0,0:0:0:0:
448,192,226681,1,0,0:0:0:0:
64,192,226681,1,0,0:0:0:0:
320,192,226818,1,0,0:0:0:0:
192,192,226818,1,0,0:0:0:0:
448,192,226818,1,0,0:0:0:0:
64,192,226954,1,0,0:0:0:0:
320,192,226954,1,0,0:0:0:0:
192,192,227022,1,0,0:0:0:0:
320,192,227090,1,0,0:0:0:0:
64,192,227090,1,0,0:0:0:0:
448,192,227090,1,0,0:0:0:0:
192,192,227227,1,0,0:0:0:0:
448,192,227227,1,0,0:0:0:0:
320,192,227363,1,0,0:0:0:0:
192,192,227363,1,0,0:0:0:0:
64,192,227363,1,0,0:0:0:0:
448,192,227500,1,0,0:0:0:0:
320,192,227500,1,0,0:0:0:0:
64,192,227568,1,0,0:0:0:0:
320,192,227636,1,0,0:0:0:0:
192,192,227636,1,0,0:0:0:0:
448,192,227636,1,0,0:0:0:0:
64,192,227772,1,0,0:0:0:0:
192,192,227772,1,0,0:0:0:0:
320,192,227909,1,0,0:0:0:0:
64,192,227909,1,0,0:0:0:0:
448,192,227909,1,0,0:0:0:0:
320,192,228045,1,0,0:0:0:0:
192,192,228045,1,0,0:0:0:0:
64,192,228181,1,0,0:0:0:0:
192,192,228181,1,0,0:0:0:0:
448,192,228181,1,0,0:0:0:0:
320,192,228318,1,0,0:0:0:0:
448,192,228318,1,0,0:0:0:0:
64,192,228454,1,0,0:0:0:0:
320,192,228454,1,0,0:0:0:0:
192,192,228454,1,0,0:0:0:0:
448,192,228590,1,0,0:0:0:0:
64,192,228590,1,0,0:0:0:0:
192,192,228727,1,0,0:0:0:0:
320,192,228727,1,0,0:0:0:0:
448,192,228727,1,0,0:0:0:0:
192,192,228863,1,0,0:0:0:0:
64,192,228863,1,0,0:0:0:0:
448,192,229000,1,0,0:0:0:0:
320,192,229000,1,0,0:0:0:0:
64,192,229000,1,0,0:0:0:0:
192,192,229136,1,0,0:0:0:0:
448,192,229136,1,0,0:0:0:0:
320,192,229204,1,0,0:0:0:0:
64,192,229272,1,0,0:0:0:0:
192,192,229272,1,0,0:0:0:0:
448,192,229272,1,0,0:0:0:0:
64,192,229409,1,0,0:0:0:0:
320,192,229409,1,0,0:0:0:0:
448,192,229545,1,0,0:0:0:0:
192,192,229545,1,0,0:0:0:0:
320,192,229545,1,0,0:0:0:0:
64,192,229681,1,0,0:0:0:0:
192,192,229681,1,0,0:0:0:0:
320,192,229750,1,0,0:0:0:0:
64,192,229818,1,0,0:0:0:0:
192,192,229818,1,0,0:0:0:0:
448,192,229818,1,0,0:0:0:0:
320,192,229954,1,0,0:0:0:0:
448,192,229954,1,0,0:0:0:0:
192,192,230090,1,0,0:0:0:0:
320,192,230090,1,0,0:0:0:0:
64,192,230090,1,0,0:0:0:0:
192,192,230227,1,0,0:0:0:0:
448,192,230227,1,0,0:0:0:0:
320,192,230363,1,0,0:0:0:0:
448,192,230363,1,0,0:0:0:0:
64,192,230363,1,0,0:0:0:0:
192,192,230500,1,0,0:0:0:0:
320,192,230500,1,0,0:0:0:0:
192,192,230636,1,0,0:0:0:0:
448,192,230636,1,0,0:0:0:0:
64,192,230636,1,0,0:0:0:0:
320,192,230704,1,0,0:0:0:0:
448,192,230772,1,0,0:0:0:0:
192,192,230840,1,0,0:0:0:0:
320,192,230909,1,0,0:0:0:0:
448,192,230909,1,0,0:0:0:0:
64,192,230909,1,0,0:0:0:0:
192,192,230977,1,0,0:0:0:0:
64,192,231045,1,0,0:0:0:0:
448,192,231113,1,0,0:0:0:0:
320,192,231113,1,0,0:0:0:0:
192,192,231181,1,0,0:0:0:0:
64,192,231181,1,0,0:0:0:0:
320,192,231250,1,0,0:0:0:0:
448,192,231250,1,0,0:0:0:0:
192,192,231318,1,0,0:0:0:0:
64,192,231318,1,0,0:0:0:0:
448,192,231386,1,0,0:0:0:0:
192,192,231454,1,0,0:0:0:0:
448,192,231522,1,0,0:0:0:0:
192,192,231590,1,0,0:0:0:0:
320,192,231659,1,0,0:0:0:0:
64,192,231727,1,0,0:0:0:0:
320,192,231795,1,0,0:0:0:0:
64,192,231863,1,0,0:0:0:0:
448,192,231931,1,0,0:0:0:0:
192,192,232000,1,0,0:0:0:0:
448,192,232068,1,0,0:0:0:0:
64,192,232136,128,0,232272:0:0:0:0:
192,192,232136,128,0,232204:0:0:0:0:
320,192,232136,128,0,232272:0:0:0:0:
64,192,232409,128,0,232545:0:0:0:0:
192,192,232409,128,0,232477:0:0:0:0:
320,192,232409,128,0,232545:0:0:0:0:
320,192,232681,128,0,232818:0:0:0:0:
192,192,232681,128,0,232750:0:0:0:0:
64,192,232681,128,0,233227:0:0:0:0:
320,192,233909,128,0,234045:0:0:0:0:
192,192,234045,128,0,234181:0:0:0:0:
448,192,234045,128,0,234181:0:0:0:0:
320,192,234181,128,0,234250:0:0:0:0:
