osu file format v14

[General]
AudioFilename: audio.mp3
AudioLeadIn: 0
PreviewTime: -1
Countdown: 1
SampleSet: None
StackLeniency: 0.7
Mode: 0
LetterboxInBreaks: 0
WidescreenStoryboard: 0

[Editor]
DistanceSpacing: 0.5
BeatDivisor: 4
GridSize: 4
TimelineZoom: 1

[Metadata]
Title:Micsinal Techno
TitleUnicode:Micsinal Techno
Artist:Zlolenszki Levente
ArtistUnicode:Zlolenszki Levente
Creator:zzs1337
Version:Normal
Source:
Tags:
BeatmapID:1866350
BeatmapSetID:892916

[Difficulty]
HPDrainRate:5
CircleSize:5
OverallDifficulty:5
ApproachRate:5
SliderMultiplier:1.4
SliderTickRate:1

[Events]
//Background and Video events
//Break Periods
2,44497,46904
//Storyboard Layer 0 (Background)
//Storyboard Layer 1 (Fail)
//Storyboard Layer 2 (Pass)
//Storyboard Layer 3 (Foreground)
//Storyboard Sound Samples

[TimingPoints]
1950.87215341516,461.538461538462,4,1,0,100,1,0

[HitObjects]
132,130,2873,5,0,0:0:0:0:
218,128,3335,1,0,0:0:0:0:
296,124,3797,1,0,0:0:0:0:
365,127,4258,1,0,0:0:0:0:
397,197,4720,6,0,B|331:323|249:271|238:274,1,175
104,181,6450,1,0,0:0:0:0:
197,148,7027,1,0,0:0:0:0:
362,109,7489,1,0,0:0:0:0:
463,161,7950,1,0,0:0:0:0:
446,247,8412,1,0,0:0:0:0:
304,266,8873,1,0,0:0:0:0:
179,283,9335,1,0,0:0:0:0:
58,261,9797,1,0,0:0:0:0:
47,193,10258,1,0,0:0:0:0:
45,182,10373,1,0,0:0:0:0:
46,169,10489,1,0,0:0:0:0:
50,149,10604,1,0,0:0:0:0:
59,128,10720,1,0,0:0:0:0:
73,113,10835,1,0,0:0:0:0:
96,99,10950,1,0,0:0:0:0:
121,93,11066,1,0,0:0:0:0:
155,91,11181,1,0,0:0:0:0:
183,91,11297,1,0,0:0:0:0:
216,95,11412,1,0,0:0:0:0:
246,98,11527,1,0,0:0:0:0:
274,104,11643,1,0,0:0:0:0:
301,107,11758,1,0,0:0:0:0:
338,117,11873,1,0,0:0:0:0:
366,130,11989,1,0,0:0:0:0:
386,145,12104,1,0,0:0:0:0:
408,159,12220,1,0,0:0:0:0:
422,173,12335,1,0,0:0:0:0:
436,196,12450,1,0,0:0:0:0:
438,220,12566,1,0,0:0:0:0:
436,242,12681,1,0,0:0:0:0:
423,266,12797,1,0,0:0:0:0:
404,292,12912,1,0,0:0:0:0:
387,306,13027,1,0,0:0:0:0:
352,326,13143,1,0,0:0:0:0:
319,336,13258,1,0,0:0:0:0:
282,338,13373,1,0,0:0:0:0:
260,342,13489,1,0,0:0:0:0:
239,343,13604,1,0,0:0:0:0:
217,344,13720,1,0,0:0:0:0:
188,343,13835,1,0,0:0:0:0:
167,343,13950,1,0,0:0:0:0:
145,339,14066,1,0,0:0:0:0:
133,336,14181,1,0,0:0:0:0:
121,331,14297,1,0,0:0:0:0:
111,325,14412,1,0,0:0:0:0:
106,323,14527,1,0,0:0:0:0:
91,308,14643,1,0,0:0:0:0:
86,300,14758,1,0,0:0:0:0:
83,287,14873,1,0,0:0:0:0:
79,273,14989,1,0,0:0:0:0:
78,268,15104,1,0,0:0:0:0:
78,250,15220,1,0,0:0:0:0:
77,240,15335,1,0,0:0:0:0:
77,217,15450,1,0,0:0:0:0:
78,211,15566,1,0,0:0:0:0:
81,201,15681,1,0,0:0:0:0:
90,175,15797,1,0,0:0:0:0:
98,139,15912,1,0,0:0:0:0:
107,122,16027,1,0,0:0:0:0:
121,103,16143,1,0,0:0:0:0:
132,95,16258,1,0,0:0:0:0:
146,88,16373,1,0,0:0:0:0:
161,86,16489,1,0,0:0:0:0:
180,81,16604,1,0,0:0:0:0:
210,74,16720,1,0,0:0:0:0:
247,74,16835,1,0,0:0:0:0:
266,76,16950,1,0,0:0:0:0:
297,84,17066,1,0,0:0:0:0:
327,91,17181,1,0,0:0:0:0:
346,99,17297,1,0,0:0:0:0:
368,111,17412,1,0,0:0:0:0:
388,123,17527,1,0,0:0:0:0:
418,138,17643,1,0,0:0:0:0:
440,154,17758,1,0,0:0:0:0:
475,181,17873,1,0,0:0:0:0:
488,192,17989,1,0,0:0:0:0:
498,207,18104,1,0,0:0:0:0:
511,225,18220,1,0,0:0:0:0:
445,250,18681,2,0,B|-48:225|59:78|397:107|570:135|598:259|441:339|195:336|-3:285|-22:133|123:28|387:35|604:108|614:280|534:384|383:378|182:331|10:286|-31:171|220:78|249:74|466:102|546:122|586:200|568:334|547:360|449:336|222:323|21:325|-19:121|26:28|205:9|363:59|481:173|481:208,1,1855
181,73,25258,2,0,B|175:260|500:203|477:332|332:270,1,420
256,192,27220,12,0,32989,0:0:0:0:
256,192,33681,12,0,34835,0:0:0:0:
256,192,35412,12,0,36681,0:0:0:0:
256,192,37143,12,0,38527,0:0:0:0:
256,192,38873,12,0,40258,0:0:0:0:
256,192,40720,12,0,41989,0:0:0:0:
252,176,44297,5,0,0:0:0:0:
171,187,48104,5,0,0:0:0:0:
186,188,48220,1,0,0:0:0:0:
221,188,48335,1,0,0:0:0:0:
221,188,48450,1,0,0:0:0:0:
231,187,48566,1,0,0:0:0:0:
239,187,48681,1,0,0:0:0:0:
260,186,48797,1,0,0:0:0:0:
270,185,48912,1,0,0:0:0:0:
285,185,49027,1,0,0:0:0:0:
302,186,49143,1,0,0:0:0:0:
312,185,49258,1,0,0:0:0:0:
329,187,49373,1,0,0:0:0:0:
348,187,49489,1,0,0:0:0:0:
370,193,49604,1,0,0:0:0:0:
387,199,49720,1,0,0:0:0:0:
402,215,49835,1,0,0:0:0:0:
405,226,49950,1,0,0:0:0:0:
407,244,50181,1,0,0:0:0:0:
401,264,50297,1,0,0:0:0:0:
384,283,50412,1,0,0:0:0:0:
365,294,50527,1,0,0:0:0:0:
331,298,50643,1,0,0:0:0:0:
310,301,50758,1,0,0:0:0:0:
273,308,50873,1,0,0:0:0:0:
252,309,50989,1,0,0:0:0:0:
224,314,51104,1,0,0:0:0:0:
206,314,51220,1,0,0:0:0:0:
188,313,51335,1,0,0:0:0:0:
140,303,51450,1,0,0:0:0:0:
121,294,51566,1,0,0:0:0:0:
108,283,51681,1,0,0:0:0:0:
94,265,51797,1,0,0:0:0:0:
93,258,51912,1,0,0:0:0:0:
86,228,52027,1,0,0:0:0:0:
87,159,52143,1,0,0:0:0:0:
89,137,52258,1,0,0:0:0:0:
90,124,52373,1,0,0:0:0:0:
103,98,52489,1,0,0:0:0:0:
126,76,52604,1,0,0:0:0:0:
161,55,52720,1,0,0:0:0:0:
194,46,52835,1,0,0:0:0:0:
239,46,52950,1,0,0:0:0:0:
452,95,53297,1,0,0:0:0:0:
136,182,53412,1,0,0:0:0:0:
101,42,53643,1,0,0:0:0:0:
325,113,53758,1,0,0:0:0:0:
356,306,53873,1,0,0:0:0:0:
469,81,54104,1,0,0:0:0:0:
263,104,54220,1,0,0:0:0:0:
163,198,54335,1,0,0:0:0:0:
143,310,54450,1,0,0:0:0:0:
54,128,54566,1,0,0:0:0:0:
109,34,54797,1,0,0:0:0:0:
280,71,54912,1,0,0:0:0:0:
367,191,55027,1,0,0:0:0:0:
415,287,55143,1,0,0:0:0:0:
235,315,55258,1,0,0:0:0:0:
145,241,55373,1,0,0:0:0:0:
215,122,55489,1,0,0:0:0:0:
456,132,55604,1,0,0:0:0:0:
491,217,55720,1,0,0:0:0:0:
351,298,55835,1,0,0:0:0:0:
221,108,55950,1,0,0:0:0:0:
415,75,56066,1,0,0:0:0:0:
383,37,56181,1,0,0:0:0:0:
151,187,56412,1,0,0:0:0:0:
331,282,56527,1,0,0:0:0:0:
468,197,56643,1,0,0:0:0:0:
368,135,56758,1,0,0:0:0:0:
326,212,56873,1,0,0:0:0:0:
164,168,56989,1,0,0:0:0:0:
275,49,57220,1,0,0:0:0:0:
405,88,57335,1,0,0:0:0:0:
377,217,57450,1,0,0:0:0:0:
239,251,57566,1,0,0:0:0:0:
96,224,57681,1,0,0:0:0:0:
160,48,57797,1,0,0:0:0:0:
496,284,57912,1,0,0:0:0:0:
41,215,58027,1,0,0:0:0:0:
493,45,58143,1,0,0:0:0:0:
113,208,58258,1,0,0:0:0:0:
111,69,58373,1,0,0:0:0:0:
355,255,58489,1,0,0:0:0:0:
240,71,58720,1,0,0:0:0:0:
256,203,58835,1,0,0:0:0:0:
102,276,58950,1,0,0:0:0:0:
209,44,59066,1,0,0:0:0:0:
417,120,59181,1,0,0:0:0:0:
368,276,59297,1,0,0:0:0:0:
139,192,59412,1,0,0:0:0:0:
204,27,59527,1,0,0:0:0:0:
445,108,59643,1,0,0:0:0:0:
215,227,59758,1,0,0:0:0:0:
169,56,59873,1,0,0:0:0:0:
293,339,60104,1,0,0:0:0:0:
95,244,60335,1,0,0:0:0:0:
204,27,60450,1,0,0:0:0:0:
427,88,60566,1,0,0:0:0:0:
437,260,60681,1,0,0:0:0:0:
145,289,60797,1,0,0:0:0:0:
350,35,60912,1,0,0:0:0:0:
357,304,61143,1,0,0:0:0:0:
114,224,61258,1,0,0:0:0:0:
196,59,61373,1,0,0:0:0:0:
389,91,61489,1,0,0:0:0:0:
408,263,61604,1,0,0:0:0:0:
191,263,61720,1,0,0:0:0:0:
148,142,61950,1,0,0:0:0:0:
281,77,62066,1,0,0:0:0:0:
176,276,62181,1,0,0:0:0:0:
326,45,62412,1,0,0:0:0:0:
486,98,62527,1,0,0:0:0:0:
416,257,62643,1,0,0:0:0:0:
115,257,62758,1,0,0:0:0:0:
86,165,62873,1,0,0:0:0:0:
95,154,63104,1,0,0:0:0:0:
90,139,63220,1,0,0:0:0:0:
91,132,63335,1,0,0:0:0:0:
92,121,63450,1,0,0:0:0:0:
94,113,63566,1,0,0:0:0:0:
96,106,63681,1,0,0:0:0:0:
99,88,63797,1,0,0:0:0:0:
105,79,63912,1,0,0:0:0:0:
119,67,64027,1,0,0:0:0:0:
132,55,64143,1,0,0:0:0:0:
142,51,64258,1,0,0:0:0:0:
163,49,64373,1,0,0:0:0:0:
182,50,64489,1,0,0:0:0:0:
197,52,64604,1,0,0:0:0:0:
216,56,64720,1,0,0:0:0:0:
239,61,64835,1,0,0:0:0:0:
252,63,64950,1,0,0:0:0:0:
271,65,65066,1,0,0:0:0:0:
286,67,65181,1,0,0:0:0:0:
300,69,65297,1,0,0:0:0:0:
314,72,65412,1,0,0:0:0:0:
331,75,65527,1,0,0:0:0:0:
345,78,65643,1,0,0:0:0:0:
361,80,65758,1,0,0:0:0:0:
379,83,65873,1,0,0:0:0:0:
400,87,65989,1,0,0:0:0:0:
406,87,66104,1,0,0:0:0:0:
420,90,66220,1,0,0:0:0:0:
442,98,66335,1,0,0:0:0:0:
455,108,66450,1,0,0:0:0:0:
462,116,66566,1,0,0:0:0:0:
471,133,66681,1,0,0:0:0:0:
477,145,66797,1,0,0:0:0:0:
483,157,66912,1,0,0:0:0:0:
493,171,67027,1,0,0:0:0:0:
499,182,67143,1,0,0:0:0:0:
508,192,67258,1,0,0:0:0:0:
490,243,67604,1,0,0:0:0:0:
489,264,67720,1,0,0:0:0:0:
479,287,67835,1,0,0:0:0:0:
469,299,67950,1,0,0:0:0:0:
451,313,68066,1,0,0:0:0:0:
443,317,68181,1,0,0:0:0:0:
428,323,68297,1,0,0:0:0:0:
412,327,68412,1,0,0:0:0:0:
396,328,68527,1,0,0:0:0:0:
378,330,68643,1,0,0:0:0:0:
366,333,68758,1,0,0:0:0:0:
354,333,68873,1,0,0:0:0:0:
343,333,68989,1,0,0:0:0:0:
314,332,69104,1,0,0:0:0:0:
295,332,69220,1,0,0:0:0:0:
280,334,69335,1,0,0:0:0:0:
266,335,69450,1,0,0:0:0:0:
251,336,69566,1,0,0:0:0:0:
242,337,69681,1,0,0:0:0:0:
222,334,69797,1,0,0:0:0:0:
201,335,69912,1,0,0:0:0:0:
189,335,70027,1,0,0:0:0:0:
171,333,70143,1,0,0:0:0:0:
148,331,70258,1,0,0:0:0:0:
125,327,70373,1,0,0:0:0:0:
119,326,70489,1,0,0:0:0:0:
100,323,70604,1,0,0:0:0:0:
85,320,70720,1,0,0:0:0:0:
74,316,70835,1,0,0:0:0:0:
60,312,70950,1,0,0:0:0:0:
31,301,71181,1,0,0:0:0:0:
16,290,71297,1,0,0:0:0:0:
5,278,71412,1,0,0:0:0:0:
26,256,71758,1,0,0:0:0:0:
26,239,71873,1,0,0:0:0:0:
51,196,71989,1,0,0:0:0:0:
54,183,72104,1,0,0:0:0:0:
61,165,72220,1,0,0:0:0:0:
81,139,72450,1,0,0:0:0:0:
91,121,72566,1,0,0:0:0:0:
97,113,72681,1,0,0:0:0:0:
110,98,72797,1,0,0:0:0:0:
159,76,72912,1,0,0:0:0:0:
187,69,73027,1,0,0:0:0:0:
205,67,73143,1,0,0:0:0:0:
243,63,73373,1,0,0:0:0:0:
263,61,73489,1,0,0:0:0:0:
301,69,73604,1,0,0:0:0:0:
321,77,73720,1,0,0:0:0:0:
339,95,73835,1,0,0:0:0:0:
351,159,73950,1,0,0:0:0:0:
351,187,74066,1,0,0:0:0:0:
350,210,74181,1,0,0:0:0:0:
350,243,74297,1,0,0:0:0:0:
342,279,74412,1,0,0:0:0:0:
332,309,74527,1,0,0:0:0:0:
292,312,74643,1,0,0:0:0:0:
231,293,74758,1,0,0:0:0:0:
215,250,74873,1,0,0:0:0:0:
