osu file format v14

[General]
AudioFilename: audio.mp3
AudioLeadIn: 0
PreviewTime: -1
Countdown: 0
SampleSet: Normal
StackLeniency: 0.7
Mode: 3
LetterboxInBreaks: 0
SpecialStyle: 0
WidescreenStoryboard: 1

[Editor]
DistanceSpacing: 0.8
BeatDivisor: 16
GridSize: 16
TimelineZoom: 1.4

[Metadata]
Title:Du Gamla Du Fria
TitleUnicode:Du Gamla Du Fria
Artist:Zlatan
ArtistUnicode:Zlatan
Creator:-Rem-
Version:Avril 16th
Source:
Tags:
BeatmapID:2372956
BeatmapSetID:928187

[Difficulty]
HPDrainRate:5
CircleSize:7
OverallDifficulty:5
ApproachRate:5
SliderMultiplier:1.4
SliderTickRate:1

[Events]
//Background and Video events
0,0,"northern-lights1.jpg",0,0
//Break Periods
//Storyboard Layer 0 (Background)
//Storyboard Layer 1 (Fail)
//Storyboard Layer 2 (Pass)
//Storyboard Layer 3 (Foreground)
//Storyboard Layer 4 (Overlay)
//Storyboard Sound Samples

[TimingPoints]
90,857.142857142857,4,1,0,5,1,0
100391,-200,4,1,0,5,0,0
103820,-181.818181818182,4,1,0,5,0,0
106391,-105.263157894737,4,1,0,5,0,0

[HitObjects]
36,192,250,128,0,4214:0:0:0:0:
182,192,304,128,0,4161:0:0:0:0:
329,192,357,128,0,4107:0:0:0:0:
475,192,411,128,0,4000:0:0:0:0:
402,192,411,128,0,4054:0:0:0:0:
36,192,4375,128,0,4482:0:0:0:0:
109,192,4375,128,0,5018:0:0:0:0:
475,192,4375,128,0,4804:0:0:0:0:
329,192,4375,128,0,5661:0:0:0:0:
36,192,4589,128,0,4697:0:0:0:0:
36,192,4804,128,0,4911:0:0:0:0:
402,192,4804,128,0,6947:0:0:0:0:
36,192,5018,128,0,5125:0:0:0:0:
475,192,5018,128,0,6518:0:0:0:0:
256,192,5018,128,0,7375:0:0:0:0:
36,192,5232,128,0,5339:0:0:0:0:
36,192,5447,128,0,5554:0:0:0:0:
36,192,5661,128,0,5768:0:0:0:0:
36,192,5875,128,0,5982:0:0:0:0:
36,192,6089,128,0,6197:0:0:0:0:
36,192,6304,128,0,6411:0:0:0:0:
36,192,6518,128,0,6625:0:0:0:0:
36,192,6732,128,0,6839:0:0:0:0:
36,192,6947,128,0,7054:0:0:0:0:
36,192,7161,128,0,7268:0:0:0:0:
182,192,7161,128,0,7804:0:0:0:0:
36,192,7375,128,0,7482:0:0:0:0:
36,192,7589,128,0,7697:0:0:0:0:
475,192,7804,128,0,7911:0:0:0:0:
109,192,7804,128,0,7911:0:0:0:0:
36,192,7804,128,0,8447:0:0:0:0:
256,192,7804,128,0,8232:0:0:0:0:
475,192,8018,128,0,8125:0:0:0:0:
475,192,8232,128,0,8339:0:0:0:0:
182,192,8232,128,0,10375:0:0:0:0:
475,192,8447,128,0,8554:0:0:0:0:
109,192,8447,128,0,9947:0:0:0:0:
256,192,8447,128,0,10804:0:0:0:0:
475,192,8661,128,0,8768:0:0:0:0:
475,192,8875,128,0,8982:0:0:0:0:
475,192,9089,128,0,9197:0:0:0:0:
36,192,9089,128,0,9518:0:0:0:0:
475,192,9304,128,0,9411:0:0:0:0:
475,192,9518,128,0,9625:0:0:0:0:
475,192,9732,128,0,9839:0:0:0:0:
475,192,9947,128,0,10054:0:0:0:0:
475,192,10161,128,0,10268:0:0:0:0:
475,192,10375,128,0,10482:0:0:0:0:
109,192,10375,128,0,11232:0:0:0:0:
475,192,10589,128,0,10697:0:0:0:0:
182,192,10589,128,0,10697:0:0:0:0:
329,192,10697,128,0,10804:0:0:0:0:
475,192,10804,128,0,10911:0:0:0:0:
182,192,10804,128,0,10911:0:0:0:0:
329,192,10911,128,0,11018:0:0:0:0:
475,192,11018,128,0,11125:0:0:0:0:
182,192,11018,128,0,11125:0:0:0:0:
329,192,11125,128,0,11232:0:0:0:0:
36,192,11232,128,0,11339:0:0:0:0:
402,192,11232,128,0,12732:0:0:0:0:
475,192,11232,128,0,11661:0:0:0:0:
256,192,11232,128,0,11661:0:0:0:0:
36,192,11447,128,0,11554:0:0:0:0:
36,192,11661,128,0,11768:0:0:0:0:
329,192,11661,128,0,14232:0:0:0:0:
36,192,11875,128,0,11982:0:0:0:0:
475,192,11875,128,0,12518:0:0:0:0:
256,192,11875,128,0,12947:0:0:0:0:
36,192,12089,128,0,12197:0:0:0:0:
36,192,12304,128,0,12411:0:0:0:0:
36,192,12518,128,0,12625:0:0:0:0:
36,192,12732,128,0,12839:0:0:0:0:
36,192,12947,128,0,13054:0:0:0:0:
182,192,12947,128,0,14447:0:0:0:0:
36,192,13161,128,0,13268:0:0:0:0:
36,192,13375,128,0,13482:0:0:0:0:
36,192,13589,128,0,13697:0:0:0:0:
36,192,13804,128,0,13911:0:0:0:0:
36,192,14018,128,0,14125:0:0:0:0:
36,192,14232,128,0,14339:0:0:0:0:
36,192,14447,128,0,14554:0:0:0:0:
256,192,14447,128,0,14554:0:0:0:0:
475,192,14661,128,0,14768:0:0:0:0:
36,192,14661,128,0,14768:0:0:0:0:
109,192,14661,128,0,15304:0:0:0:0:
475,192,14875,128,0,14982:0:0:0:0:
475,192,15089,128,0,15197:0:0:0:0:
182,192,15089,128,0,15947:0:0:0:0:
475,192,15304,128,0,15411:0:0:0:0:
256,192,15304,128,0,15732:0:0:0:0:
36,192,15304,128,0,16589:0:0:0:0:
475,192,15518,128,0,15625:0:0:0:0:
475,192,15732,128,0,15839:0:0:0:0:
475,192,15947,128,0,16054:0:0:0:0:
109,192,15947,128,0,17232:0:0:0:0:
475,192,16161,128,0,16268:0:0:0:0:
475,192,16375,128,0,16482:0:0:0:0:
475,192,16589,128,0,16697:0:0:0:0:
475,192,16804,128,0,16911:0:0:0:0:
475,192,17018,128,0,17125:0:0:0:0:
475,192,17232,128,0,17339:0:0:0:0:
475,192,17447,128,0,17554:0:0:0:0:
475,192,17661,128,0,17768:0:0:0:0:
329,192,17661,128,0,18089:0:0:0:0:
475,192,17875,128,0,17982:0:0:0:0:
182,192,17875,128,0,18089:0:0:0:0:
36,192,18089,128,0,18197:0:0:0:0:
475,192,18089,128,0,19054:0:0:0:0:
109,192,18089,128,0,18411:0:0:0:0:
402,192,18089,128,0,18839:0:0:0:0:
256,192,18089,128,0,18625:0:0:0:0:
36,192,18304,128,0,19911:0:0:0:0:
109,192,18518,128,0,19697:0:0:0:0:
256,192,18732,128,0,19482:0:0:0:0:
182,192,18732,128,0,19161:0:0:0:0:
402,192,18947,128,0,19268:0:0:0:0:
329,192,18947,128,0,19375:0:0:0:0:
475,192,19161,128,0,20768:0:0:0:0:
182,192,19268,128,0,19589:0:0:0:0:
402,192,19375,128,0,20554:0:0:0:0:
256,192,19589,128,0,20339:0:0:0:0:
109,192,19804,128,0,20125:0:0:0:0:
36,192,20018,128,0,21411:0:0:0:0:
109,192,20232,128,0,21518:0:0:0:0:
256,192,20447,128,0,21197:0:0:0:0:
402,192,20661,128,0,20982:0:0:0:0:
475,192,20875,128,0,21411:0:0:0:0:
402,192,21089,128,0,21518:0:0:0:0:
256,192,21304,128,0,21518:0:0:0:0:
36,192,21518,128,0,22054:0:0:0:0:
182,192,21518,128,0,21839:0:0:0:0:
329,192,21518,128,0,22911:0:0:0:0:
475,192,21518,128,0,22697:0:0:0:0:
256,192,21732,128,0,22482:0:0:0:0:
182,192,21947,128,0,22268:0:0:0:0:
36,192,22161,128,0,23554:0:0:0:0:
109,192,22161,128,0,22482:0:0:0:0:
182,192,22375,128,0,23339:0:0:0:0:
402,192,22375,128,0,22697:0:0:0:0:
256,192,22589,128,0,23125:0:0:0:0:
109,192,22589,128,0,22911:0:0:0:0:
475,192,22804,128,0,24197:0:0:0:0:
329,192,23018,128,0,24411:0:0:0:0:
256,192,23232,128,0,23982:0:0:0:0:
182,192,23447,128,0,23768:0:0:0:0:
36,192,23661,128,0,24197:0:0:0:0:
182,192,23875,128,0,24304:0:0:0:0:
256,192,24089,128,0,24625:0:0:0:0:
475,192,24304,128,0,24839:0:0:0:0:
36,192,24304,128,0,24411:0:0:0:0:
182,192,24411,128,0,24518:0:0:0:0:
329,192,24518,128,0,24839:0:0:0:0:
36,192,24518,128,0,24625:0:0:0:0:
182,192,24625,128,0,24732:0:0:0:0:
256,192,24732,128,0,24947:0:0:0:0:
36,192,24732,128,0,24839:0:0:0:0:
182,192,24839,128,0,24947:0:0:0:0:
109,192,24947,128,0,26125:0:0:0:0:
36,192,24947,128,0,26339:0:0:0:0:
402,192,24947,128,0,25268:0:0:0:0:
329,192,24947,128,0,25054:0:0:0:0:
475,192,24947,128,0,25482:0:0:0:0:
329,192,25161,128,0,25911:0:0:0:0:
256,192,25268,128,0,25482:0:0:0:0:
402,192,25375,128,0,25697:0:0:0:0:
182,192,25482,128,0,25697:0:0:0:0:
475,192,25589,128,0,27197:0:0:0:0:
256,192,25697,128,0,26018:0:0:0:0:
402,192,25804,128,0,26982:0:0:0:0:
329,192,26018,128,0,26768:0:0:0:0:
109,192,26232,128,0,26554:0:0:0:0:
36,192,26447,128,0,28054:0:0:0:0:
109,192,26661,128,0,27839:0:0:0:0:
329,192,26875,128,0,27625:0:0:0:0:
402,192,27089,128,0,27411:0:0:0:0:
475,192,27304,128,0,28268:0:0:0:0:
402,192,27518,128,0,28268:0:0:0:0:
329,192,27732,128,0,28268:0:0:0:0:
109,192,27947,128,0,28268:0:0:0:0:
36,192,28161,128,0,28375:0:0:0:0:
109,192,28375,128,0,28697:0:0:0:0:
182,192,28375,128,0,28482:0:0:0:0:
256,192,28375,128,0,29125:0:0:0:0:
402,192,28375,128,0,29339:0:0:0:0:
475,192,28375,128,0,29554:0:0:0:0:
182,192,28589,128,0,28911:0:0:0:0:
36,192,28697,128,0,28804:0:0:0:0:
109,192,28804,128,0,30411:0:0:0:0:
329,192,28804,128,0,29018:0:0:0:0:
182,192,29018,128,0,30197:0:0:0:0:
36,192,29018,128,0,29661:0:0:0:0:
256,192,29232,128,0,29982:0:0:0:0:
402,192,29447,128,0,29768:0:0:0:0:
475,192,29661,128,0,31268:0:0:0:0:
329,192,29661,128,0,30304:0:0:0:0:
402,192,29875,128,0,31054:0:0:0:0:
256,192,30089,128,0,30839:0:0:0:0:
182,192,30304,128,0,30625:0:0:0:0:
109,192,30518,128,0,31697:0:0:0:0:
182,192,30732,128,0,31697:0:0:0:0:
36,192,30732,128,0,30947:0:0:0:0:
256,192,30947,128,0,31804:0:0:0:0:
329,192,30947,128,0,31161:0:0:0:0:
402,192,31161,128,0,31482:0:0:0:0:
36,192,31161,128,0,31375:0:0:0:0:
475,192,31375,128,0,31804:0:0:0:0:
329,192,31375,128,0,31589:0:0:0:0:
402,192,31589,128,0,31697:0:0:0:0:
36,192,31589,128,0,31697:0:0:0:0:
36,192,31804,128,0,32339:0:0:0:0:
109,192,31804,128,0,32125:0:0:0:0:
182,192,31804,128,0,31911:0:0:0:0:
329,192,31804,128,0,32982:0:0:0:0:
402,192,31804,128,0,33197:0:0:0:0:
182,192,32018,128,0,32768:0:0:0:0:
109,192,32232,128,0,32554:0:0:0:0:
36,192,32447,128,0,34054:0:0:0:0:
475,192,32447,128,0,33518:0:0:0:0:
109,192,32661,128,0,33839:0:0:0:0:
182,192,32875,128,0,33625:0:0:0:0:
329,192,33089,128,0,33411:0:0:0:0:
402,192,33304,128,0,34911:0:0:0:0:
329,192,33518,128,0,34697:0:0:0:0:
182,192,33732,128,0,34482:0:0:0:0:
109,192,33947,128,0,34268:0:0:0:0:
36,192,34161,128,0,35125:0:0:0:0:
109,192,34375,128,0,35125:0:0:0:0:
182,192,34589,128,0,35232:0:0:0:0:
329,192,34804,128,0,35232:0:0:0:0:
402,192,35018,128,0,35125:0:0:0:0:
36,192,35232,128,0,36411:0:0:0:0:
109,192,35232,128,0,36197:0:0:0:0:
256,192,35232,128,0,35982:0:0:0:0:
475,192,35232,128,0,35554:0:0:0:0:
402,192,35232,128,0,35339:0:0:0:0:
402,192,35447,128,0,35768:0:0:0:0:
475,192,35661,128,0,37268:0:0:0:0:
402,192,35875,128,0,37054:0:0:0:0:
329,192,35875,128,0,36197:0:0:0:0:
182,192,36089,128,0,36411:0:0:0:0:
256,192,36089,128,0,36839:0:0:0:0:
329,192,36304,128,0,36625:0:0:0:0:
109,192,36304,128,0,36625:0:0:0:0:
182,192,36518,128,0,36839:0:0:0:0:
36,192,36518,128,0,38125:0:0:0:0:
109,192,36732,128,0,37911:0:0:0:0:
256,192,36947,128,0,37697:0:0:0:0:
402,192,37161,128,0,37482:0:0:0:0:
475,192,37375,128,0,37804:0:0:0:0:
402,192,37589,128,0,38018:0:0:0:0:
256,192,37804,128,0,38554:0:0:0:0:
109,192,38018,128,0,38339:0:0:0:0:
329,192,38018,128,0,38125:0:0:0:0:
475,192,38125,128,0,38232:0:0:0:0:
36,192,38232,128,0,38554:0:0:0:0:
329,192,38232,128,0,38339:0:0:0:0:
475,192,38339,128,0,38447:0:0:0:0:
109,192,38447,128,0,38661:0:0:0:0:
329,192,38447,128,0,38554:0:0:0:0:
475,192,38554,128,0,38661:0:0:0:0:
36,192,38661,128,0,40268:0:0:0:0:
182,192,38661,128,0,38768:0:0:0:0:
256,192,38661,128,0,38982:0:0:0:0:
329,192,38661,128,0,39197:0:0:0:0:
402,192,38661,128,0,39411:0:0:0:0:
182,192,38875,128,0,40054:0:0:0:0:
256,192,39089,128,0,39839:0:0:0:0:
329,192,39304,128,0,39625:0:0:0:0:
475,192,39304,128,0,39732:0:0:0:0:
402,192,39518,128,0,41125:0:0:0:0:
329,192,39732,128,0,40911:0:0:0:0:
109,192,39732,128,0,40054:0:0:0:0:
256,192,39947,128,0,40697:0:0:0:0:
475,192,39947,128,0,40268:0:0:0:0:
182,192,40161,128,0,40482:0:0:0:0:
109,192,40161,128,0,40482:0:0:0:0:
36,192,40375,128,0,41982:0:0:0:0:
182,192,40589,128,0,41768:0:0:0:0:
256,192,40804,128,0,41554:0:0:0:0:
329,192,41018,128,0,41339:0:0:0:0:
402,192,41232,128,0,41982:0:0:0:0:
329,192,41447,128,0,41982:0:0:0:0:
256,192,41661,128,0,42089:0:0:0:0:
182,192,41875,128,0,41982:0:0:0:0:
36,192,42089,128,0,42411:0:0:0:0:
109,192,42089,128,0,42197:0:0:0:0:
182,192,42089,128,0,42839:0:0:0:0:
329,192,42089,128,0,43054:0:0:0:0:
402,192,42089,128,0,43268:0:0:0:0:
475,192,42089,128,0,43482:0:0:0:0:
109,192,42304,128,0,42625:0:0:0:0:
36,192,42518,128,0,44554:0:0:0:0:
256,192,42732,128,0,43054:0:0:0:0:
109,192,42732,128,0,44339:0:0:0:0:
182,192,42947,128,0,44125:0:0:0:0:
256,192,43161,128,0,43482:0:0:0:0:
329,192,43161,128,0,43911:0:0:0:0:
402,192,43375,128,0,43697:0:0:0:0:
475,192,43589,128,0,45304:0:0:0:0:
402,192,43804,128,0,45518:0:0:0:0:
329,192,44018,128,0,45197:0:0:0:0:
182,192,44232,128,0,44982:0:0:0:0:
109,192,44447,128,0,44768:0:0:0:0:
36,192,44661,128,0,45411:0:0:0:0:
109,192,44875,128,0,45411:0:0:0:0:
182,192,45089,128,0,45411:0:0:0:0:
329,192,45304,128,0,45518:0:0:0:0:
36,192,45518,128,0,46268:0:0:0:0:
182,192,45518,128,0,45625:0:0:0:0:
256,192,45518,128,0,45679:0:0:0:0:
475,192,45518,128,0,45732:0:0:0:0:
109,192,45518,128,0,45625:0:0:0:0:
109,192,45732,128,0,45839:0:0:0:0:
182,192,45947,128,0,46054:0:0:0:0:
256,192,46161,128,0,46268:0:0:0:0:
36,192,46375,128,0,46911:0:0:0:0:
475,192,46375,128,0,46482:0:0:0:0:
256,192,46589,128,0,46697:0:0:0:0:
182,192,46804,128,0,46911:0:0:0:0:
36,192,47018,128,0,47661:0:0:0:0:
109,192,47018,128,0,47125:0:0:0:0:
182,192,47232,128,0,47339:0:0:0:0:
256,192,47447,128,0,47554:0:0:0:0:
109,192,47661,128,0,48089:0:0:0:0:
475,192,47661,128,0,47768:0:0:0:0:
256,192,47875,128,0,47982:0:0:0:0:
182,192,48089,128,0,48518:0:0:0:0:
475,192,48089,128,0,48197:0:0:0:0:
36,192,48089,128,0,48304:0:0:0:0:
256,192,48304,128,0,48411:0:0:0:0:
329,192,48518,128,0,48947:0:0:0:0:
109,192,48518,128,0,48625:0:0:0:0:
402,192,48518,128,0,48732:0:0:0:0:
36,192,48732,128,0,48839:0:0:0:0:
475,192,48947,128,0,49804:0:0:0:0:
109,192,48947,128,0,49054:0:0:0:0:
402,192,48947,128,0,49054:0:0:0:0:
182,192,48947,128,0,49054:0:0:0:0:
256,192,48947,128,0,49161:0:0:0:0:
329,192,49161,128,0,49268:0:0:0:0:
256,192,49375,128,0,49482:0:0:0:0:
36,192,49589,128,0,49697:0:0:0:0:
182,192,49589,128,0,49697:0:0:0:0:
109,192,49804,128,0,50339:0:0:0:0:
256,192,49804,128,0,49911:0:0:0:0:
329,192,50018,128,0,50125:0:0:0:0:
402,192,50232,128,0,50339:0:0:0:0:
109,192,50447,128,0,50982:0:0:0:0:
329,192,50447,128,0,50554:0:0:0:0:
182,192,50661,128,0,50768:0:0:0:0:
36,192,50875,128,0,50982:0:0:0:0:
109,192,51089,128,0,51518:0:0:0:0:
182,192,51089,128,0,51197:0:0:0:0:
256,192,51304,128,0,51411:0:0:0:0:
182,192,51518,128,0,51947:0:0:0:0:
475,192,51518,128,0,51625:0:0:0:0:
109,192,51732,128,0,51839:0:0:0:0:
402,192,51839,128,0,51947:0:0:0:0:
329,192,51947,128,0,52375:0:0:0:0:
109,192,51947,128,0,52054:0:0:0:0:
402,192,52054,128,0,52161:0:0:0:0:
182,192,52054,128,0,52375:0:0:0:0:
109,192,52161,128,0,52268:0:0:0:0:
402,192,52268,128,0,52375:0:0:0:0:
475,192,52375,128,0,53232:0:0:0:0:
109,192,52375,128,0,52482:0:0:0:0:
36,192,52375,128,0,52589:0:0:0:0:
182,192,52589,128,0,52697:0:0:0:0:
109,192,52804,128,0,52911:0:0:0:0:
36,192,53018,128,0,53125:0:0:0:0:
109,192,53232,128,0,53768:0:0:0:0:
182,192,53232,128,0,53339:0:0:0:0:
256,192,53447,128,0,53554:0:0:0:0:
329,192,53661,128,0,53768:0:0:0:0:
109,192,53875,128,0,54411:0:0:0:0:
402,192,53875,128,0,53982:0:0:0:0:
329,192,54089,128,0,54197:0:0:0:0:
256,192,54304,128,0,54411:0:0:0:0:
109,192,54518,128,0,54947:0:0:0:0:
182,192,54518,128,0,54625:0:0:0:0:
36,192,54518,128,0,54732:0:0:0:0:
329,192,54732,128,0,54839:0:0:0:0:
182,192,54947,128,0,55375:0:0:0:0:
256,192,54947,128,0,55161:0:0:0:0:
402,192,54947,128,0,55054:0:0:0:0:
475,192,55161,128,0,55268:0:0:0:0:
329,192,55375,128,0,55804:0:0:0:0:
256,192,55375,128,0,55589:0:0:0:0:
36,192,55375,128,0,55482:0:0:0:0:
182,192,55589,128,0,55697:0:0:0:0:
475,192,55804,128,0,56661:0:0:0:0:
402,192,55804,128,0,56018:0:0:0:0:
36,192,55804,128,0,55911:0:0:0:0:
109,192,55804,128,0,56018:0:0:0:0:
182,192,56018,128,0,56125:0:0:0:0:
256,192,56232,128,0,56339:0:0:0:0:
329,192,56447,128,0,56554:0:0:0:0:
109,192,56661,128,0,57197:0:0:0:0:
256,192,56661,128,0,56768:0:0:0:0:
402,192,56875,128,0,56982:0:0:0:0:
475,192,57089,128,0,57197:0:0:0:0:
109,192,57304,128,0,57839:0:0:0:0:
402,192,57304,128,0,57411:0:0:0:0:
329,192,57518,128,0,57625:0:0:0:0:
256,192,57732,128,0,57839:0:0:0:0:
109,192,57947,128,0,58375:0:0:0:0:
36,192,57947,128,0,58054:0:0:0:0:
256,192,58161,128,0,58268:0:0:0:0:
182,192,58375,128,0,58804:0:0:0:0:
329,192,58375,128,0,58482:0:0:0:0:
36,192,58375,128,0,58589:0:0:0:0:
402,192,58589,128,0,58697:0:0:0:0:
109,192,58589,128,0,58804:0:0:0:0:
329,192,58804,128,0,59232:0:0:0:0:
256,192,58804,128,0,59018:0:0:0:0:
475,192,59125,128,0,59232:0:0:0:0:
402,192,59179,128,0,59232:0:0:0:0:
182,192,59232,128,0,59875:0:0:0:0:
36,192,59232,128,0,59875:0:0:0:0:
256,192,59232,128,0,60089:0:0:0:0:
109,192,59232,128,0,59554:0:0:0:0:
475,192,59768,128,0,60197:0:0:0:0:
402,192,59822,128,0,60197:0:0:0:0:
36,192,60089,128,0,60625:0:0:0:0:
182,192,60089,128,0,60625:0:0:0:0:
109,192,60089,128,0,60411:0:0:0:0:
329,192,60197,128,0,60411:0:0:0:0:
256,192,60411,128,0,60572:0:0:0:0:
402,192,60572,128,0,60893:0:0:0:0:
36,192,60732,128,0,60839:0:0:0:0:
182,192,60732,128,0,60839:0:0:0:0:
109,192,60732,128,0,60786:0:0:0:0:
36,192,60947,128,0,61268:0:0:0:0:
182,192,60947,128,0,61268:0:0:0:0:
109,192,60947,128,0,61107:0:0:0:0:
329,192,60947,128,0,61054:0:0:0:0:
475,192,60947,128,0,61054:0:0:0:0:
36,192,61375,128,0,61804:0:0:0:0:
182,192,61375,128,0,61804:0:0:0:0:
109,192,61375,128,0,61589:0:0:0:0:
109,192,61804,128,0,62232:0:0:0:0:
256,192,61804,128,0,62018:0:0:0:0:
329,192,61804,128,0,62232:0:0:0:0:
402,192,62232,128,0,62661:0:0:0:0:
182,192,62232,128,0,62447:0:0:0:0:
256,192,62232,128,0,62661:0:0:0:0:
109,192,62661,128,0,62768:0:0:0:0:
182,192,62661,128,0,63411:0:0:0:0:
329,192,62661,128,0,63089:0:0:0:0:
475,192,62661,128,0,63411:0:0:0:0:
36,192,62875,128,0,62982:0:0:0:0:
109,192,62875,128,0,62982:0:0:0:0:
36,192,63304,128,0,63411:0:0:0:0:
109,192,63304,128,0,63411:0:0:0:0:
36,192,63518,128,0,64054:0:0:0:0:
256,192,63518,128,0,64054:0:0:0:0:
109,192,63518,128,0,63839:0:0:0:0:
329,192,63518,128,0,63839:0:0:0:0:
402,192,63839,128,0,64161:0:0:0:0:
36,192,64161,128,0,64697:0:0:0:0:
256,192,64161,128,0,64697:0:0:0:0:
109,192,64161,128,0,64375:0:0:0:0:
329,192,64161,128,0,64268:0:0:0:0:
402,192,64375,128,0,64482:0:0:0:0:
329,192,64482,128,0,64804:0:0:0:0:
36,192,64804,128,0,65232:0:0:0:0:
109,192,64804,128,0,65018:0:0:0:0:
256,192,64804,128,0,65232:0:0:0:0:
109,192,65232,128,0,65447:0:0:0:0:
182,192,65232,128,0,65554:0:0:0:0:
329,192,65232,128,0,65661:0:0:0:0:
402,192,65661,128,0,66089:0:0:0:0:
109,192,65661,128,0,65875:0:0:0:0:
256,192,65661,128,0,65982:0:0:0:0:
36,192,65661,128,0,65768:0:0:0:0:
182,192,65768,128,0,65875:0:0:0:0:
36,192,65875,128,0,65982:0:0:0:0:
182,192,65982,128,0,66089:0:0:0:0:
256,192,66089,128,0,66411:0:0:0:0:
475,192,66089,128,0,66839:0:0:0:0:
36,192,66089,128,0,66197:0:0:0:0:
109,192,66089,128,0,66304:0:0:0:0:
329,192,66089,128,0,66197:0:0:0:0:
182,192,66304,128,0,66464:0:0:0:0:
36,192,66464,128,0,66679:0:0:0:0:
329,192,66732,128,0,66947:0:0:0:0:
182,192,66947,128,0,67107:0:0:0:0:
36,192,66947,128,0,67482:0:0:0:0:
256,192,66947,128,0,67482:0:0:0:0:
109,192,66947,128,0,67268:0:0:0:0:
329,192,67107,128,0,67429:0:0:0:0:
402,192,67107,128,0,67322:0:0:0:0:
36,192,67589,128,0,68125:0:0:0:0:
256,192,67589,128,0,68125:0:0:0:0:
109,192,67589,128,0,67804:0:0:0:0:
329,192,67804,128,0,67911:0:0:0:0:
475,192,67804,128,0,67911:0:0:0:0:
36,192,68232,128,0,68661:0:0:0:0:
109,192,68232,128,0,68447:0:0:0:0:
256,192,68232,128,0,68661:0:0:0:0:
109,192,68661,128,0,68875:0:0:0:0:
182,192,68661,128,0,68982:0:0:0:0:
329,192,68661,128,0,69089:0:0:0:0:
475,192,68947,128,0,69232:0:0:0:0:
182,192,69089,128,0,69518:0:0:0:0:
402,192,69089,128,0,69518:0:0:0:0:
256,192,69089,128,0,69304:0:0:0:0:
36,192,69232,128,0,69375:0:0:0:0:
109,192,69375,128,0,69661:0:0:0:0:
475,192,69518,128,0,70375:0:0:0:0:
329,192,69518,128,0,70375:0:0:0:0:
256,192,69518,128,0,69732:0:0:0:0:
182,192,69661,128,0,69804:0:0:0:0:
182,192,70161,128,0,70268:0:0:0:0:
36,192,70375,128,0,70911:0:0:0:0:
256,192,70375,128,0,70911:0:0:0:0:
182,192,70589,128,0,70804:0:0:0:0:
329,192,70804,128,0,71018:0:0:0:0:
36,192,71018,128,0,72518:0:0:0:0:
475,192,71018,128,0,72518:0:0:0:0:
109,192,71018,128,0,71661:0:0:0:0:
402,192,71018,128,0,71661:0:0:0:0:
182,192,72304,128,0,72518:0:0:0:0:
329,192,72304,128,0,72518:0:0:0:0:
256,192,72518,128,0,72947:0:0:0:0:
36,192,72947,128,0,73375:0:0:0:0:
109,192,72947,128,0,73375:0:0:0:0:
475,192,72947,128,0,73589:0:0:0:0:
182,192,72947,128,0,73054:0:0:0:0:
402,192,72947,128,0,73268:0:0:0:0:
182,192,73161,128,0,74232:0:0:0:0:
256,192,73375,128,0,73697:0:0:0:0:
402,192,73375,128,0,74339:0:0:0:0:
109,192,73589,128,0,74018:0:0:0:0:
36,192,73589,128,0,73697:0:0:0:0:
475,192,73804,128,0,73911:0:0:0:0:
36,192,73804,128,0,74554:0:0:0:0:
256,192,73804,128,0,74554:0:0:0:0:
329,192,73804,128,0,74018:0:0:0:0:
475,192,74018,128,0,74447:0:0:0:0:
109,192,74232,128,0,74447:0:0:0:0:
329,192,74232,128,0,74875:0:0:0:0:
182,192,74447,128,0,75089:0:0:0:0:
109,192,74661,128,0,74875:0:0:0:0:
36,192,74661,128,0,75089:0:0:0:0:
475,192,74661,128,0,75304:0:0:0:0:
402,192,74875,128,0,75518:0:0:0:0:
256,192,74875,128,0,75411:0:0:0:0:
329,192,75089,128,0,75304:0:0:0:0:
109,192,75089,128,0,75518:0:0:0:0:
182,192,75304,128,0,75625:0:0:0:0:
36,192,75518,128,0,76161:0:0:0:0:
256,192,75518,128,0,76375:0:0:0:0:
329,192,75518,128,0,75839:0:0:0:0:
475,192,75518,128,0,75839:0:0:0:0:
109,192,75732,128,0,75947:0:0:0:0:
182,192,75732,128,0,76161:0:0:0:0:
475,192,75947,128,0,76375:0:0:0:0:
329,192,75947,128,0,76054:0:0:0:0:
329,192,76161,128,0,76589:0:0:0:0:
402,192,76375,128,0,77018:0:0:0:0:
109,192,76375,128,0,76911:0:0:0:0:
36,192,76375,128,0,76804:0:0:0:0:
182,192,76375,128,0,76482:0:0:0:0:
182,192,76589,128,0,77232:0:0:0:0:
329,192,76804,128,0,77232:0:0:0:0:
475,192,76804,128,0,77018:0:0:0:0:
36,192,77018,128,0,77661:0:0:0:0:
109,192,77018,128,0,77125:0:0:0:0:
109,192,77232,128,0,78089:0:0:0:0:
402,192,77232,128,0,77661:0:0:0:0:
475,192,77232,128,0,77447:0:0:0:0:
256,192,77232,128,0,77661:0:0:0:0:
182,192,77447,128,0,77554:0:0:0:0:
329,192,77661,128,0,77982:0:0:0:0:
182,192,77661,128,0,77875:0:0:0:0:
475,192,77875,128,0,78732:0:0:0:0:
329,192,78089,128,0,78732:0:0:0:0:
182,192,78089,128,0,78625:0:0:0:0:
36,192,78089,128,0,78304:0:0:0:0:
256,192,78304,128,0,78947:0:0:0:0:
109,192,78518,128,0,78732:0:0:0:0:
36,192,78518,128,0,79161:0:0:0:0:
402,192,78732,128,0,78947:0:0:0:0:
109,192,78947,128,0,79375:0:0:0:0:
182,192,78947,128,0,79268:0:0:0:0:
329,192,78947,128,0,79161:0:0:0:0:
475,192,78947,128,0,79054:0:0:0:0:
402,192,79161,128,0,79697:0:0:0:0:
475,192,79161,128,0,79589:0:0:0:0:
329,192,79375,128,0,79697:0:0:0:0:
182,192,79375,128,0,79804:0:0:0:0:
36,192,79375,128,0,79589:0:0:0:0:
256,192,79589,128,0,80125:0:0:0:0:
329,192,79804,128,0,80232:0:0:0:0:
402,192,79804,128,0,80018:0:0:0:0:
475,192,79804,128,0,80125:0:0:0:0:
109,192,79804,128,0,80661:0:0:0:0:
36,192,79804,128,0,80232:0:0:0:0:
182,192,80018,128,0,80554:0:0:0:0:
256,192,80232,128,0,80447:0:0:0:0:
402,192,80232,128,0,80339:0:0:0:0:
402,192,80447,128,0,80768:0:0:0:0:
256,192,80661,128,0,81304:0:0:0:0:
182,192,80661,128,0,81089:0:0:0:0:
36,192,80661,128,0,81089:0:0:0:0:
475,192,80661,128,0,81411:0:0:0:0:
402,192,80875,128,0,80982:0:0:0:0:
109,192,81089,128,0,81411:0:0:0:0:
402,192,81089,128,0,81518:0:0:0:0:
182,192,81304,128,0,81518:0:0:0:0:
36,192,81518,128,0,82161:0:0:0:0:
109,192,81518,128,0,81732:0:0:0:0:
329,192,81518,128,0,81947:0:0:0:0:
475,192,81518,128,0,81947:0:0:0:0:
256,192,81732,128,0,82161:0:0:0:0:
402,192,81732,128,0,82161:0:0:0:0:
109,192,81947,128,0,82375:0:0:0:0:
182,192,81947,128,0,82054:0:0:0:0:
182,192,82161,128,0,83018:0:0:0:0:
256,192,82375,128,0,82697:0:0:0:0:
329,192,82375,128,0,82911:0:0:0:0:
475,192,82375,128,0,82804:0:0:0:0:
36,192,82375,128,0,82482:0:0:0:0:
109,192,82589,128,0,82911:0:0:0:0:
36,192,82589,128,0,82804:0:0:0:0:
256,192,82804,128,0,83232:0:0:0:0:
329,192,83018,128,0,83125:0:0:0:0:
475,192,83018,128,0,83125:0:0:0:0:
36,192,83232,128,0,83982:0:0:0:0:
182,192,83232,128,0,83768:0:0:0:0:
402,192,83232,128,0,84839:0:0:0:0:
475,192,83232,128,0,83982:0:0:0:0:
329,192,83447,128,0,83982:0:0:0:0:
256,192,83661,128,0,84411:0:0:0:0:
182,192,83875,128,0,84197:0:0:0:0:
109,192,83875,128,0,83982:0:0:0:0:
109,192,84089,128,0,84839:0:0:0:0:
36,192,84089,128,0,85697:0:0:0:0:
329,192,84089,128,0,85054:0:0:0:0:
475,192,84089,128,0,85054:0:0:0:0:
182,192,84304,128,0,84625:0:0:0:0:
256,192,84518,128,0,84839:0:0:0:0:
182,192,84732,128,0,85268:0:0:0:0:
109,192,84947,128,0,85161:0:0:0:0:
256,192,84947,128,0,85589:0:0:0:0:
402,192,84947,128,0,85804:0:0:0:0:
475,192,85161,128,0,85589:0:0:0:0:
329,192,85161,128,0,85482:0:0:0:0:
109,192,85375,128,0,85697:0:0:0:0:
182,192,85375,128,0,85482:0:0:0:0:
182,192,85589,128,0,85804:0:0:0:0:
329,192,85589,128,0,85804:0:0:0:0:
36,192,85804,128,0,86018:0:0:0:0:
109,192,85804,128,0,86447:0:0:0:0:
256,192,85804,128,0,86232:0:0:0:0:
475,192,85804,128,0,85911:0:0:0:0:
402,192,86018,128,0,86554:0:0:0:0:
475,192,86018,128,0,86339:0:0:0:0:
182,192,86232,128,0,86661:0:0:0:0:
36,192,86232,128,0,86447:0:0:0:0:
329,192,86447,128,0,86661:0:0:0:0:
36,192,86661,128,0,87304:0:0:0:0:
109,192,86661,128,0,86982:0:0:0:0:
256,192,86661,128,0,86875:0:0:0:0:
475,192,86661,128,0,87089:0:0:0:0:
402,192,86661,128,0,86982:0:0:0:0:
329,192,86875,128,0,87411:0:0:0:0:
256,192,87089,128,0,87304:0:0:0:0:
109,192,87089,128,0,87732:0:0:0:0:
402,192,87304,128,0,87839:0:0:0:0:
475,192,87304,128,0,87411:0:0:0:0:
182,192,87518,128,0,87839:0:0:0:0:
256,192,87518,128,0,88161:0:0:0:0:
475,192,87518,128,0,88161:0:0:0:0:
36,192,87518,128,0,87625:0:0:0:0:
36,192,87732,128,0,88268:0:0:0:0:
182,192,87947,128,0,88375:0:0:0:0:
402,192,87947,128,0,88161:0:0:0:0:
329,192,88161,128,0,88589:0:0:0:0:
402,192,88375,128,0,88697:0:0:0:0:
475,192,88375,128,0,89125:0:0:0:0:
36,192,88375,128,0,89125:0:0:0:0:
109,192,88589,128,0,89018:0:0:0:0:
256,192,88589,128,0,89018:0:0:0:0:
182,192,88804,128,0,89125:0:0:0:0:
402,192,88804,128,0,89232:0:0:0:0:
329,192,89018,128,0,89232:0:0:0:0:
36,192,89232,128,0,89554:0:0:0:0:
256,192,89232,128,0,89661:0:0:0:0:
182,192,89232,128,0,89447:0:0:0:0:
475,192,89232,128,0,89875:0:0:0:0:
329,192,89447,128,0,89982:0:0:0:0:
402,192,89447,128,0,89661:0:0:0:0:
36,192,89661,128,0,90089:0:0:0:0:
182,192,89661,128,0,89875:0:0:0:0:
256,192,89875,128,0,90304:0:0:0:0:
109,192,90089,128,0,90518:0:0:0:0:
329,192,90089,128,0,90197:0:0:0:0:
402,192,90089,128,0,90411:0:0:0:0:
475,192,90089,128,0,90518:0:0:0:0:
329,192,90304,128,0,90947:0:0:0:0:
182,192,90518,128,0,90947:0:0:0:0:
36,192,90518,128,0,90839:0:0:0:0:
475,192,90732,128,0,91375:0:0:0:0:
402,192,90732,128,0,90839:0:0:0:0:
256,192,90947,128,0,91161:0:0:0:0:
109,192,90947,128,0,91268:0:0:0:0:
36,192,90947,128,0,91482:0:0:0:0:
402,192,90947,128,0,91268:0:0:0:0:
329,192,91161,128,0,91268:0:0:0:0:
182,192,91375,128,0,91697:0:0:0:0:
329,192,91375,128,0,91589:0:0:0:0:
36,192,91589,128,0,92232:0:0:0:0:
182,192,91804,128,0,92232:0:0:0:0:
329,192,91804,128,0,92125:0:0:0:0:
475,192,91804,128,0,92018:0:0:0:0:
256,192,92018,128,0,92661:0:0:0:0:
402,192,92232,128,0,92447:0:0:0:0:
475,192,92232,128,0,92661:0:0:0:0:
109,192,92447,128,0,92661:0:0:0:0:
36,192,92661,128,0,92768:0:0:0:0:
182,192,92661,128,0,92875:0:0:0:0:
329,192,92661,128,0,92982:0:0:0:0:
402,192,92661,128,0,93197:0:0:0:0:
109,192,92875,128,0,93411:0:0:0:0:
36,192,92875,128,0,93304:0:0:0:0:
182,192,93089,128,0,93197:0:0:0:0:
329,192,93089,128,0,93518:0:0:0:0:
475,192,93089,128,0,93304:0:0:0:0:
256,192,93304,128,0,93518:0:0:0:0:
36,192,93518,128,0,94161:0:0:0:0:
109,192,93518,128,0,93839:0:0:0:0:
182,192,93518,128,0,93732:0:0:0:0:
402,192,93518,128,0,93732:0:0:0:0:
475,192,93518,128,0,93947:0:0:0:0:
329,192,93732,128,0,94161:0:0:0:0:
256,192,93947,128,0,94268:0:0:0:0:
109,192,93947,128,0,94054:0:0:0:0:
109,192,94161,128,0,94482:0:0:0:0:
256,192,94375,128,0,95018:0:0:0:0:
329,192,94375,128,0,94804:0:0:0:0:
475,192,94375,128,0,94911:0:0:0:0:
36,192,94375,128,0,94804:0:0:0:0:
109,192,94589,128,0,94697:0:0:0:0:
402,192,94804,128,0,95125:0:0:0:0:
109,192,94804,128,0,95232:0:0:0:0:
329,192,95018,128,0,95232:0:0:0:0:
182,192,95232,128,0,95661:0:0:0:0:
36,192,95232,128,0,95447:0:0:0:0:
402,192,95232,128,0,95447:0:0:0:0:
475,192,95232,128,0,95661:0:0:0:0:
256,192,95447,128,0,95875:0:0:0:0:
109,192,95447,128,0,96089:0:0:0:0:
402,192,95661,128,0,96089:0:0:0:0:
329,192,95661,128,0,95768:0:0:0:0:
329,192,95875,128,0,96089:0:0:0:0:
36,192,96089,128,0,96625:0:0:0:0:
256,192,96089,128,0,96304:0:0:0:0:
182,192,96089,128,0,96518:0:0:0:0:
475,192,96089,128,0,96197:0:0:0:0:
475,192,96304,128,0,96625:0:0:0:0:
402,192,96304,128,0,96947:0:0:0:0:
256,192,96518,128,0,96947:0:0:0:0:
182,192,96732,128,0,96947:0:0:0:0:
36,192,96732,128,0,96839:0:0:0:0:
36,192,96947,128,0,97697:0:0:0:0:
109,192,96947,128,0,98554:0:0:0:0:
329,192,96947,128,0,97482:0:0:0:0:
475,192,96947,128,0,97697:0:0:0:0:
182,192,97161,128,0,97697:0:0:0:0:
256,192,97375,128,0,98125:0:0:0:0:
329,192,97589,128,0,97911:0:0:0:0:
402,192,97589,128,0,97697:0:0:0:0:
36,192,97804,128,0,98768:0:0:0:0:
182,192,97804,128,0,98768:0:0:0:0:
475,192,97804,128,0,98661:0:0:0:0:
402,192,97804,128,0,98554:0:0:0:0:
329,192,98018,128,0,98339:0:0:0:0:
256,192,98232,128,0,98554:0:0:0:0:
329,192,98447,128,0,98982:0:0:0:0:
402,192,98661,128,0,98982:0:0:0:0:
256,192,98661,128,0,99411:0:0:0:0:
109,192,98661,128,0,99518:0:0:0:0:
182,192,98875,128,0,99197:0:0:0:0:
36,192,98875,128,0,99304:0:0:0:0:
402,192,99089,128,0,99411:0:0:0:0:
329,192,99089,128,0,99197:0:0:0:0:
329,192,99304,128,0,99518:0:0:0:0:
182,192,99304,128,0,99947:0:0:0:0:
36,192,99518,128,0,99625:0:0:0:0:
256,192,99518,128,0,100268:0:0:0:0:
402,192,99518,128,0,100161:0:0:0:0:
475,192,99518,128,0,99732:0:0:0:0:
109,192,99732,128,0,100268:0:0:0:0:
36,192,99732,128,0,100161:0:0:0:0:
329,192,99947,128,0,100375:0:0:0:0:
475,192,99947,128,0,100268:0:0:0:0:
182,192,100161,128,0,100375:0:0:0:0:
36,192,100375,128,0,103589:0:0:0:0:
109,192,100375,128,0,103804:0:0:0:0:
256,192,100375,128,0,103589:0:0:0:0:
402,192,100375,128,0,103804:0:0:0:0:
475,192,100375,128,0,103589:0:0:0:0:
475,192,103804,128,0,107125:0:0:0:0:
256,192,103804,128,0,107232:0:0:0:0:
329,192,103804,128,0,104447:0:0:0:0:
182,192,103804,128,0,104447:0:0:0:0:
36,192,103804,128,0,107125:0:0:0:0:
402,192,104447,128,0,107232:0:0:0:0:
109,192,104447,128,0,107232:0:0:0:0:
36,192,107232,128,0,107339:0:0:0:0:
182,192,107447,128,0,107554:0:0:0:0:
109,192,107661,128,0,107768:0:0:0:0:
182,192,107875,128,0,107982:0:0:0:0:
256,192,108089,128,0,108197:0:0:0:0:
36,192,108089,128,0,108411:0:0:0:0:
329,192,108304,128,0,108411:0:0:0:0:
182,192,108411,128,0,108625:0:0:0:0:
402,192,108518,128,0,108625:0:0:0:0:
109,192,108625,128,0,108839:0:0:0:0:
475,192,108732,128,0,108839:0:0:0:0:
36,192,108839,128,0,109161:0:0:0:0:
329,192,108947,128,0,109054:0:0:0:0:
256,192,109161,128,0,109268:0:0:0:0:
182,192,109375,128,0,109482:0:0:0:0:
109,192,109375,128,0,109804:0:0:0:0:
329,192,109589,128,0,109697:0:0:0:0:
182,192,109804,128,0,110232:0:0:0:0:
475,192,109804,128,0,109911:0:0:0:0:
402,192,110018,128,0,110125:0:0:0:0:
329,192,110232,128,0,110661:0:0:0:0:
256,192,110232,128,0,110339:0:0:0:0:
182,192,110447,128,0,110554:0:0:0:0:
475,192,110661,128,0,111518:0:0:0:0:
36,192,110661,128,0,110768:0:0:0:0:
109,192,110661,128,0,110875:0:0:0:0:
256,192,110875,128,0,110982:0:0:0:0:
329,192,111089,128,0,111197:0:0:0:0:
182,192,111304,128,0,111411:0:0:0:0:
109,192,111518,128,0,112054:0:0:0:0:
256,192,111518,128,0,111625:0:0:0:0:
329,192,111732,128,0,111839:0:0:0:0:
402,192,111947,128,0,112054:0:0:0:0:
109,192,112161,128,0,112697:0:0:0:0:
475,192,112161,128,0,112268:0:0:0:0:
329,192,112375,128,0,112482:0:0:0:0:
402,192,112482,128,0,112804:0:0:0:0:
256,192,112589,128,0,112697:0:0:0:0:
109,192,112804,128,0,113232:0:0:0:0:
182,192,112804,128,0,112911:0:0:0:0:
329,192,112804,128,0,113125:0:0:0:0:
402,192,113018,128,0,113125:0:0:0:0:
256,192,113125,128,0,113232:0:0:0:0:
182,192,113232,128,0,113661:0:0:0:0:
36,192,113232,128,0,113447:0:0:0:0:
329,192,113232,128,0,113339:0:0:0:0:
256,192,113447,128,0,113554:0:0:0:0:
329,192,113661,128,0,114089:0:0:0:0:
109,192,113661,128,0,113768:0:0:0:0:
182,192,113875,128,0,114089:0:0:0:0:
402,192,113875,128,0,113982:0:0:0:0:
475,192,114089,128,0,114947:0:0:0:0:
109,192,114089,128,0,114304:0:0:0:0:
36,192,114089,128,0,114197:0:0:0:0:
256,192,114089,128,0,114197:0:0:0:0:
182,192,114304,128,0,114411:0:0:0:0:
256,192,114518,128,0,114625:0:0:0:0:
329,192,114732,128,0,114839:0:0:0:0:
109,192,114947,128,0,115482:0:0:0:0:
402,192,114947,128,0,115054:0:0:0:0:
475,192,115161,128,0,115268:0:0:0:0:
402,192,115375,128,0,115482:0:0:0:0:
109,192,115589,128,0,116125:0:0:0:0:
329,192,115589,128,0,115697:0:0:0:0:
256,192,115804,128,0,115911:0:0:0:0:
182,192,116018,128,0,116125:0:0:0:0:
109,192,116232,128,0,116661:0:0:0:0:
36,192,116232,128,0,116339:0:0:0:0:
256,192,116447,128,0,116554:0:0:0:0:
182,192,116661,128,0,117089:0:0:0:0:
36,192,116661,128,0,116768:0:0:0:0:
402,192,116875,128,0,116982:0:0:0:0:
329,192,117089,128,0,117518:0:0:0:0:
36,192,117089,128,0,117197:0:0:0:0:
182,192,117304,128,0,117411:0:0:0:0:
475,192,117518,128,0,118375:0:0:0:0:
36,192,117518,128,0,117625:0:0:0:0:
182,192,117732,128,0,117839:0:0:0:0:
329,192,117947,128,0,118054:0:0:0:0:
182,192,118161,128,0,118268:0:0:0:0:
109,192,118375,128,0,118911:0:0:0:0:
256,192,118375,128,0,118482:0:0:0:0:
329,192,118589,128,0,118697:0:0:0:0:
475,192,118804,128,0,118911:0:0:0:0:
109,192,119018,128,0,119554:0:0:0:0:
402,192,119018,128,0,119125:0:0:0:0:
329,192,119232,128,0,119339:0:0:0:0:
256,192,119447,128,0,119554:0:0:0:0:
109,192,119661,128,0,119875:0:0:0:0:
329,192,119661,128,0,119768:0:0:0:0:
