osu file format v14

[General]
AudioFilename: ttbaudio.mp3
AudioLeadIn: 0
PreviewTime: 104889
Countdown: 0
SampleSet: Soft
StackLeniency: 0.7
Mode: 0
LetterboxInBreaks: 1
WidescreenStoryboard: 0

[Editor]
Bookmarks: 541,29187,55840,75693,101905,113108,131012,133856,143611,164356,167886
DistanceSpacing: 1.9
BeatDivisor: 4
GridSize: 4
TimelineZoom: 2.4

[Metadata]
Title:Tokyo Teddy Bear
TitleUnicode:東京テディベア
Artist:ZjKjKun
ArtistUnicode:ZjKjKun
Creator:WelkinTheWolf
Version:Kitty's Insane
Source:
Tags:furry utau teddy bear tokyo Kemonone Rou vocaloids furloids Nviek5 Sky DubFoxx Neru Renia Xenophere Shiroi Hiroshi Sauziteoi HitCoder KittyAdventure Dab9 Dracrosinos
BeatmapID:1015162
BeatmapSetID:362268

[Difficulty]
HPDrainRate:6.5
CircleSize:4
OverallDifficulty:8
ApproachRate:9
SliderMultiplier:1.4
SliderTickRate:2

[Events]
//Background and Video events
Video,0,"tokyoteddybear.avi"
0,0,"New BG.png",0,0
//Break Periods
2,67589,75477
2,133324,141936
//Storyboard Layer 0 (Background)
//Storyboard Layer 1 (Fail)
//Storyboard Layer 2 (Pass)
//Storyboard Layer 3 (Foreground)
//Storyboard Sound Samples

[TimingPoints]
1507,294.117647058824,4,2,3,60,1,0
1507,-133.333333333333,5,2,3,40,0,0
17533,-100,5,1,3,40,0,0
30033,-100,4,1,3,50,0,0
36356,-100,4,1,3,60,0,0
48418,-100,4,1,3,70,0,1
67095,-100,4,1,3,70,0,0
76798,-133.333333333333,4,2,3,40,0,0
85033,-100,4,3,0,65,0,0
85474,-100,4,3,0,80,0,0
86065,-100,4,1,3,50,0,0
95327,-133.333333333333,4,1,3,50,0,0
99665,-100,4,1,3,50,0,0
104889,-100,4,1,3,60,0,1
123859,-100,4,1,3,40,0,0
133124,-133.333333333333,4,2,3,40,0,0
149467,-100,4,1,3,50,0,0
149944,-100,4,1,3,40,0,0
150842,-100,4,1,3,40,0,0
152389,-100,4,1,3,60,0,1
152628,-100,4,1,3,75,0,1
152922,-100,4,1,3,60,0,1
160271,-100,4,1,3,50,0,1
170918,-100,4,1,3,50,0,0

[Colours]
Combo1 : 255,0,0
Combo2 : 255,255,0
Combo3 : 0,255,0
Combo4 : 255,0,255
Combo5 : 15,97,234

[HitObjects]
472,108,1507,6,0,P|444:96|364:120,1,105.000004005432,4|0,0:0|0:0,0:0:0:0:
316,172,1948,1,0,0:0:0:0:
248,120,2095,2,0,L|216:16,1,105.000004005432,0|2,0:0|0:0,0:0:0:0:
221,200,2536,2,0,P|273:201|325:156,1,105.000004005432,0|0,0:0|0:0,0:0:0:0:
388,128,2977,6,0,P|416:124|448:132,1,52.5000020027161,2|0,0:0|0:0,0:0:0:0:
315,171,3271,2,0,P|320:204|316:248,1,52.5000020027161,0|0,0:0|0:0,0:0:0:0:
304,84,3565,2,0,P|276:88|232:80,1,52.5000020027161,2|0,0:0|0:0,0:0:0:0:
188,140,3859,6,0,L|188:264,1,105.000004005432,0|0,0:0|0:0,0:0:0:0:
244,308,4301,2,0,B|300:316|300:316|368:296,1,105.000004005432,0|0,0:0|0:0,0:0:0:0:
424,256,4742,1,2,0:0:0:0:
346,302,4889,1,0,0:0:0:0:
424,352,5036,6,0,L|492:360,1,52.5000020027161,0|0,0:0|0:0,0:0:0:0:
348,304,5330,2,0,L|296:312,1,52.5000020027161,2|0,0:0|0:0,0:0:0:0:
436,264,5624,2,0,L|504:272,1,52.5000020027161,0|0,0:0|0:0,0:0:0:0:
360,216,5918,1,2,0:0:0:0:
360,216,6212,6,0,P|372:164|352:112,1,105.000004005432,4|0,0:0|0:0,0:0:0:0:
288,168,6654,1,0,0:0:0:0:
276,252,6801,1,0,0:0:0:0:
116,300,7095,1,2,0:0:0:0:
80,224,7242,1,0,0:0:0:0:
156,72,7536,5,0,0:0:0:0:
224,120,7683,2,0,L|344:124,1,105.000004005432,2|0,0:0|0:0,0:0:0:0:
444,244,8271,1,2,0:0:0:0:
312,348,8565,6,0,P|296:312|232:280,1,105.000004005432,0|0,0:0|0:0,0:0:0:0:
156,284,9007,2,0,P|109:305|84:351,1,105.000004005432,0|0,0:0|0:0,0:0:0:0:
168,368,9448,1,2,0:0:0:0:
156,284,9595,1,0,0:0:0:0:
108,216,9742,6,0,P|76:204|40:212,1,52.5000020027161,0|0,0:0|0:0,0:0:0:0:
184,168,10036,2,0,P|207:157|233:157,1,52.5000020027161,2|0,0:0|0:0,0:0:0:0:
100,116,10330,2,0,P|68:104|32:112,1,52.5000020027161,0|0,0:0|0:0,0:0:0:0:
176,68,10624,1,2,0:0:0:0:
176,68,10918,6,0,B|232:76|232:76|292:68,1,105.000004005432,0|0,0:0|0:0,0:0:0:0:
352,108,11359,1,0,0:0:0:0:
352,108,11507,2,0,P|340:160|368:224,1,105.000004005432,0|2,0:0|0:0,0:0:0:0:
104,216,11948,2,0,P|119:166|107:115,1,105.000004005432,0|0,0:0|0:0,0:0:0:0:
32,80,12389,6,0,P|35:54|45:29,1,52.5000020027161,2|0,0:0|0:0,0:0:0:0:
107,115,12683,2,0,P|116:136|120:168,1,52.5000020027161,0|0,0:0|0:0,0:0:0:0:
16,224,12977,2,0,P|6:199|2:173,1,52.5000020027161,2|0,0:0|0:0,0:0:0:0:
88,268,13271,6,0,P|52:300|-12:300,1,105.000004005432,0|0,0:0|0:0,0:0:0:0:
164,228,13712,2,0,P|172:268|144:336,1,105.000004005432,0|0,0:0|0:0,0:0:0:0:
88,268,14154,1,2,0:0:0:0:
164,228,14301,1,0,0:0:0:0:
240,196,14448,6,0,L|304:200,1,52.5000020027161,0|0,0:0|0:0,0:0:0:0:
424,144,14742,2,0,L|371:140,1,52.5000020027161,2|0,0:0|0:0,0:0:0:0:
436,232,15036,2,0,L|500:236,1,52.5000020027161,0|0,0:0|0:0,0:0:0:0:
371,140,15330,1,2,0:0:0:0:
371,140,15624,6,0,P|356:76|384:32,1,105.000004005432,0|0,0:0|0:0,0:0:0:0:
444,88,16065,1,0,0:0:0:0:
452,172,16212,1,0,0:0:0:0:
284,188,16507,2,0,P|256:184|220:188,1,52.5000020027161,0|0,0:0|0:0,0:0:0:0:
92,276,16948,2,0,P|120:280|156:276,1,52.5000020027161,0|2,0:0|0:0,0:0:0:0:
40,144,17389,5,0,0:0:0:0:
40,144,17683,1,0,0:0:0:0:
204,68,17977,5,12,0:0:0:0:
276,120,18124,1,0,0:0:0:0:
200,172,18271,1,0,0:0:0:0:
372,64,18418,2,0,L|376:144,1,70,12|0,0:0|0:0,0:0:0:0:
300,296,18712,2,0,L|296:226,1,70,0|0,0:0|0:0,0:0:0:0:
200,172,19007,5,12,0:0:0:0:
296,226,19154,2,0,P|340:244|376:240,1,70,0|0,0:0|0:0,0:0:0:0:
448,216,19448,1,0,0:0:0:0:
476,304,19595,1,0,0:0:0:0:
484,324,19668,1,0,0:0:0:0:
492,344,19742,6,0,B|448:328|408:344|408:344|388:340|388:340|344:364|280:340,1,210,8|0,0:0|0:0,0:0:0:0:
212,292,20330,6,0,P|200:240|216:136,1,140,6|0,0:0|0:0,0:0:0:0:
148,88,20771,2,0,B|116:96|116:96|68:88,1,70,0|8,0:0|0:0,0:0:0:0:
209,154,21065,2,0,B|241:146|241:146|289:154,1,70,0|8,0:0|0:0,0:0:0:0:
328,228,21359,6,0,L|340:64,1,140,4|0,0:0|0:0,0:0:0:0:
420,48,21801,1,8,0:0:0:0:
338,88,21948,1,0,0:0:0:0:
260,40,22095,2,0,P|216:20|112:44,1,140,8|8,0:0|0:0,0:0:0:0:
40,16,22536,1,0,0:0:0:0:
64,104,22683,6,0,B|72:208|72:208|60:256,1,140,6|8,0:0|0:0,0:0:0:0:
32,328,23124,1,0,0:0:0:0:
116,360,23271,2,0,B|152:368|152:368|192:360,1,70,8|0,0:0|0:0,0:0:0:0:
272,332,23565,1,0,0:0:0:0:
184,361,23712,6,0,P|184:296|264:240,1,140,4|0,0:0|0:0,0:0:0:0:
300,180,24154,2,0,P|308:136|296:100,1,70,8|0,0:0|0:0,0:0:0:0:
234,245,24448,2,0,P|227:279|236:312,1,70,8|0,0:0|0:0,0:0:0:0:
316,356,24742,2,0,B|352:348|352:348|400:360,1,70,8|0,0:0|0:0,0:0:0:0:
456,300,25036,6,0,P|488:232|440:168,1,140,6|0,0:0|0:0,0:0:0:0:
392,116,25477,2,0,P|384:72|400:28,1,70,0|8,0:0|0:0,0:0:0:0:
296,16,25771,2,0,P|301:50|293:84,1,70,0|8,0:0|0:0,0:0:0:0:
216,128,26065,6,0,P|264:120|336:188,1,140,4|0,0:0|0:0,0:0:0:0:
352,216,26433,1,0,0:0:0:0:
352,216,26507,2,0,L|352:292,1,70,8|0,0:0|0:0,0:0:0:0:
280,340,26801,2,0,P|240:352|188:340,1,70,8|0,0:0|0:0,0:0:0:0:
140,292,27095,2,0,P|105:290|72:301,1,70,8|0,0:0|0:0,0:0:0:0:
32,368,27389,6,0,L|28:208,1,140,6|8,0:0|0:0,0:0:0:0:
20,142,27830,1,0,0:0:0:0:
28,228,27977,1,8,0:0:0:0:
100,176,28124,2,0,L|180:168,1,70,0|8,0:0|0:0,0:0:0:0:
248,216,28418,6,0,P|208:184|276:140,1,140,4|0,0:0|0:0,0:0:0:0:
328,76,28859,1,8,0:0:0:0:
404,124,29007,2,0,P|416:136|448:140,2,35,8|8|8,0:0|0:0|0:0,0:0:0:0:
328,76,29301,5,8,0:0:0:0:
256,131,29448,1,8,0:0:0:0:
188,72,29595,1,8,0:0:0:0:
128,140,29742,6,0,L|116:284,1,140,4|8,0:0|0:0,0:0:0:0:
184,340,30183,1,0,0:0:0:0:
260,292,30330,2,0,P|332:280|384:328,1,140,0|8,0:0|0:0,0:0:0:0:
436,248,30771,6,0,B|424:216|436:192|436:192|432:172|432:172|448:144|428:92,1,140,0|0,0:0|0:0,0:0:0:0:
368,52,31212,2,0,P|328:40|280:56,1,70,8|0,0:0|0:0,0:0:0:0:
148,76,31507,2,0,P|181:88|216:84,1,70,0|0,0:0|0:0,0:0:0:0:
292,132,31801,1,8,0:0:0:0:
292,132,32095,6,0,B|296:248|296:248|312:288,1,140,0|8,0:0|0:0,0:0:0:0:
220,300,32536,2,0,B|128:296|128:296|72:312,1,140,0|0,0:0|0:0,0:0:0:0:
16,248,32977,1,8,0:0:0:0:
52,164,33124,1,0,0:0:0:0:
28,76,33271,6,0,L|124:60,1,70,0|0,0:0|0:0,0:0:0:0:
233,139,33565,2,0,L|164:128,1,70,8|0,0:0|0:0,0:0:0:0:
200,40,33859,2,0,L|296:24,1,70,0|0,0:0|0:0,0:0:0:0:
405,103,34153,2,0,L|335:91,1,70,8|0,0:0|0:0,0:0:0:0:
480,56,34448,6,0,P|492:116|440:188,1,140,0|8,0:0|0:0,0:0:0:0:
368,216,34889,1,0,0:0:0:0:
420,292,35036,2,0,P|372:308|280:252,1,140,0|8,0:0|0:0,0:0:0:0:
220,220,35477,6,0,B|160:196|160:196|56:204,1,140,0|0,0:0|0:0,0:0:0:0:
48,284,35918,2,0,L|24:116,1,140,8|8,0:0|0:0,0:0:0:0:
76,68,36359,2,0,L|132:76,1,35,0|0,0:0|0:0,0:0:0:0:
148,44,36507,2,0,L|182:39,1,35,8|0,0:0|0:0,0:0:0:0:
216,68,36654,2,0,L|272:76,1,35,0|0,0:0|0:0,0:0:0:0:
284,108,36801,6,0,P|304:200|268:248,1,140,12|0,0:0|0:0,0:0:0:0:
340,308,37242,2,0,B|372:296|400:308|400:308|412:300|412:300|452:324|496:304,1,140,4|0,0:0|0:0,0:0:0:0:
460,220,37683,1,8,0:0:0:0:
488,132,37830,6,0,L|468:52,1,70,4|0,0:0|0:0,0:0:0:0:
388,24,38124,2,0,L|371:91,1,70,0|8,0:0|0:0,0:0:0:0:
364,112,38345,1,0,0:0:0:0:
360,132,38418,1,0,0:0:0:0:
284,184,38565,1,0,0:0:0:0:
224,116,38712,1,8,0:0:0:0:
224,116,39007,6,0,P|180:120|108:44,1,140,6|0,0:0|0:0,0:0:0:0:
28,20,39448,2,0,L|28:184,1,140,8|0,0:1|1:0,0:0:0:0:
28,160,40036,1,8,0:0:0:0:
104,200,40183,6,0,P|120:240|96:344,1,140,2|8,0:0|0:1,0:0:0:0:
28,160,40624,2,0,L|184:148,1,140,2|8,0:0|1:1,0:0:0:0:
167,149,41212,1,8,0:0:0:0:
232,220,41359,6,0,P|259:157|236:93,1,140,2|8,0:0|0:1,0:0:0:0:
167,149,41801,2,0,P|144:212|176:280,1,140,0|8,1:0|0:0,0:0:0:0:
171,275,42389,1,8,0:1:0:0:
248,320,42536,6,0,L|400:328,1,140,8|0,0:1|1:0,0:0:0:0:
468,368,42977,2,0,P|424:336|492:324,1,140,0|0,0:0|0:0,0:0:0:0:
496,216,43418,1,0,1:0:0:0:
404,212,43565,1,0,1:0:0:0:
348,284,43712,6,0,B|276:272|276:272|180:284,1,140,14|0,0:0|0:0,0:0:0:0:
152,344,44154,2,0,B|160:316|152:296|152:296|160:284|160:284|144:248|160:208,1,140,8|0,0:1|1:0,0:0:0:0:
112,132,44595,2,0,B|80:148|80:148|24:148,1,70,0|8,1:0|0:1,0:0:0:0:
196,108,44889,6,0,B|248:148|248:148|332:160,1,140,14|0,0:0|0:0,0:0:0:0:
404,116,45330,2,0,P|412:176|344:244,1,140,8|0,0:1|1:0,0:0:0:0:
376,328,45771,1,0,1:0:0:0:
292,292,45918,1,8,0:1:0:0:
212,336,46065,6,0,B|144:324|144:324|56:352,1,140,14|8,0:0|0:1,0:0:0:0:
20,272,46507,2,0,P|16:220|36:192,1,70,0|0,1:0|0:0,0:0:0:0:
96,88,46801,2,0,P|107:120|99:154,1,70,0|0,1:0|1:0,0:0:0:0:
100,240,47095,1,0,1:0:0:0:
100,240,47242,2,0,B|192:236|192:236|252:248,1,140,10|8,0:0|0:1,0:0:0:0:
316,292,47683,6,0,P|372:312|412:304,1,70,0|0,1:0|0:0,0:0:0:0:
376,220,47977,1,8,0:1:0:0:
456,176,48124,1,0,0:0:0:0:
464,132,48198,1,0,3:0:0:0:
440,96,48271,1,0,0:0:0:0:
396,80,48345,1,0,0:0:0:0:
352,72,48418,6,0,L|180:60,1,140,6|8,0:0|0:0,0:0:0:0:
140,4,48859,2,0,P|120:48|168:144,1,140,2|8,0:0|0:0,0:0:0:0:
232,184,49301,1,2,0:0:0:0:
148,232,49448,1,8,0:0:0:0:
148,130,49595,6,0,P|216:88|296:116,1,140,2|8,0:0|0:0,0:0:0:0:
356,52,50036,2,0,L|356:208,1,140,2|8,0:0|0:0,0:0:0:0:
404,276,50477,1,2,0:0:0:0:
308,276,50624,1,8,0:0:0:0:
356,192,50771,6,0,P|272:184|216:236,1,140,2|8,0:0|0:0,0:0:0:0:
132,224,51212,2,0,P|148:168|128:76,1,140,2|8,0:0|0:0,0:0:0:0:
60,44,51654,2,0,L|-12:36,1,70,2|0,0:0|0:0,0:0:0:0:
134,88,51948,6,0,B|218:96|218:96|294:80,1,140,2|0,0:0|0:0,0:0:0:0:
360,132,52389,2,0,P|364:160|344:208,1,70,10|0,0:0|0:0,0:0:0:0:
276,260,52683,1,8,0:0:0:0:
276,260,52757,1,0,0:0:0:0:
276,260,52830,2,0,P|272:294|284:326,1,70,2|8,0:0|0:0,0:0:0:0:
376,360,53124,6,0,P|440:364|504:316,1,140,2|8,0:0|0:0,0:0:0:0:
504,224,53565,2,0,L|488:136,1,70,2|0,0:0|0:0,0:0:0:0:
432,76,53859,2,0,P|376:100|344:96,1,70,8|2,0:0|0:0,0:0:0:0:
280,60,54154,1,0,0:0:0:0:
280,60,54301,6,0,P|212:40|148:96,1,140,2|8,0:0|0:0,0:0:0:0:
60,88,54742,2,0,P|76:132|112:160,1,70,2|0,0:0|0:0,0:0:0:0:
176,196,55036,1,8,0:0:0:0:
91,148,55183,1,2,0:0:0:0:
48,236,55330,1,0,0:0:0:0:
248,256,55477,6,0,P|272:176|220:112,1,140,6|0,0:0|0:0,0:0:0:0:
168,72,55918,1,8,0:0:0:0:
168,72,55992,1,0,0:0:0:0:
168,72,56065,2,0,L|80:72,1,70,0|6,0:0|0:0,0:0:0:0:
48,156,56359,2,0,L|118:156,1,70,0|8,0:0|0:0,0:0:0:0:
196,216,56654,6,0,P|212:272|184:356,1,140,2|0,0:0|0:0,0:0:0:0:
120,280,57095,1,0,0:0:0:0:
120,280,57168,1,0,0:0:0:0:
120,280,57242,1,8,0:0:0:0:
108,184,57389,2,0,P|128:152|176:128,1,70,8|0,0:0|0:0,0:0:0:0:
220,64,57683,1,0,0:0:0:0:
220,64,57757,1,0,0:0:0:0:
220,64,57830,6,0,P|272:92|368:52,1,140,6|8,0:0|0:0,0:0:0:0:
428,128,58271,2,0,P|444:192|408:276,1,140,2|8,0:0|0:0,0:0:0:0:
424,360,58712,1,2,0:0:0:0:
421,260,58859,1,0,0:0:0:0:
336,308,59007,6,0,B|304:288|268:304|268:304|224:324|180:288,1,140,2|8,0:0|0:0,0:0:0:0:
108,332,59448,2,0,P|104:280|172:212,1,140,2|8,0:0|0:0,0:0:0:0:
228,148,59889,2,0,P|236:96|216:64,1,70,2|0,0:0|0:0,0:0:0:0:
164,32,60183,6,0,B|236:48|236:48|332:24,1,140,2|8,0:0|0:0,0:0:0:0:
416,127,60624,2,0,B|344:111|344:111|280:128,1,140,2|8,0:0|0:0,0:0:0:0:
224,208,61065,1,2,0:0:0:0:
308,260,61212,1,0,0:0:0:0:
224,308,61359,6,0,B|120:320|120:320|64:304,1,140,2|0,0:0|0:0,0:0:0:0:
24,236,61801,2,0,B|24:172|24:172|20:168|20:168|28:168|28:168|24:164|24:164|24:80,1,140,10|8,0:0|0:0,0:0:0:0:
108,56,62242,2,0,P|140:48|168:52,3,35,2|0|8|0,0:0|0:0|0:0|0:0,0:0:0:0:
188,64,62536,6,0,P|252:88|320:60,1,140,6|8,0:0|0:0,0:0:0:0:
376,140,62977,2,0,B|360:208|360:208|384:296,1,140,2|8,0:0|0:0,0:0:0:0:
324,356,63418,2,0,P|280:336|248:336,1,70,2|0,0:0|0:0,0:0:0:0:
172,292,63712,6,0,P|196:248|176:160,1,140,2|8,0:0|0:0,0:0:0:0:
256,104,64154,2,0,P|312:136|384:88,1,140,2|8,0:0|0:0,0:0:0:0:
452,48,64595,1,2,0:0:0:0:
452,48,64742,1,0,0:0:0:0:
480,140,64889,6,0,P|484:176|476:216,1,70,2|0,0:0|0:0,0:0:0:0:
424,292,65183,1,8,0:0:0:0:
336,332,65330,2,0,P|330:297|334:262,1,70,6|0,0:0|0:0,0:0:0:0:
384,180,65624,1,8,0:0:0:0:
332,96,65771,2,0,L|256:96,1,70,2|8,0:0|0:0,0:0:0:0:
176,64,66065,1,2,0:0:0:0:
176,64,66212,6,0,L|176:140,1,70,8|0,0:0|0:0,0:0:0:0:
112,208,66507,1,10,0:0:0:0:
112,208,66654,2,0,P|108:252|124:296,1,70,0|8,0:0|0:0,0:0:0:0:
196,332,66948,1,10,0:0:0:0:
196,332,67095,2,0,L|268:332,1,70,8|8,0:0|0:0,0:0:0:0:
328,276,67389,5,4,0:0:0:0:
480,96,76801,6,0,L|424:112,1,52.5000020027161,0|0,0:0|0:0,0:0:0:0:
328,32,77095,2,0,L|344:96,1,52.5000020027161,0|0,0:0|0:0,0:0:0:0:
240,180,77389,2,0,L|296:164,1,52.5000020027161,0|0,0:0|0:0,0:0:0:0:
392,244,77683,2,0,L|376:180,1,52.5000020027161,0|0,0:0|0:0,0:0:0:0:
240,336,78124,2,0,L|252:285,1,52.5000020027161,0|0,0:0|0:0,0:0:0:0:
76,192,78859,1,0,0:0:0:0:
76,192,79154,6,0,P|104:148|172:128,1,105.000004005432,0|0,0:0|0:0,0:0:0:0:
196,52,79595,2,0,B|248:84|236:160,1,105.000004005432,0|0,0:0|0:0,0:0:0:0:
232,240,80036,1,0,0:0:0:0:
232,240,80183,6,0,L|224:304,1,52.5000020027161,0|0,0:0|0:0,0:0:0:0:
328,348,80477,2,0,L|321:295,1,52.5000020027161,0|0,0:0|0:0,0:0:0:0:
408,220,80771,2,0,L|400:284,1,52.5000020027161,0|0,0:0|0:0,0:0:0:0:
504,328,81065,2,0,L|497:275,1,52.5000020027161,0|0,0:0|0:0,0:0:0:0:
476,164,81507,6,0,P|436:136|364:144,1,105.000004005432,0|0,0:0|0:0,0:0:0:0:
336,72,81948,1,0,0:0:0:0:
260,120,82095,2,0,P|217:148|165:148,1,105.000004005432,0|0,0:0|0:0,0:0:0:0:
92,96,82536,2,0,P|76:168|96:212,1,105.000004005432,0|0,0:0|0:0,0:0:0:0:
156,252,82977,1,0,0:0:0:0:
228,308,83124,2,0,L|236:368,1,52.5000020027161,0|0,0:0|0:0,0:0:0:0:
324,320,83418,2,0,L|330:267,1,52.5000020027161,0|0,0:0|0:0,0:0:0:0:
329,267,83859,6,0,P|380:264|428:208,1,105.000004005432,0|0,0:0|0:0,0:0:0:0:
352,76,84301,2,0,P|340:128|356:188,1,105.000004005432,0|0,0:0|0:0,0:0:0:0:
432,128,84742,1,0,0:0:0:0:
350,177,84889,5,4,0:0:0:0:
268,136,85036,1,0,0:0:0:0:
224,132,85109,1,0,0:0:0:0:
180,128,85183,1,8,0:0:0:0:
112,68,85330,1,8,0:0:0:0:
44,132,85477,1,0,0:0:0:0:
108,196,85624,2,0,L|108:276,1,70,0|8,0:0|0:0,0:0:0:0:
268,352,86065,6,0,P|328:332|352:244,1,140,4|0,0:0|0:0,0:0:0:0:
432,212,86507,2,0,P|480:228|520:224,1,70,8|0,0:0|0:0,0:0:0:0:
488,136,86801,2,0,L|484:56,1,70,8|0,0:0|0:0,0:0:0:0:
400,32,87095,1,8,0:0:0:0:
400,32,87242,6,0,P|368:64|256:60,1,140,0|0,0:0|0:0,0:0:0:0:
196,112,87683,2,0,L|188:188,1,70,8|0,0:0|0:0,0:0:0:0:
283,277,87977,2,0,L|276:208,1,70,8|0,0:0|0:0,0:0:0:0:
356,164,88271,1,8,0:0:0:0:
428,220,88418,6,0,P|448:160|412:84,1,140,4|0,0:0|0:0,0:0:0:0:
352,40,88859,2,0,P|312:64|264:60,1,70,8|0,0:0|0:0,0:0:0:0:
216,120,89154,2,0,P|208:164|224:216,1,70,8|0,0:0|0:0,0:0:0:0:
272,260,89448,1,8,0:0:0:0:
272,260,89595,6,0,P|236:240|128:272,1,140,0|0,0:0|0:0,0:0:0:0:
204,324,90036,2,0,B|200:376|200:376|180:352,2,70,8|0|8,0:0|0:0|0:0,0:0:0:0:
16,124,90771,6,0,P|64:96|156:116,1,140,4|0,0:0|0:0,0:0:0:0:
224,60,91212,2,0,P|264:76|320:68,1,70,8|0,0:0|0:0,0:0:0:0:
372,120,91507,2,0,L|384:196,1,70,8|0,0:0|0:0,0:0:0:0:
460,240,91801,1,8,0:0:0:0:
460,240,91948,6,0,P|412:276|316:256,1,140,0|0,0:0|0:0,0:0:0:0:
264,324,92389,2,0,P|224:312|176:320,1,70,8|0,0:0|0:0,0:0:0:0:
120,260,92683,2,0,L|112:184,2,70,8|0|8,0:0|0:0|0:0,0:0:0:0:
196,312,93124,6,0,P|136:348|60:332,1,140,4|0,0:0|0:0,0:0:0:0:
12,268,93565,2,0,P|12:228|24:200,1,70,8|0,0:0|0:0,0:0:0:0:
4,112,93859,2,0,P|48:112|80:128,1,70,8|0,0:0|0:0,0:0:0:0:
144,68,94154,1,8,0:0:0:0:
144,68,94301,6,0,P|204:88|288:52,1,140,0|0,0:0|0:0,0:0:0:0:
364,80,94742,2,0,P|356:120|368:164,1,70,8|0,0:0|0:0,0:0:0:0:
400,232,95036,1,8,0:0:0:0:
400,232,95477,6,0,L|292:228,1,105.000004005432,6|8,0:0|0:1,0:0:0:0:
232,288,95918,2,0,P|220:320|220:352,1,52.5000020027161,0|0,1:0|0:0,0:0:0:0:
296,228,96212,2,0,P|264:208|232:200,1,52.5000020027161,0|0,1:0|0:0,0:0:0:0:
168,220,96507,1,2,0:0:0:0:
112,156,96654,6,0,P|96:104|124:44,1,105.000004005432,8|8,0:1|0:0,0:0:0:0:
180,104,97095,2,0,L|240:104,1,52.5000020027161,0|0,1:0|0:0,0:0:0:0:
292,44,97389,2,0,P|320:64|360:72,1,52.5000020027161,0|0,1:0|0:0,0:0:0:0:
420,48,97683,1,2,0:0:0:0:
420,48,97830,6,0,L|420:168,1,105.000004005432,8|8,0:1|0:0,0:0:0:0:
472,220,98271,1,0,1:0:0:0:
400,264,98418,1,0,0:0:0:0:
324,224,98565,1,0,1:0:0:0:
248,256,98712,2,0,P|200:268|176:264,1,52.5000020027161,0|8,0:0|0:1,0:0:0:0:
148,336,99007,6,0,P|120:296|128:220,1,105.000004005432,8|0,0:1|1:0,0:0:0:0:
148,164,99448,1,0,0:0:0:0:
220,120,99595,1,0,1:0:0:0:
220,120,99668,1,0,0:0:0:0:
220,120,99742,1,8,0:1:0:0:
296,172,99889,2,0,L|380:164,1,70,0|8,1:0|0:1,0:0:0:0:
448,204,100183,6,0,P|432:252|464:336,1,140,14|0,0:0|0:0,0:0:0:0:
376,360,100624,2,0,P|336:336|240:352,1,140,8|0,0:1|1:0,0:0:0:0:
164,308,101065,2,0,B|160:264|160:264|176:224,1,70,0|8,1:0|0:1,0:0:0:0:
128,160,101359,6,0,P|192:152|256:224,1,140,14|0,0:0|0:0,0:0:0:0:
316,136,101801,2,0,B|384:120|384:120|484:148,1,140,8|0,0:1|1:0,0:0:0:0:
488,224,102242,2,0,P|452:248|436:280,1,70,0|8,1:0|0:1,0:0:0:0:
388,344,102536,6,0,P|360:320|248:316,1,140,14|0,0:0|0:0,0:0:0:0:
184,260,102977,1,8,0:1:0:0:
120,324,103124,1,0,1:0:0:0:
100,320,103198,1,0,0:0:0:0:
80,316,103271,1,0,1:0:0:0:
16,252,103418,1,0,1:0:0:0:
40,164,103565,1,0,1:0:0:0:
132,152,103712,6,0,P|120:100|160:24,1,140,10|8,0:0|0:1,0:0:0:0:
208,100,104154,2,0,L|292:104,1,70,0|0,1:0|1:0,0:0:0:0:
360,68,104448,1,8,0:1:0:0:
424,132,104595,1,0,1:0:0:0:
448,172,104668,1,0,1:0:0:0:
444,216,104742,1,0,1:0:0:0:
416,252,104815,1,0,1:0:0:0:
372,264,104889,6,0,P|328:232|224:252,1,140,6|8,0:0|0:0,0:0:0:0:
192,308,105330,2,0,P|164:272|188:168,1,140,2|8,0:0|0:0,0:0:0:0:
208,100,105771,1,2,0:0:0:0:
245,236,105918,1,0,0:0:0:0:
76,204,106065,6,0,P|48:160|72:64,1,140,2|8,0:0|0:0,0:0:0:0:
260,144,106507,2,0,P|212:164|128:120,1,140,2|8,0:0|0:0,0:0:0:0:
212,8,106948,2,0,B|216:56|216:56|200:96,1,70,2|0,0:0|0:0,0:0:0:0:
260,144,107242,6,0,P|312:116|400:144,1,140,2|8,0:0|0:0,0:0:0:0:
328,332,107683,2,0,P|304:284|336:200,1,140,2|8,0:0|0:0,0:0:0:0:
460,264,108124,2,0,P|412:272|372:256,1,70,2|0,0:0|0:0,0:0:0:0:
420,180,108418,5,2,0:0:0:0:
329,205,108565,1,8,0:0:0:0:
460,264,108712,1,0,0:0:0:0:
468,108,108859,2,0,L|456:32,1,70,10|0,0:0|0:0,0:0:0:0:
292,16,109154,2,0,L|281:85,1,70,8|0,0:0|0:0,0:0:0:0:
256,124,109374,1,0,0:0:0:0:
256,124,109448,1,8,0:0:0:0:
248,208,109595,6,0,P|196:192|168:104,1,140,6|8,0:0|0:0,0:0:0:0:
340,148,110036,2,0,L|340:296,1,140,2|8,0:0|0:0,0:0:0:0:
288,72,110477,2,0,P|324:56|356:56,1,70,2|0,0:0|0:0,0:0:0:0:
236,152,110771,6,0,P|204:116|220:12,1,140,2|8,0:0|0:0,0:0:0:0:
288,72,111212,1,2,0:0:0:0:
208,28,111359,1,0,0:0:0:0:
372,24,111507,1,8,0:0:0:0:
320,160,111654,2,0,L|324:252,1,70,2|0,0:0|0:0,0:0:0:0:
200,120,111948,6,0,P|144:96|120:12,1,140,10|8,0:0|0:0,0:0:0:0:
208,28,112389,1,0,0:0:0:0:
208,28,112462,1,0,0:0:0:0:
208,28,112536,1,0,0:0:0:0:
284,96,112683,2,0,P|288:132|268:180,2,70,10|0|0,0:0|0:0|0:0,0:0:0:0:
368,36,113124,6,0,B|468:28|468:28|428:64,1,140,2|0,0:0|0:0,0:0:0:0:
408,140,113565,1,0,0:0:0:0:
408,140,113639,1,0,0:0:0:0:
408,140,113712,1,8,0:0:0:0:
460,216,113859,1,8,0:0:0:0:
380,260,114007,2,0,L|376:304,3,35,8|8|8|8,0:0|0:0|0:0|0:0,0:0:0:0:
344,328,114301,6,0,P|280:344|212:296,1,140,6|8,0:0|0:0,0:0:0:0:
140,264,114742,2,0,P|96:304|68:312,1,70,2|0,0:0|0:0,0:0:0:0:
128,172,115036,2,0,P|172:176|208:196,1,70,8|2,0:0|0:0,0:0:0:0:
48,228,115330,1,0,0:0:0:0:
48,228,115477,6,0,P|36:184|84:88,1,140,2|8,0:0|0:0,0:0:0:0:
60,8,115918,2,0,P|20:20|-16:16,1,70,2|0,0:0|0:0,0:0:0:0:
144,52,116212,2,0,P|160:92|156:140,1,70,8|2,0:0|0:0,0:0:0:0:
176,208,116507,1,0,0:0:0:0:
176,208,116580,1,0,0:0:0:0:
176,208,116654,6,0,B|268:208|268:208|320:232,1,140,2|8,0:0|0:0,0:0:0:0:
392,188,117095,2,0,B|388:144|388:144|396:96,1,70,2|0,0:0|0:0,0:0:0:0:
364,32,117389,1,8,0:0:0:0:
288,80,117536,1,2,0:0:0:0:
192,88,117683,1,0,0:0:0:0:
108,48,117830,6,0,P|56:72|36:164,1,140,2|0,0:0|0:0,0:0:0:0:
120,132,118271,2,0,L|128:204,1,70,10|0,0:0|0:0,0:0:0:0:
204,248,118565,2,0,L|211:178,1,70,8|2,0:0|0:0,0:0:0:0:
288,124,118859,1,8,0:0:0:0:
288,124,119007,6,0,P|324:168|408:168,1,140,2|8,0:0|0:0,0:0:0:0:
480,220,119448,2,0,P|484:260|472:304,1,70,2|0,0:0|0:0,0:0:0:0:
404,340,119742,2,0,P|360:332|336:336,1,70,8|2,0:0|0:0,0:0:0:0:
248,356,120036,1,0,0:0:0:0:
248,356,120183,6,0,L|248:216,1,140,2|8,0:0|0:0,0:0:0:0:
184,152,120624,2,0,B|160:188|96:188,1,70,2|0,0:0|0:0,0:0:0:0:
76,36,120918,2,0,P|104:68|116:108,1,70,8|2,0:0|0:0,0:0:0:0:
24,108,121212,1,0,0:0:0:0:
30,177,121359,6,0,L|22:97,1,70,2|0,0:0|0:0,0:0:0:0:
10,267,121654,1,8,0:0:0:0:
80,256,121801,2,0,L|8:268,1,70,6|0,0:0|0:0,0:0:0:0:
172,272,122095,1,8,0:0:0:0:
156,204,122242,2,0,L|176:288,1,70,2|0,0:0|0:0,0:0:0:0:
164,114,122536,1,2,0:0:0:0:
96,128,122683,6,0,L|176:112,1,70,8|0,0:0|0:0,0:0:0:0:
16,152,122977,2,0,P|16:104|32:72,2,70,8|0|8,0:0|0:0|0:0,0:0:0:0:
88,224,123418,1,8,0:0:0:0:
60,320,123565,1,8,0:0:0:0:
176,184,123712,6,0,B|280:180|280:180|248:208,1,140,0|0,1:0|0:0,0:0:0:0:
352,236,124154,1,2,0:0:0:0:
421,142,124301,1,0,0:0:0:0:
304,96,124448,2,0,B|348:108|364:148|364:148|452:140,1,140,8|8,0:0|0:0,0:0:0:0:
208,92,124889,6,0,P|236:32|328:4,1,140,0|0,1:0|0:0,0:0:0:0:
120,64,125330,1,2,0:0:0:0:
78,156,125477,1,0,0:0:0:0:
212,180,125624,2,0,B|168:184|140:156|140:156|68:156,1,140,8|8,0:0|0:0,0:0:0:0:
288,136,126065,6,0,B|308:180|288:224|288:224|288:280,1,140,0|0,1:0|0:0,0:0:0:0:
212,180,126507,1,2,0:0:0:0:
152,96,126654,1,0,0:0:0:0:
240,64,126801,2,0,B|280:44|316:56|316:56|328:8|300:-4,1,140,8|0,0:0|1:0,0:0:0:0:
152,96,127242,6,0,B|136:140|144:176|144:176|176:152|232:160,1,140,0|8,1:0|0:0,0:0:0:0:
205,245,127683,2,0,L|212:280,3,35,0|0|0|0,0:0|0:0|0:0|0:0,0:0:0:0:
248,308,127977,2,0,P|304:320|344:308,1,70,0|0,0:0|0:0,0:0:0:0:
388,264,128271,1,0,0:0:0:0:
464,312,128418,6,0,P|476:260|428:180,1,140,6|0,0:0|0:0,0:0:0:0:
384,112,128859,1,0,1:0:0:0:
308,160,129007,1,0,0:0:0:0:
216,152,129154,1,8,0:1:0:0:
156,84,129301,1,0,0:0:0:0:
68,112,129448,1,8,0:1:0:0:
48,200,129595,1,0,0:0:0:0:
132,264,129742,6,0,L|136:312,2,46.6666666666667,8|0|0,0:1|0:0|0:0,0:0:0:0:
168,216,130036,2,0,L|171:169,2,46.6666666666667,8|0|0,0:1|0:0|0:0,0:0:0:0:
220,248,130330,2,0,P|248:260|276:260,3,46.6666666666667,8|0|0|8,0:1|0:0|0:0|0:1,0:0:0:0:
340,208,130771,6,0,P|408:168|476:192,1,140,4|0,1:0|0:0,0:0:0:0:
420,264,131212,2,0,L|420:340,1,70,8|0,0:1|1:0,0:0:0:0:
332,316,131507,1,8,0:1:0:0:
244,344,131654,1,0,1:0:0:0:
160,308,131801,1,0,0:0:0:0:
76,344,131948,5,8,0:1:0:0:
256,192,132021,12,4,133124,0:0:0:0:
500,68,142536,6,0,P|456:108|404:116,1,105.000004005432,0|0,1:0|0:0,0:0:0:0:
324,72,142977,2,0,L|316:16,1,52.5000020027161,0|0,1:0|0:0,0:0:0:0:
224,116,143271,2,0,L|208:188,1,52.5000020027161,8|0,0:0|0:0,0:0:0:0:
108,236,143565,1,0,0:0:0:0:
200,320,143712,6,0,P|248:304|320:328,1,105.000004005432,0|0,0:0|0:0,0:0:0:0:
388,260,144154,2,0,P|380:228|388:188,1,52.5000020027161,0|0,0:0|0:0,0:0:0:0:
316,120,144448,2,0,P|288:128|248:124,1,52.5000020027161,8|0,0:0|0:0,0:0:0:0:
176,72,144742,1,0,0:0:0:0:
100,152,144889,6,0,L|92:268,1,105.000004005432,0|0,0:0|0:0,0:0:0:0:
264,348,145330,2,0,L|256:243,1,105.000004005432,0|8,0:0|0:0,0:0:0:0:
392,160,145771,2,0,L|384:224,1,52.5000020027161,0|0,0:0|0:0,0:0:0:0:
324,104,146065,6,0,P|368:76|436:84,1,105.000004005432,0|0,1:0|0:0,0:0:0:0:
280,188,146507,2,0,P|240:148|236:84,1,105.000004005432,0|8,1:0|0:0,0:0:0:0:
160,52,146948,2,0,P|132:56|96:44,1,52.5000020027161,0|0,0:0|0:0,0:0:0:0:
40,96,147242,6,0,P|24:148|48:212,1,105.000004005432,0|0,1:0|0:0,0:0:0:0:
212,148,147683,2,0,P|164:132|100:152,1,105.000004005432,0|8,1:0|0:0,0:0:0:0:
160,272,148124,2,0,L|160:208,1,52.5000020027161,0|0,0:0|0:0,0:0:0:0:
104,344,148418,6,0,P|160:360|216:344,1,105.000004005432,0|0,1:0|1:0,0:0:0:0:
384,312,148859,2,0,P|328:296|272:312,1,105.000004005432,0|8,1:0|0:0,0:0:0:0:
468,348,149301,2,0,P|476:312|464:276,1,52.5000020027161,2|0,0:0|3:0,0:0:0:0:
480,208,149595,6,0,P|432:216|352:176,1,140,4|8,0:0|0:0,0:0:0:0:
300,104,150036,2,0,L|300:68,2,35,0|0|0,0:0|0:0|0:0,0:0:0:0:
232,164,150330,1,8,0:1:0:0:
140,156,150477,1,8,0:1:0:0:
104,184,150551,1,0,0:0:0:0:
96,228,150624,1,8,0:1:0:0:
116,268,150698,1,0,0:0:0:0:
156,292,150771,6,0,L|304:292,1,140,0|0,0:0|0:0,0:0:0:0:
368,348,151212,2,0,P|416:328|476:348,2,105,8|0|0,0:0|0:0|3:0,0:0:0:0:
380,212,151874,1,0,3:0:0:0:
380,212,152389,6,0,P|312:224|228:172,1,140,6|8,0:0|0:0,0:0:0:0:
224,156,152757,1,0,0:0:0:0:
224,156,152830,1,0,0:0:0:0:
144,116,152977,1,0,0:0:0:0:
144,116,153051,1,0,0:0:0:0:
144,116,153124,6,0,P|80:112|24:176,1,140,2|8,0:0|0:0,0:0:0:0:
156,248,153565,2,0,P|136:216|104:196,2,70,2|0|8,0:0|0:0|0:0,0:0:0:0:
40,340,154007,2,0,P|68:308|76:260,1,70,2|0,0:0|0:0,0:0:0:0:
160,336,154301,6,0,B|192:320|228:336|228:336|264:352|308:328,1,140,2|8,0:0|0:0,0:0:0:0:
264,180,154742,2,0,P|256:220|268:264,1,70,2|0,0:0|0:0,0:0:0:0:
416,220,155036,2,0,P|380:212|340:220,2,70,8|2|0,0:0|0:0|0:0,0:0:0:0:
488,276,155477,6,0,P|508:220|456:132,1,140,2|0,0:0|0:0,0:0:0:0:
436,64,155918,2,0,P|396:80|352:76,1,70,10|0,0:0|0:0,0:0:0:0:
216,64,156212,2,0,P|256:48|300:52,1,70,8|2,0:0|0:0,0:0:0:0:
125,32,156507,1,8,0:0:0:0:
172,148,156654,6,0,P|132:116|132:20,1,140,2|8,0:0|0:0,0:0:0:0:
264,176,157095,2,0,P|232:224|208:240,2,70,2|0|8,0:0|0:0|0:0,0:0:0:0:
336,120,157536,1,2,0:0:0:0:
336,120,157683,1,0,0:0:0:0:
400,184,157830,6,0,P|424:132|384:40,1,140,2|8,0:0|0:0,0:0:0:0:
324,8,158271,1,2,0:0:0:0:
240,44,158418,1,0,0:0:0:0:
152,20,158565,1,8,0:0:0:0:
72,60,158712,2,0,L|60:132,1,70,2|0,0:0|0:0,0:0:0:0:
147,214,159007,6,0,P|87:130|39:134,1,140,8|0,0:0|0:0,0:0:0:0:
60,212,159448,1,8,0:0:0:0:
16,292,159595,1,0,0:0:0:0:
16,292,159668,1,0,0:0:0:0:
16,292,159742,1,10,0:0:0:0:
92,360,159889,2,0,P|140:336|184:344,1,70,8|8,0:0|0:0,0:0:0:0:
228,280,160183,6,0,P|256:228|228:144,1,140,6|8,0:0|0:0,0:0:0:0:
168,92,160624,1,8,0:0:0:0:
168,92,160698,1,0,0:0:0:0:
168,92,160771,1,0,0:0:0:0:
76,80,160918,1,8,0:0:0:0:
32,160,161065,1,0,0:0:0:0:
32,204,161139,1,0,0:0:0:0:
60,240,161212,1,0,0:0:0:0:
104,244,161286,1,0,0:0:0:0:
144,224,161359,6,0,P|124:276|156:368,1,140,4|8,0:0|0:0,0:0:0:0:
232,332,161801,1,8,0:0:0:0:
316,368,161948,2,0,L|408:364,2,70,0|8|0,0:0|0:0|0:0,0:0:0:0:
232,332,162389,1,8,0:0:0:0:
292,264,162536,6,0,P|316:196|288:128,1,140,4|8,0:0|0:0,0:0:0:0:
232,68,162977,2,0,P|196:88|144:92,1,70,0|0,0:0|0:0,0:0:0:0:
12,128,163271,2,0,P|48:108|100:104,1,70,8|0,0:0|0:0,0:0:0:0:
80,193,163565,1,8,0:0:0:0:
128,312,163712,6,0,P|84:268|92:172,1,140,4|8,0:0|0:0,0:0:0:0:
164,228,164154,1,8,0:0:0:0:
264,356,164301,1,0,0:0:0:0:
328,204,164448,1,8,0:0:0:0:
256,264,164595,1,0,0:0:0:0:
408,248,164742,1,8,0:0:0:0:
320,112,164889,6,0,P|272:116|196:44,1,140,4|8,0:0|0:0,0:0:0:0:
120,24,165330,1,8,0:0:0:0:
88,108,165477,1,0,0:0:0:0:
124,192,165624,1,0,0:0:0:0:
88,276,165771,2,0,P|128:296|148:324,1,70,8|8,0:0|0:0,0:0:0:0:
224,360,166065,6,0,L|224:204,1,140,4|8,0:0|0:0,0:0:0:0:
284,152,166507,2,0,P|320:168|368:164,1,70,8|0,0:0|0:0,0:0:0:0:
372,20,166801,2,0,P|348:52|340:100,1,70,8|8,0:0|0:0,0:0:0:0:
428,88,167095,1,8,0:0:0:0:
340,80,167242,6,0,P|288:60|212:100,1,140,4|8,0:0|0:0,0:0:0:0:
128,76,167683,2,0,L|128:160,1,70,8|0,0:0|0:0,0:0:0:0:
56,200,167977,2,0,P|40:248|96:336,1,140,8|8,0:0|0:0,0:0:0:0:
132,252,168418,5,0,0:0:0:0:
278,304,168565,1,0,0:0:0:0:
208,304,168712,2,0,L|288:304,1,70,8|8,0:0|0:0,0:0:0:0:
398,258,169007,1,0,0:0:0:0:
340,224,169154,2,0,P|368:248|416:260,1,70,8|0,0:0|0:0,0:0:0:0:
412,175,169448,1,8,0:0:0:0:
424,108,169595,6,0,P|412:148|416:192,1,70,0|12,0:0|0:0,0:0:0:0:
368,36,169889,1,0,0:0:0:0:
496,48,170036,2,0,P|448:20|364:40,1,140,8|8,0:0|0:0,0:0:0:0:
280,16,170477,1,8,0:0:0:0:
280,16,170551,1,0,0:0:0:0:
280,16,170624,1,8,0:0:0:0:
220,84,170771,1,8,0:0:0:0:
144,32,170918,6,0,B|52:28|52:28|0:40,1,140,0|2,0:0|0:2,0:0:0:0:
48,120,171359,1,0,0:0:0:0:
12,204,171507,2,0,L|4:284,1,70,0|0,0:0|0:0,0:0:0:0:
52,352,171801,1,2,0:2:0:0:
130,298,171948,6,0,P|86:266|-18:290,1,140,0|0,0:0|0:0,0:0:0:0:
204,348,172389,2,0,P|216:300|208:268,1,70,2|0,0:2|0:0,0:0:0:0:
248,196,172683,1,0,0:0:0:0:
332,236,172830,1,0,0:0:0:0:
424,228,172977,1,2,0:2:0:0:
480,156,173124,1,0,0:0:0:0:
472,64,173271,6,0,B|400:52|400:52|320:60,1,140,0|2,0:0|0:2,0:0:0:0:
252,20,173712,1,0,0:0:0:0:
220,104,173859,2,0,P|224:152|208:192,2,70,0|0|2,0:0|0:0|0:2,0:0:0:0:
132,132,174301,6,0,P|76:152|0:120,1,140,0|0,0:0|0:0,0:0:0:0:
68,0,174742,2,0,P|76:36|64:92,2,70,2|0|0,0:2|0:0|0:0,0:0:0:0:
3,123,175183,1,0,0:0:0:0:
64,192,175330,2,0,L|56:280,1,70,2|0,0:2|0:0,0:0:0:0:
100,340,175624,6,0,B|136:324|168:336|168:336|208:352|240:332,1,140,0|2,0:0|0:2,0:0:0:0:
204,247,176065,1,0,0:0:0:0:
208,180,176212,2,0,P|200:204|208:256,2,70,0|0|2,0:0|0:0|0:2,0:0:0:0:
284,128,176654,6,0,P|244:96|140:120,1,140,0|0,0:0|0:0,0:0:0:0:
76,68,177095,1,2,0:2:0:0:
24,144,177242,2,0,L|16:224,1,70,0|0,0:0|0:0,0:0:0:0:
116,276,177536,2,0,L|109:206,1,70,0|2,0:0|0:2,0:0:0:0:
187,335,177830,1,0,0:0:0:0:
60,352,177977,6,0,P|116:368|204:312,1,140,0|0,0:0|0:0,0:0:0:0:
264,288,178418,1,0,0:0:0:0:
340,340,178565,2,0,P|384:360|424:352,2,70,0|0|2,0:0|0:0|0:2,0:0:0:0:
376,144,179007,6,0,P|412:204|384:288,1,140,0|0,0:0|0:0,0:0:0:0:
320,216,179448,1,2,0:2:0:0:
320,216,179521,1,0,0:0:0:0:
320,216,179595,1,0,0:0:0:0:
260,148,179742,1,0,0:0:0:0:
172,136,179889,1,2,0:2:0:0:
84,164,180036,1,2,0:2:0:0:
44,244,180183,1,0,0:0:0:0:
108,308,180330,6,0,P|64:332|-24:308,2,140,4|0|2,0:2|0:0|0:2,0:0:0:0:
176,248,181065,1,0,0:0:0:0:
252,296,181212,1,2,0:2:0:0:
328,244,181359,6,0,P|404:216|480:256,1,140,2|0,0:2|0:0,0:0:0:0:
400,304,181801,1,0,0:0:0:0:
488,320,181948,1,0,0:0:0:0:
457,234,182095,2,0,L|461:150,1,70,0|0,0:0|0:0,0:0:0:0:
416,84,182389,2,0,P|376:96|332:88,1,70,2|0,0:2|0:0,0:0:0:0:
272,44,182683,6,0,P|256:88|300:168,1,140,4|0,0:2|0:0,0:0:0:0:
248,244,183124,2,0,P|180:228|96:256,1,140,0|0,0:0|0:0,0:0:0:0:
44,304,183565,1,0,0:0:0:0:
113,245,183712,6,0,P|133:189|97:101,1,140,4|0,0:2|0:0,0:0:0:0:
160,36,184154,1,2,0:2:0:0:
109,114,184301,1,0,0:0:0:0:
300,120,184448,1,0,0:0:0:0:
256,36,184595,1,2,0:2:0:0:
168,196,184742,2,0,P|208:204|248:192,1,70,2|0,0:2|0:0,0:0:0:0:
109,114,185036,6,0,P|80:148|88:256,1,140,4|0,0:2|0:0,0:0:0:0:
64,328,185477,1,0,0:0:0:0:
64,328,185624,2,0,P|108:324|148:288,1,70,0|0,0:0|0:0,0:0:0:0:
212,276,185918,1,2,0:2:0:0:
212,276,186065,6,0,P|288:320|352:296,1,140,0|0,0:0|0:0,0:0:0:0:
288,100,186507,2,0,P|263:164|287:228,1,140,0|2,0:0|0:2,0:0:0:0:
428,160,186948,2,0,P|380:156|340:176,2,70,0|0|2,0:0|0:0|0:2,0:0:0:0:
492,228,187389,6,0,P|516:180|484:88,1,140,4|0,0:2|0:0,0:0:0:0:
440,24,187830,2,0,P|396:40|360:40,1,70,4|0,0:2|0:0,0:0:0:0:
288,12,188124,1,0,0:0:0:0:
308,100,188271,1,0,0:0:0:0:
242,163,188418,6,0,L|242:239,1,70,4|0,0:2|0:0,0:0:0:0:
178,299,188712,1,0,0:0:0:0:
178,299,188786,1,0,0:0:0:0:
178,299,188859,1,0,0:3:0:0:
85,261,189007,1,0,0:3:0:0:
242,233,189154,1,0,0:3:0:0:
208,384,189301,5,0,0:0:0:0:
