osu file format v14

[General]
AudioFilename: ttbaudio.mp3
AudioLeadIn: 0
PreviewTime: 104889
Countdown: 0
SampleSet: Normal
StackLeniency: 0.7
Mode: 0
LetterboxInBreaks: 1
WidescreenStoryboard: 1

[Editor]
Bookmarks: 541,29187,55840,75693,101905,113108,131012,133856,143611,164356,167886
DistanceSpacing: 1.3
BeatDivisor: 6
GridSize: 4
TimelineZoom: 2.4

[Metadata]
Title:Tokyo Teddy Bear
TitleUnicode:東京テディベア
Artist:ZjKjKun
ArtistUnicode:ZjKjKun
Creator:WelkinTheWolf
Version:Hyper
Source:
Tags:furry utau teddy bear tokyo Kemonone Rou vocaloids furloids Nviek5 Sky DubFoxx Neru Renia Xenophere Shiroi Hiroshi Sauziteoi HitCoder KittyAdventure Dab9 Dracrosinos
BeatmapID:940881
BeatmapSetID:362268

[Difficulty]
HPDrainRate:5
CircleSize:3.5
OverallDifficulty:5
ApproachRate:8.5
SliderMultiplier:1.3
SliderTickRate:1

[Events]
//Background and Video events
Video,0,"tokyoteddybear.avi"
0,0,"New BG.png",0,0
//Break Periods
2,20530,29286
2,67589,76126
2,123912,131714
//Storyboard Layer 0 (Background)
//Storyboard Layer 1 (Fail)
//Storyboard Layer 2 (Pass)
//Storyboard Layer 3 (Foreground)
//Storyboard Sound Samples

[TimingPoints]
1507,294.117647058824,4,2,3,60,1,0
1507,-133.333333333333,5,2,3,40,0,0
17533,-100,5,1,3,40,0,0
30033,-100,4,1,3,40,0,0
36356,-100,4,1,3,40,0,0
39007,-133.333333333333,4,1,3,40,0,0
42389,-100,4,1,3,40,0,0
48418,-80,4,1,3,60,0,1
67389,-100,4,1,3,70,0,0
76798,-133.333333333333,4,2,3,60,0,0
85033,-100,4,3,0,50,0,0
85474,-100,4,3,0,60,0,0
86065,-80,4,1,3,50,0,1
95477,-133.333333333333,4,1,3,60,0,0
99595,-100,4,1,3,50,0,0
104889,-80,4,1,3,60,0,1
123859,-100,4,1,3,60,0,0
133060,-133.333333333333,4,2,3,60,0,0
149595,-100,4,1,3,50,0,1
151212,-100,4,1,3,50,0,0
152389,-80,4,1,3,60,0,1
170918,-100,4,1,3,50,0,0

[Colours]
Combo1 : 255,0,0
Combo2 : 255,255,0
Combo3 : 0,255,0
Combo4 : 255,0,255
Combo5 : 15,97,234

[HitObjects]
304,248,1507,5,0,0:0:0:0:
380,168,1801,2,0,L|380:120,1,48.750001859665,2|0,0:0|0:0,0:0:0:0:
324,72,2095,2,0,P|284:40|232:40,1,97.50000371933,0|2,0:0|0:0,0:0:0:0:
168,28,2536,1,0,0:0:0:0:
236,156,2830,5,0,0:0:0:0:
164,156,2977,2,0,L|128:200,1,48.750001859665,2|0,0:0|0:0,0:0:0:0:
188,244,3271,2,0,L|156:288,1,48.750001859665
192,352,3565,2,0,P|144:360|104:336,1,97.50000371933,2|0,0:0|0:0,0:0:0:0:
80,212,4154,1,2,0:0:0:0:
80,212,4301,2,0,P|84:164|112:125,1,97.50000371933
184,132,4742,1,2,0:0:0:0:
236,80,4889,1,0,0:0:0:0:
364,152,5183,5,0,0:0:0:0:
364,152,5330,2,0,L|384:196,1,48.750001859665
440,96,5624,2,0,L|420:52,2,48.750001859665,0|0|2,0:0|0:0|0:0,0:0:0:0:
296,40,6212,1,0,0:0:0:0:
180,96,6507,6,0,L|128:96,1,48.750001859665,2|0,0:0|0:0,0:0:0:0:
72,140,6801,2,0,P|60:184|80:232,1,97.50000371933,0|2,0:0|0:0,0:0:0:0:
128,284,7242,2,0,L|176:284,1,48.750001859665
152,208,7536,1,0,0:0:0:0:
204,152,7683,1,2,0:0:0:0:
232,224,7830,2,0,L|296:264,2,48.750001859665
280,164,8271,6,0,B|328:164|328:164|368:124,1,97.50000371933,2|0,0:0|0:0,0:0:0:0:
496,212,8859,5,2,0:0:0:0:
444,272,9007,2,0,P|396:260|352:276,1,97.50000371933
400,340,9448,1,2,0:0:0:0:
316,344,9595,2,0,P|270:359|224:347,1,97.50000371933
268,276,10036,6,0,L|268:216,1,48.750001859665,2|0,0:0|0:0,0:0:0:0:
196,256,10330,2,0,L|160:220,1,48.750001859665
132,296,10624,2,0,L|80:296,1,48.750001859665,2|0,0:0|0:0,0:0:0:0:
28,240,10918,1,0,0:0:0:0:
100,100,11212,6,0,L|64:136,1,48.750001859665,2|0,0:0|0:0,0:0:0:0:
140,164,11507,2,0,P|184:144|232:148,1,97.50000371933,0|2,0:0|0:0,0:0:0:0:
292,208,11948,2,0,P|248:228|200:224,1,97.50000371933
164,300,12389,6,0,L|210:314,1,48.750001859665,2|0,0:0|0:0,0:0:0:0:
292,312,12683,2,0,L|344:296,1,48.750001859665
324,204,12977,2,0,B|376:192|416:232,2,97.50000371933,2|0|2,0:0|0:0|0:0,0:0:0:0:
304,128,13712,1,0,0:0:0:0:
244,180,13859,2,0,L|192:216,2,48.750001859665,0|0|2,0:0|0:0|0:0,0:0:0:0:
204,112,14301,6,0,P|168:84|116:84,1,97.50000371933
140,156,14742,1,2,0:0:0:0:
45,206,14889,2,0,P|64:216|92:220,1,48.750001859665
120,292,15183,2,0,P|144:280|160:260,1,48.750001859665,0|2,0:0|0:0,0:0:0:0:
288,348,15624,1,0,0:0:0:0:
292,192,15918,5,2,0:0:0:0:
352,140,16065,1,0,0:0:0:0:
280,116,16212,2,0,P|304:80|356:64,1,97.50000371933,0|2,0:0|0:0,0:0:0:0:
420,24,16654,1,0,0:0:0:0:
484,168,16948,1,0,0:0:0:0:
472,244,17095,2,0,L|416:264,2,48.750001859665,2|0|0,0:0|0:0|0:0,0:0:0:0:
316,220,17683,5,0,0:0:0:0:
420,336,17977,1,0,0:0:0:0:
264,356,18271,1,0,0:0:0:0:
212,300,18418,2,0,P|152:276|88:284,1,130
48,216,18859,1,0,0:0:0:0:
88,148,19007,2,0,B|132:104|132:104|132:32,1,130
208,20,19448,1,0,0:0:0:0:
280,44,19595,2,0,L|328:64,2,32.5
264,128,19889,1,0,0:0:0:0:
232,200,20036,2,0,B|264:216|296:204|296:200|296:196|328:184|364:200,1,130
320,164,30036,5,8,0:0:0:0:
256,220,30183,1,0,0:0:0:0:
196,160,30330,2,0,P|244:124|248:56,1,130,4|8,0:3|0:0,0:0:0:0:
168,80,30771,1,0,0:0:0:0:
332,40,31065,2,0,L|396:72,1,65,0|8,0:0|0:0,0:0:0:0:
320,116,31359,2,0,L|332:192,1,65,0|4,0:0|0:3,0:0:0:0:
260,228,31654,1,4,0:3:0:0:
188,272,31801,6,0,B|216:316|268:312|268:312|288:356,2,130,8|4|8,0:0|0:3|0:0,0:0:0:0:
100,252,32536,1,0,0:0:0:0:
92,160,32683,2,0,L|108:96,1,65,4|0,0:3|0:0,0:0:0:0:
208,168,32977,1,8,0:0:0:0:
228,88,33124,2,0,P|264:104|284:132,1,65,0|4,0:0|0:3,0:0:0:0:
364,136,33418,6,0,L|392:72,2,65,0|8|0,0:0|0:0|0:0,0:0:0:0:
404,212,33859,2,0,L|376:276,2,65,4|0|8,0:3|0:0|0:0,0:0:0:0:
320,200,34301,1,0,0:0:0:0:
288,120,34448,1,4,0:3:0:0:
164,232,34742,2,0,P|200:280|200:348,1,130,8|4,0:0|0:3,0:0:0:0:
360,320,35330,1,8,0:0:0:0:
436,272,35477,1,0,0:0:0:0:
400,188,35624,2,0,L|432:124,1,65,4|0,0:3|0:0,0:0:0:0:
316,164,35918,2,0,B|280:108|280:108|212:72,1,130,8|4,0:0|0:3,0:0:0:0:
224,164,36359,6,8,L|224:220,2,32.5
148,128,36654,1,4,0:3:0:0:
68,152,36801,2,0,L|8:196,1,65
56,52,37095,1,0,0:0:0:0:
56,52,37242,2,0,L|116:8,1,65,8|4,0:0|0:3,0:0:0:0:
276,28,37536,1,4,0:3:0:0:
340,100,37683,1,8,0:0:0:0:
256,152,37830,6,4,B|256:216|256:216|308:268,1,130,4|4,0:3|0:3,0:3:0:0:
400,320,38271,1,8,0:0:0:0:
440,224,38418,1,0,0:0:0:0:
440,224,38492,1,0,0:0:0:0:
440,224,38565,1,0,0:0:0:0:
316,312,38712,2,0,L|236:356,1,65
128,356,39007,6,0,B|132:268|208:244|208:244|148:232|132:192,1,243.750009298325
220,156,40036,1,4,0:3:0:0:
220,156,40183,2,0,P|276:136|316:84,1,97.50000371933,4|0,0:3|0:0,0:0:0:0:
315,18,40624,2,0,L|344:128,1,97.50000371933,4|8,0:3|0:0,0:0:0:0:
372,232,41212,1,0,3:0:0:0:
372,232,41359,6,0,B|313:178|231:210|231:210|259:170|241:118,1,243.750009298325,0|4,3:0|3:3,3:0:0:0:
236,36,42389,5,0,0:0:0:0:
236,36,42536,2,0,P|176:59|151:117,1,130,4|0,0:3|0:0,0:0:0:0:
96,180,42977,2,0,P|60:200|40:236,1,65,4|8,0:3|0:0,0:0:0:0:
40,240,43198,1,8,0:0:0:0:
44,264,43271,1,8,0:0:0:0:
156,236,43418,2,8,L|236:244,1,65
268,316,43712,2,4,B|304:264|304:264|296:196,1,130,4|4,0:3|0:3,0:3:0:0:
380,184,44154,2,0,P|348:128|280:112,1,130,8|4,0:0|0:3,0:0:0:0:
224,168,44595,6,0,L|172:116,1,65,4|8,0:3|0:0,0:0:0:0:
136,48,44889,2,4,B|100:100|100:100|108:168,1,130,4|4,0:3|0:3,0:3:0:0:
24,180,45331,2,0,P|52:232|128:248,1,130,8|4,0:0|0:3,0:0:0:0:
200,288,45771,2,0,L|200:216,1,65,4|8,0:3|0:0,0:0:0:0:
256,152,46065,6,4,P|196:132|136:160,1,130,4|4,0:3|0:3,0:3:0:0:
200,223,46507,2,0,P|264:243|328:211,1,130,8|4,0:0|0:3,0:0:0:0:
376,280,46948,1,4,0:3:0:0:
456,248,47095,1,8,0:0:0:0:
492,172,47242,2,0,B|500:124|500:124|456:112|436:72,1,130,4|4,0:3|0:3,0:0:0:0:
348,80,47683,5,8,0:0:0:0:
300,152,47830,2,8,L|332:184,2,32.5
216,156,48124,2,0,L|216:112,1,32.5,8|8,0:0|0:0,0:0:0:0:
176,124,48271,2,0,L|176:80,1,32.5,8|0,0:0|0:0,0:0:0:0:
124,96,48418,2,0,P|64:160|56:232,1,162.5,4|4,0:3|0:3,0:0:0:0:
132,288,48859,2,0,B|156:256|148:208|148:208|212:256,1,162.5,8|4,0:0|0:3,0:0:0:0:
264,348,49301,1,0,0:0:0:0:
364,320,49448,1,8,0:0:0:0:
308,232,49595,2,4,B|240:184|240:184|240:100,1,162.5,4|4,0:3|0:3,0:3:0:0:
340,140,50036,2,0,P|400:200|392:280,1,162.5,8|4,0:0|0:3,0:0:0:0:
308,232,50477,5,0,0:0:0:0:
208,200,50624,1,8,0:0:0:0:
252,104,50771,2,0,P|212:112|172:100,1,81.25,4|0,0:3|0:0,0:0:0:0:
216,16,51065,1,4,0:3:0:0:
112,36,51212,1,8,0:0:0:0:
324,44,51507,1,4,0:3:0:0:
372,136,51654,1,4,0:3:0:0:
300,212,51801,1,8,0:0:0:0:
396,252,51948,2,4,B|364:312|296:316|296:316|320:352,1,162.5,4|4,0:3|0:3,0:3:0:0:
220,300,52389,5,8,0:0:0:0:
420,180,52683,1,4,0:3:0:0:
400,76,52830,1,0,0:0:0:0:
296,56,52977,1,8,0:0:0:0:
304,164,53124,2,4,P|228:188|152:164,1,162.5,4|4,0:3|0:3,0:3:0:0:
168,268,53565,1,8,0:0:0:0:
228,64,53859,2,4,L|312:88,1,81.25,4|4,0:3|0:3,0:3:0:0:
408,52,54154,1,8,0:0:0:0:
428,156,54301,2,4,B|376:208|376:208|344:240|288:220,1,162.5,4|4,0:3|0:3,0:0:0:0:
292,328,54742,2,0,P|220:300|188:224,1,162.5,8|4,0:0|0:3,0:0:0:0:
104,164,55183,6,0,P|80:200|80:240,1,81.25,0|8,0:0|0:0,0:0:0:0:
168,128,55477,2,0,P|192:92|192:52,1,81.25,4|0,0:3|0:0,0:0:0:0:
280,136,55771,1,4,0:3:0:0:
260,28,55918,1,8,0:0:0:0:
368,208,56212,2,0,B|368:328|368:328|332:292,1,162.5,4|8,0:3|0:0,0:0:0:0:
444,276,56654,2,4,B|460:196|460:196|444:112,1,162.5,4|4,0:3|0:3,0:3:0:0:
344,80,57095,5,8,0:0:0:0:
256,136,57242,2,8,L|220:116,2,40.625
272,240,57536,2,0,L|272:296,1,40.625,8|0,0:0|0:0,0:0:0:0:
220,268,57683,2,0,L|220:316,1,40.625,8|0,0:0|0:0,0:0:0:0:
176,240,57830,2,0,P|136:216|112:176,1,81.25,4|0,0:3|0:0,0:0:0:0:
120,92,58124,1,4,0:3:0:0:
216,96,58271,2,0,P|268:144|192:132,1,162.5,8|4,0:0|0:3,0:0:0:0:
256,248,58712,5,0,0:0:0:0:
324,208,58859,1,8,0:0:0:0:
280,328,59007,2,4,P|200:312|172:240,1,162.5,4|4,0:3|0:3,0:3:0:0:
236,168,59448,2,0,B|128:108|128:108|184:88,1,162.5,8|4,0:0|0:3,0:0:0:0:
260,68,59889,1,4,0:3:0:0:
352,40,60036,1,8,0:0:0:0:
436,76,60183,6,0,P|448:120|376:216,1,162.5,4|4,0:3|0:3,0:0:0:0:
348,120,60624,1,8,0:0:0:0:
496,240,60918,1,4,0:3:0:0:
412,288,61065,1,4,0:3:0:0:
328,236,61212,1,8,0:0:0:0:
244,288,61359,2,0,B|188:268|188:268|140:280|140:280|72:256,1,162.5,0|4,0:0|0:3,0:0:0:0:
144,180,61801,1,8,0:0:0:0:
228,128,61948,2,0,P|216:84|228:44,1,81.25,0|4,0:0|0:3,0:0:0:0:
316,88,62242,1,0,0:0:0:0:
284,180,62389,6,0,P|296:224|284:264,1,81.25,8|4,0:0|0:3,0:0:0:0:
132,140,62830,1,4,0:3:0:0:
192,216,62977,2,0,B|176:260|192:296|192:296|120:368,1,162.5,8|4,0:0|0:3,0:0:0:0:
252,352,63418,1,0,0:0:0:0:
268,260,63565,1,8,0:0:0:0:
364,280,63712,6,0,P|396:208|372:128,1,162.5,4|4,0:3|0:3,0:0:0:0:
472,200,64154,1,8,0:0:0:0:
276,200,64448,1,4,0:3:0:0:
224,116,64595,1,4,0:3:0:0:
132,144,64742,1,8,0:0:0:0:
132,240,64889,2,4,B|212:260|212:260|248:336,1,162.5,4|4,0:3|0:3,0:3:0:0:
340,304,65330,2,0,L|300:224,1,81.25,8|4,0:0|0:3,0:0:0:0:
324,136,65624,5,8,0:0:0:0:
236,180,65771,2,0,B|156:160|156:160,1,81.25,0|8,0:0|0:0,0:0:0:0:
80,116,66065,2,4,B|104:76|156:72|156:72|227:92,1,162.5,4|4,0:3|0:3,0:3:0:0:
316,92,66507,1,8,0:0:0:0:
352,176,66654,2,8,L|400:176,2,40.625
296,244,66948,1,8,0:0:0:0:
384,276,67095,2,0,P|324:336|248:324,1,162.5,8|4,0:0|0:3,0:0:0:0:
412,116,76801,6,0,P|384:68|344:48,1,97.50000371933,2|0,0:0|0:0,0:0:0:0:
332,132,77242,1,0,0:0:0:0:
384,200,77389,2,0,L|432:200,1,48.750001859665,2|0,0:0|0:0,0:0:0:0:
360,280,77683,1,2,0:0:0:0:
292,224,77830,2,0,P|256:204|228:152,1,97.50000371933
164,216,78271,1,2,0:0:0:0:
96,192,78418,1,0,0:0:0:0:
76,120,78565,1,0,0:0:0:0:
120,60,78712,1,0,0:0:0:0:
156,136,78859,6,0,P|200:144|240:192,2,97.50000371933,2|0|2,0:0|0:0|0:0,0:0:0:0:
156,224,79595,1,0,0:0:0:0:
204,280,79742,1,0,0:0:0:0:
276,280,79889,1,0,0:0:0:0:
328,228,80036,1,2,0:0:0:0:
244,188,80183,2,0,L|244:80,1,97.50000371933
336,56,80624,2,0,L|380:100,1,48.750001859665,2|0,0:0|0:0,0:0:0:0:
464,88,80918,2,0,L|464:144,1,48.750001859665
476,224,81212,2,0,L|400:300,2,97.50000371933,2|0|2,0:0|0:0|0:0,0:0:0:0:
388,204,81948,6,0,L|320:204,1,48.750001859665
248,144,82242,2,0,L|316:144,1,48.750001859665,0|2,0:0|0:0,0:0:0:0:
260,224,82536,2,0,P|240:272|200:296,1,97.50000371933
176,212,82977,1,2,0:0:0:0:
140,148,83124,1,0,0:0:0:0:
180,88,83271,1,0,0:0:0:0:
252,88,83418,1,0,0:0:0:0:
300,144,83565,6,0,P|352:156|396:144,1,97.50000371933,2|0,0:0|0:0,0:0:0:0:
240,232,84154,1,2,0:0:0:0:
204,152,84301,2,0,P|152:140|108:152,1,97.50000371933
152,228,84742,1,2,0:0:0:0:
280,268,84889,1,0,0:0:0:0:
436,200,85183,5,4,0:0:0:0:
356,108,85330,1,4,0:0:0:0:
368,232,85477,1,4,0:0:0:0:
428,124,85624,1,4,0:0:0:0:
316,176,85771,1,4,0:0:0:0:
124,216,86065,6,0,B|140:300|140:300|216:348,1,162.5,0|4,0:0|0:3,0:0:0:0:
228,244,86507,2,0,L|308:204,1,81.25,8|4,0:0|0:3,0:0:0:0:
196,160,86801,2,8,P|124:128|48:160,1,162.5
96,244,87242,1,4,0:3:0:0:
168,308,87389,1,8,0:0:0:0:
244,248,87536,1,4,0:3:0:0:
320,312,87683,2,0,P|340:276|340:232,1,81.25,8|4,0:0|0:3,0:0:0:0:
436,220,87977,2,8,P|384:152|312:144,1,162.5
224,184,88418,5,4,0:3:0:0:
132,148,88565,2,0,P|96:168|72:204,1,81.25,8|4,0:0|0:3,0:0:0:0:
104,292,88859,1,8,0:0:0:0:
200,316,89007,2,0,L|288:316,1,81.25,4|8,0:3|0:0,0:0:0:0:
360,256,89301,1,4,0:3:0:0:
448,292,89448,2,0,P|456:256|444:208,1,81.25,8|4,0:0|0:3,0:0:0:0:
376,148,89742,2,0,P|366:108|374:69,1,81.25,8|4,0:0|0:3,0:0:0:0:
288,112,90036,1,8,0:0:0:0:
208,164,90183,1,4,0:3:0:0:
204,260,90330,2,0,L|276:320,1,81.25,8|4,0:0|0:3,0:0:0:0:
76,276,90771,6,4,P|76:108|76:108,1,162.5,4|4,0:3|0:3,0:3:0:0:
160,160,91212,2,0,L|160:244,1,81.25,8|4,0:0|0:3,0:0:0:0:
240,184,91507,2,8,P|224:108|144:80,1,162.5
268,44,91948,1,4,0:3:0:0:
352,92,92095,1,8,0:0:0:0:
324,184,92242,1,4,0:3:0:0:
420,200,92389,2,0,P|405:240|360:276,1,81.25,8|4,0:0|0:3,0:0:0:0:
284,296,92683,2,8,B|216:248|216:248|124:248,1,162.5
216,168,93124,5,4,0:3:0:0:
136,112,93271,2,0,P|165:84|203:72,1,81.25,8|4,0:0|0:3,0:0:0:0:
284,128,93565,2,0,P|322:115|351:88,1,81.25,8|4,0:0|0:3,0:0:0:0:
272,32,93859,1,8,0:0:0:0:
388,192,94154,1,8,0:0:0:0:
388,192,94301,2,0,L|316:276,1,81.25,4|8,0:3|0:0,0:0:0:0:
268,184,94595,1,4,0:3:0:0:
180,228,94742,1,8,0:0:0:0:
188,324,94889,1,4,0:3:0:0:
284,344,95036,1,8,0:0:0:0:
436,244,95477,6,0,B|372:164|372:164|368:192|352:208,1,146.250005578995,0|4,0:0|0:3,0:0:0:0:
412,92,96212,2,0,P|360:84|320:100,1,97.50000371933,8|4,0:0|0:3,0:0:0:0:
236,100,96654,2,0,B|244:160|292:176,1,97.50000371933,4|0,0:3|0:0,0:0:0:0:
372,172,97094,2,0,L|336:268,1,97.50000371933,4|8,0:3|0:0,0:0:0:0:
188,264,97682,1,4,0:3:0:0:
148,192,97830,2,0,P|128:132|204:192,1,243.750009298325,0|8,0:0|0:0,0:0:0:0:
256,40,98859,5,0,0:0:0:0:
304,136,99006,2,0,P|300:188|276:228,1,97.50000371933,4|0,0:3|0:0,0:0:0:0:
216,156,99448,1,8,0:0:0:0:
152,220,99595,2,8,L|120:220,2,32.5,8|0|8,0:0|0:0|0:0,0:0:0:0:
216,284,99888,2,0,L|268:336,1,65,0|8,0:0|0:0,0:0:0:0:
284,240,100182,2,0,B|252:168|312:120,1,130
364,196,100624,2,0,P|424:213|456:268,1,130,8|4,0:0|0:3,0:0:0:0:
368,284,101065,6,0,L|300:284,1,65,4|8,0:3|0:0,0:0:0:0:
224,256,101359,2,4,B|240:224|268:212|268:212|268:136,1,130,4|4,0:3|0:3,0:3:0:0:
312,35,101801,2,0,B|296:67|268:79|268:79|268:155,1,130,8|4,0:0|0:3,0:0:0:0:
176,140,102242,2,0,L|108:140,1,65,4|8,0:3|0:0,0:0:0:0:
160,216,102536,2,0,L|108:268,2,65,0|0|4,0:0|0:0|0:3,0:0:0:0:
232,192,102977,2,0,P|296:212|360:180,1,130,8|4,0:0|0:3,0:0:0:0:
288,124,103418,1,0,0:0:0:0:
328,44,103565,1,8,0:0:0:0:
400,100,103712,2,0,B|448:148|448:148|448:220,1,130,4|4,0:3|0:3,0:0:0:0:
380,272,104153,5,8,0:0:0:0:
288,264,104300,2,8,L|264:288,2,32.5
300,172,104594,2,0,L|300:128,1,32.5,8|0,0:0|0:0,0:0:0:0:
280,120,104741,2,0,L|280:80,1,32.5,8|0,0:0|0:0,0:0:0:0:
256,72,104888,2,4,B|180:100|180:100|116:80,1,130,4|4,0:3|0:3,0:3:0:0:
156,172,105329,2,0,B|84:148|84:148|48:180|72:232,1,162.5,8|4,0:0|0:3,0:0:0:0:
136,300,105771,5,0,0:0:0:0:
224,256,105918,1,8,0:0:0:0:
276,340,106065,2,0,P|320:280|304:196,1,162.5,4|4,0:3|0:3,0:0:0:0:
400,180,106507,2,0,P|344:108|264:108,1,162.5,8|4,0:0|0:3,0:0:0:0:
188,64,106948,2,0,P|180:108|192:152,1,81.25,4|8,0:3|0:0,0:0:0:0:
248,220,107242,2,4,B|248:308|248:308|192:364,1,162.5,4|4,0:3|0:3,0:3:0:0:
168,268,107682,1,8,0:0:0:0:
168,268,107977,2,0,P|128:248|104:216,1,81.25,4|0,0:3|0:0,0:0:0:0:
194,172,108271,1,8,0:0:0:0:
196,76,108418,2,4,P|268:112|288:188,1,162.5,4|4,0:3|0:3,0:3:0:0:
312,284,108859,6,0,B|372:268|388:200|388:200|400:224|424:232,1,162.5,8|4,0:0|0:3,0:0:0:0:
464,144,109300,1,0,0:0:0:0:
384,104,109448,1,8,0:0:0:0:
308,152,109595,2,0,B|300:196|300:196|244:232|188:204,1,162.5,4|4,0:3|0:3,0:0:0:0:
236,128,110036,2,0,P|256:96|300:76,1,81.25,8|0,0:0|0:0,0:0:0:0:
188,32,110330,2,0,P|168:64|124:84,1,81.25,4|0,0:3|0:0,0:0:0:0:
68,136,110624,1,8,0:0:0:0:
116,212,110771,2,0,B|176:224|188:288|188:288|144:352,1,162.5,4|4,0:3|0:3,0:0:0:0:
248,348,111212,6,0,B|280:300|280:300|328:332|384:304,1,162.5,8|4,0:0|0:3,0:0:0:0:
332,228,111654,2,0,P|288:212|252:216,1,81.25,0|8,0:0|0:0,0:0:0:0:
216,136,111948,2,0,P|180:168|168:200,1,81.25,4|0,0:3|0:0,0:0:0:0:
80,200,112241,1,4,0:3:0:0:
28,128,112388,1,8,0:0:0:0:
88,296,112683,2,0,P|168:276|244:296,1,162.5,4|8,0:3|0:0,0:0:0:0:
312,236,113124,2,0,B|312:108|312:108|340:136,1,162.5,4|4,0:3|0:3,0:0:0:0:
408,76,113565,5,8,0:0:0:0:
472,156,113712,2,0,L|516:156,2,40.625
444,236,114007,2,0,L|396:236,1,40.625
412,292,114154,2,0,L|356:292,1,40.625
316,252,114301,2,0,L|252:192,2,81.25,4|0|4,0:3|0:0|0:3,0:0:0:0:
360,180,114742,2,0,B|352:152|372:124|372:124|348:84|348:84|368:56|360:20,1,162.5,8|4,0:0|0:3,0:0:0:0:
272,36,115182,1,0,0:0:0:0:
204,96,115329,1,8,0:0:0:0:
116,76,115477,2,0,B|116:136|116:136|160:184|160:184|212:192,1,162.5,4|4,0:3|0:3,0:0:0:0:
200,276,115918,2,0,B|248:272|248:272|284:220|284:220|280:168,1,162.5,8|4,0:0|0:3,0:0:0:0:
368,192,116359,6,0,L|368:280,1,81.25,0|8,0:0|0:0,0:0:0:0:
444,320,116654,2,0,L|444:140,1,162.5,4|4,0:3|0:3,0:0:0:0:
444,157,117095,1,8,0:0:0:0:
264,148,117389,2,0,L|316:76,1,81.25,4|0,0:3|0:0,0:0:0:0:
184,144,117683,1,8,0:0:0:0:
224,212,117830,2,4,B|260:280|260:280|284:320|344:324,1,162.5,4|4,0:3|0:3,0:3:0:0:
340,228,118271,5,8,0:0:0:0:
324,140,118418,1,0,0:0:0:0:
236,132,118565,2,0,P|195:133|160:156,1,81.25,4|0,0:3|0:0,0:0:0:0:
76,180,118859,1,8,0:0:0:0:
76,92,119007,2,4,B|128:32|220:28,1,162.5,4|4,0:3|0:3,0:3:0:0:
308,48,119447,1,8,0:0:0:0:
460,144,119742,2,0,L|368:144,1,81.25,4|0,0:3|0:0,0:0:0:0:
308,196,120035,1,8,0:0:0:0:
240,132,120183,2,4,P|216:204|260:276,1,162.5,4|4,0:3|0:3,0:3:0:0:
325,338,120624,2,0,P|348:262|307:195,1,162.5,8|4,0:0|0:3,0:0:0:0:
376,152,121065,6,0,P|404:184|424:224,1,81.25,0|8,0:0|0:0,0:0:0:0:
468,140,121359,2,4,B|416:76|416:76|328:72,1,162.5,4|4,0:3|0:3,0:3:0:0:
244,120,121800,1,8,0:0:0:0:
260,196,121948,2,0,B|304:184|318:140,1,81.25,4|8,0:3|0:0,0:0:0:0:
268,44,122242,1,0,0:0:0:0:
180,80,122389,1,8,0:0:0:0:
192,176,122536,2,0,B|192:264|192:264|132:324,1,162.5,4|4,0:3|0:3,0:0:0:0:
260,312,122977,1,8,0:0:0:0:
340,248,123124,2,8,L|388:248,2,40.625,8|8|4,0:0|0:0|0:3,0:0:0:0:
272,176,123418,2,4,P|260:132|228:104,1,81.25,4|8,0:3|0:0,0:3:0:0:
360,144,123712,1,4,0:3:0:0:
208,112,132389,6,0,P|268:104|312:128,1,65
368,160,132683,1,0,0:0:0:0:
368,160,132830,2,0,P|404:207|406:258,1,65
364,292,133124,6,0,B|336:284|320:256|320:256|272:264|232:208,1,146.250005578995,2|0,0:0|0:0,0:0:0:0:
120,272,133859,2,0,L|120:223,1,48.750001859665
183,351,134154,1,0,0:0:0:0:
183,351,134301,2,0,P|231:359|275:343,1,97.50000371933,2|0,0:0|0:0,0:0:0:0:
275,342,134742,1,0,0:0:0:0:
252,204,135036,1,0,0:0:0:0:
328,224,135183,2,0,L|388:204,1,48.750001859665
412,140,135477,6,0,P|400:88|364:60,1,97.50000371933,2|0,0:0|0:0,0:0:0:0:
367,61,135918,1,0,0:0:0:0:
256,168,136212,1,0,0:0:0:0:
256,168,136359,2,0,L|316:140,1,48.750001859665
400,216,136654,2,0,P|372:256|324:272,1,97.50000371933,2|0,0:0|0:0,0:0:0:0:
216,268,137095,2,0,P|170:285|143:324,1,97.50000371933
143,323,137536,1,0,0:0:0:0:
272,200,137830,2,0,P|264:148|224:112,1,97.50000371933,2|0,0:0|0:0,0:0:0:0:
160,204,138271,6,0,L|68:144,1,97.50000371933
68,72,138712,1,0,0:0:0:0:
216,124,139007,2,0,P|256:104|280:56,1,97.50000371933,2|0,0:0|0:0,0:0:0:0:
348,96,139448,2,0,L|356:208,1,97.50000371933
308,256,139889,1,0,0:0:0:0:
156,284,140183,2,0,B|144:248|160:216|160:216|128:188|128:144,1,146.250005578995,2|0,0:0|0:0,0:0:0:0:
264,72,140918,2,0,P|248:124|204:156,1,97.50000371933
176,72,141359,2,0,L|304:160,1,146.250005578995,2|0,0:0|0:0,0:0:0:0:
340,304,142095,5,0,0:0:0:0:
220,272,142242,2,0,L|268:272,1,48.750001859665
208,356,142536,2,0,P|164:336|136:288,1,97.50000371933,2|0,0:0|0:0,0:0:0:0:
92,232,142977,1,0,0:0:0:0:
176,100,143271,5,0,0:0:0:0:
296,132,143418,2,0,L|248:132,1,48.750001859665
308,48,143712,2,0,P|352:68|380:116,1,97.50000371933,2|0,0:0|0:0,0:0:0:0:
380,208,144153,1,0,0:0:0:0:
284,312,144448,5,0,0:0:0:0:
284,312,144595,2,0,L|260:376,1,48.750001859665
256,224,144889,2,0,B|272:180|272:180|256:124,1,97.50000371933,2|0,0:0|0:0,0:0:0:0:
180,84,145330,2,0,B|164:128|164:128|180:184,1,97.50000371933
344,156,145771,2,0,P|368:172|392:204,1,48.750001859665
376,284,146065,2,0,P|332:312|284:308,1,97.50000371933,2|0,0:0|0:0,0:0:0:0:
316,236,146507,6,0,B|280:200|280:200|228:200,1,97.50000371933
216,280,146948,2,0,P|188:268|168:252,1,48.750001859665
156,176,147242,2,0,P|184:136|228:120,1,97.50000371933,2|0,0:0|0:0,0:0:0:0:
268,48,147683,1,0,0:0:0:0:
392,220,147977,1,0,0:0:0:0:
392,220,148124,2,0,L|436:192,1,48.750001859665
344,148,148418,2,0,P|312:188|308:240,1,97.50000371933,2|0,0:0|0:0,0:0:0:0:
224,240,148859,2,0,B|172:236|172:236|132:260,1,97.50000371933
92,184,149301,1,0,0:0:0:0:
196,344,149595,6,0,B|296:332|296:332|272:296,1,130
352,240,150036,2,0,B|296:268|260:204|300:144|384:168|384:168|292:148|292:56|292:56,1,325
104,260,151212,2,4,B|195:230|195:230|151:204,1,130,4|4,0:3|0:3,0:3:0:0:
83,156,151727,2,4,B|43:117|43:117|95:84,1,108.333333333333,4|4,0:3|0:3,0:3:0:0:
88,89,152389,6,0,P|140:112|116:44,1,162.5,0|4,0:0|0:3,0:0:0:0:
216,24,152830,2,0,L|276:88,1,81.25,0|8,0:0|0:0,0:0:0:0:
356,116,153124,2,0,B|316:180|248:168|248:168|224:212,1,162.5,0|4,0:0|0:3,0:0:0:0:
144,180,153565,2,0,B|144:236|144:236|172:264|172:264|168:304|208:332,1,162.5,8|4,0:0|0:3,0:0:0:0:
288,280,154007,2,0,L|380:280,1,81.25,4|8,0:3|0:0,0:0:0:0:
448,312,154301,2,4,B|472:280|452:240|448:240|444:240|424:200|448:156,1,162.5,4|4,0:3|0:3,0:3:0:0:
364,204,154742,2,0,L|248:80,1,162.5,8|4,0:0|0:3,0:0:0:0:
252,0,155183,2,0,P|212:8|182:35,1,81.25,0|8,0:0|0:0,0:0:0:0:
188,124,155478,2,4,B|188:192|188:192|204:228|204:228|204:284,1,162.5,4|4,0:3|0:3,0:3:0:0:
244,360,155918,6,0,P|284:368|324:360,1,81.25,8|0,0:0|0:0,0:0:0:0:
388,304,156212,1,4,0:3:0:0:
412,220,156359,2,0,L|328:220,1,81.25,0|8,0:0|0:0,0:0:0:0:
240,228,156654,2,4,B|264:156|264:156|348:124,1,162.5,4|4,0:3|0:3,0:3:0:0:
296,52,157095,1,8,0:0:0:0:
124,80,157389,1,4,0:3:0:0:
100,164,157536,2,0,L|184:164,1,81.25,0|8,0:0|0:0,0:0:0:0:
272,156,157831,2,4,B|248:228|248:228|164:260,1,162.5,4|4,0:3|0:3,0:3:0:0:
216,332,158272,1,8,0:0:0:0:
364,280,158565,5,4,0:3:0:0:
364,280,158712,2,0,L|364:196,1,81.25,0|8,0:0|0:0,0:0:0:0:
324,128,159007,1,4,0:3:0:0:
256,76,159154,1,4,0:3:0:0:
188,128,159301,1,4,0:3:0:0:
256,180,159448,2,0,L|256:264,1,81.25,8|4,0:0|0:3,0:0:0:0:
372,320,159742,2,0,B|320:320|320:320|256:376|188:320|188:320|120:320,1,243.75,0|4,0:0|0:3,0:0:0:0:
104,128,160477,5,4,0:3:0:0:
152,60,160624,1,0,0:0:0:0:
232,84,160771,2,0,L|280:84,2,40.625
188,156,161065,2,0,L|240:156,1,40.625
188,220,161212,2,0,L|236:220,1,40.625
180,288,161359,2,0,P|104:320|36:280,1,162.5,0|4,0:0|0:3,0:0:0:0:
112,228,161801,6,8,L|112:60,1,162.5
184,44,162242,1,4,0:3:0:0:
256,96,162389,2,0,P|244:136|256:176,1,81.25,8|4,0:0|0:3,0:0:0:0:
332,212,162683,2,0,P|344:172|332:132,1,81.25,8|4,0:0|0:3,0:0:0:0:
260,248,162977,6,8,P|208:300|120:296,1,162.5
168,204,163418,1,4,0:3:0:0:
88,160,163565,2,0,P|112:128|152:112,1,81.25,8|4,0:0|0:3,0:0:0:0:
236,152,163859,2,8,B|332:88|332:88|316:132,1,162.5
392,180,164301,2,0,P|368:212|324:224,1,81.25,4|8,0:3|0:0,0:0:0:0:
196,344,164742,1,8,0:0:0:0:
276,308,164889,2,4,P|236:260|256:156,1,162.5,4|4,0:3|0:3,0:3:0:0:
164,176,165330,5,4,0:3:0:0:
128,100,165477,2,8,L|84:100,2,40.625,8|8|4,0:0|0:0|0:3,0:0:0:0:
172,28,165771,2,4,P|240:60|320:32,2,162.5,4|4|4,0:3|0:3|0:3,0:3:0:0:
200,132,166507,2,0,L|244:204,1,81.25,8|0,0:0|0:0,0:0:0:0:
332,148,166801,1,4,0:3:0:0:
328,252,166948,2,0,P|300:288|268:300,1,81.25,0|8,0:0|0:0,0:0:0:0:
256,376,167242,2,0,P|216:360|192:324,2,81.25,4|0|4,0:3|0:0|0:3,0:0:0:0:
344,344,167683,2,8,B|408:284|408:284|416:208,1,162.5,8|4,0:0|0:3,0:0:0:0:
408,108,168124,2,0,B|344:168|344:168|336:244,1,162.5,0|4,0:0|0:3,0:0:0:0:
324,68,168712,5,8,0:0:0:0:
324,68,168859,2,0,L|248:112,1,81.25,8|0,0:0|0:0,0:0:0:0:
176,156,169154,1,8,0:0:0:0:
176,156,169301,2,0,L|252:200,1,81.25,8|0,0:0|0:0,0:0:0:0:
308,260,169595,2,4,B|232:284|232:284|148:264,1,162.5,4|4,0:3|0:3,0:3:0:0:
64,236,170036,1,4,0:3:0:0:
104,160,170183,1,8,0:0:0:0:
124,144,170257,1,8,0:0:0:0:
144,128,170330,2,8,P|160:92|152:48,2,81.25
304,188,170918,6,4,B|335:140|335:140|312:112|312:64,2,130,4|4|4,0:3|0:3|0:3,0:3:0:0:
232,144,171654,1,4,0:3:0:0:
164,192,171801,1,8,0:0:0:0:
188,272,171948,2,0,B|228:328|228:328|288:344,1,130,4|0,0:3|0:0,0:0:0:0:
287,343,172389,1,8,0:0:0:0:
428,248,172683,1,4,0:3:0:0:
428,248,172830,1,4,0:3:0:0:
356,300,172977,2,0,P|340:244|372:180,2,130,8|0|8,0:0|0:0|0:0,0:0:0:0:
268,156,173859,5,4,0:3:0:0:
192,116,174007,1,4,0:3:0:0:
120,160,174154,1,8,0:0:0:0:
132,244,174301,2,0,L|232:356,1,130,0|4,0:0|0:3,0:0:0:0:
296,308,174742,1,8,0:0:0:0:
384,344,174889,1,0,0:0:0:0:
384,344,174962,1,0,0:0:0:0:
384,344,175036,1,4,0:3:0:0:
396,260,175183,1,4,0:3:0:0:
464,208,175330,6,0,B|456:148|456:148|440:116|400:108,1,130,8|4,0:0|0:3,0:0:0:0:
256,24,175918,1,8,0:0:0:0:
308,92,176065,2,0,P|308:128|320:156,1,65
248,224,176359,2,0,P|248:188|236:160,1,65,0|8,0:0|0:0,0:0:0:0:
164,208,176654,2,0,B|100:192|100:192|72:128,1,130,0|4,0:0|0:3,0:0:0:0:
160,128,177095,2,4,B|176:80|232:76|232:76|212:48,1,130,4|4,0:3|0:3,0:3:0:0:
232,156,177536,1,4,0:3:0:0:
316,164,177683,2,0,P|284:224|224:240,2,130,8|0|8,0:0|0:0|0:0,0:0:0:0:
268,328,178565,5,4,0:3:0:0:
352,312,178712,2,4,L|408:368,1,65,4|8,0:3|0:0,0:3:0:0:
428,280,179007,2,0,B|380:232|380:232|368:172,1,130,0|4,0:0|0:3,0:0:0:0:
292,136,179448,1,8,0:0:0:0:
316,56,179595,1,0,0:0:0:0:
316,56,179668,1,0,0:0:0:0:
316,56,179742,2,8,P|352:72|392:72,2,65
224,60,180183,1,8,0:0:0:0:
176,136,180330,1,4,0:3:0:0:
300,268,180624,5,8,0:0:0:0:
208,272,180771,1,0,0:0:0:0:
132,324,180918,2,0,B|108:300|108:300|108:244|108:244|136:216,1,130,4|8,0:3|0:0,0:0:0:0:
33,158,181359,2,4,B|105:166|105:166|145:230,1,130,4|4,0:3|0:3,0:3:0:0:
226,140,181801,2,0,B|202:196|202:196|131:215,1,130,8|4,0:0|0:3,0:0:0:0:
200,280,182242,1,4,0:3:0:0:
276,228,182389,6,0,B|300:164|300:164|312:128|288:92,2,130,8|4|8,0:0|0:3|0:0,0:0:0:0:
344,288,183124,1,0,0:0:0:0:
428,248,183271,1,4,0:3:0:0:
468,168,183418,2,0,P|432:160|400:164,1,65,4|8,0:3|0:0,0:0:0:0:
436,80,183712,2,4,B|376:44|376:44|304:44,1,130,4|4,0:3|0:3,0:3:0:0:
232,84,184154,2,0,L|284:136,1,65,8|0,0:0|0:0,0:0:0:0:
228,204,184448,2,4,L|308:204,1,65,4|4,0:3|0:3,0:3:0:0:
308,292,184742,2,0,L|360:240,1,65,8|0,0:0|0:0,0:0:0:0:
428,296,185036,2,0,L|428:220,1,65,4|0,0:3|0:0,0:0:0:0:
368,164,185330,5,8,0:0:0:0:
400,80,185477,1,0,0:0:0:0:
324,32,185624,2,0,P|264:56|204:32,1,130,4|8,0:3|0:0,0:0:0:0:
144,144,186065,2,0,P|204:120|264:144,1,130,0|4,0:0|0:3,0:0:0:0:
204,212,186507,2,0,L|204:348,1,130,8|4,0:0|0:3,0:0:0:0:
204,342,186948,1,4,0:3:0:0:
104,284,187095,6,0,B|44:256|44:256|28:188,1,130,8|4,0:0|0:3,0:0:0:0:
196,120,187683,1,8,0:0:0:0:
124,68,187830,1,4,0:3:0:0:
272,176,188124,2,0,P|252:200|216:212,1,65,4|8,0:3|0:0,0:0:0:0:
136,180,188418,2,4,P|132:248|172:292,1,130,4|4,0:3|0:3,0:3:0:0:
252,332,188859,1,8,0:0:0:0:
344,296,189007,1,8,0:0:0:0:
344,296,189080,1,8,0:0:0:0:
344,296,189154,1,8,0:0:0:0:
256,188,189301,1,8,0:0:0:0:
