osu file format v14

[General]
AudioFilename: ttbaudio.mp3
AudioLeadIn: 0
PreviewTime: 104886
Countdown: 0
SampleSet: Soft
StackLeniency: 0.5
Mode: 0
LetterboxInBreaks: 1
WidescreenStoryboard: 1

[Editor]
Bookmarks: 541,20330,29742,55840,67095,75693,101905,113108,131012,133856,143611,164356,167886
DistanceSpacing: 1
BeatDivisor: 2
GridSize: 4
TimelineZoom: 1

[Metadata]
Title:Tokyo Teddy Bear
TitleUnicode:東京テディベア
Artist:ZjKjKun
ArtistUnicode:ZjKjKun
Creator:WelkinTheWolf
Version:Dracro's Easy
Source:
Tags:furry utau teddy bear tokyo Kemonone Rou vocaloids furloids Nviek5 Sky DubFoxx Neru Renia Xenophere Shiroi Hiroshi Sauziteoi HitCoder KittyAdventure Dab9 Dracrosinos
BeatmapID:991297
BeatmapSetID:362268

[Difficulty]
HPDrainRate:2
CircleSize:3
OverallDifficulty:2
ApproachRate:3
SliderMultiplier:1
SliderTickRate:1

[Events]
//Background and Video events
Video,0,"tokyoteddybear.avi"
0,0,"New BG.png",0,0
//Break Periods
2,20330,28565
2,67295,75655
2,123912,131684
2,170824,179184
//Storyboard Layer 0 (Background)
//Storyboard Layer 1 (Fail)
//Storyboard Layer 2 (Pass)
//Storyboard Layer 3 (Foreground)
//Storyboard Sound Samples

[TimingPoints]
1507,294.117647058824,4,2,3,60,1,0
17683,-100,4,1,3,60,0,0
48418,-100,4,1,3,70,0,1
55477,-100,4,1,3,90,0,1
56800,-100,4,1,3,70,0,1
67095,-100,4,1,3,60,0,0
77095,-100,4,2,3,60,0,0
86065,-100,4,1,3,70,0,1
95330,-100,4,1,3,60,0,0
104889,-100,4,1,3,70,0,1
111948,-100,4,1,3,90,0,1
113271,-100,4,1,3,70,0,1
123859,-100,4,1,3,60,0,0
133124,-100,4,2,3,60,0,0
151212,-100,4,2,3,90,0,0
152389,-100,4,1,3,70,0,1
159007,-100,4,1,3,90,0,1
160330,-100,4,1,3,70,0,1
170918,-100,4,1,3,50,0,0

[Colours]
Combo1 : 255,0,0
Combo2 : 255,255,0
Combo3 : 0,255,0
Combo4 : 255,0,255
Combo5 : 15,97,234

[HitObjects]
52,80,1801,6,0,P|99:98|132:136,1,100
221,180,2389,2,0,P|144:236|56:201,2,200
132,136,3859,2,0,P|164:100|216:84,1,100
244,88,4301,2,0,P|360:68|280:160,1,300
268,192,5330,2,0,L|268:244,4,50
440,292,6507,6,0,B|348:332|348:332|232:324,2,200
244,244,8271,5,0,0:0:0:0:
148,268,8565,1,0,0:0:0:0:
68,208,8859,2,0,L|68:148,1,50
136,64,9301,2,0,P|214:65|214:65,2,50
192,148,9889,2,0,L|256:148,5,50
328,236,10918,1,0,0:0:0:0:
456,345,11212,6,0,P|429:338|351:348,1,100
260,369,11801,2,0,P|183:316|262:282,1,200
447,300,12977,5,0,0:0:0:0:
398,212,13271,1,0,0:0:0:0:
316,156,13565,2,0,L|272:116,1,50
280,240,14007,2,0,L|324:280,1,50
346,298,14301,2,0,P|294:347|132:319,1,250
292,65,15918,6,0,P|289:114|315:156,1,100
410,187,16507,2,0,P|413:138|387:96,2,100
250,307,17683,5,0,0:0:0:0:
184,231,17977,2,0,P|129:239|26:268,2,150
282,212,19154,2,0,P|312:167|357:145,1,100
375,242,19742,2,0,L|460:298,1,100
99,60,30036,6,0,P|110:108|113:158,1,100
41,228,30624,2,0,P|40:278|53:346,1,100
130,271,31212,2,0,P|174:277|227:258,2,100
168,178,32095,6,0,P|161:115|199:27,1,150
255,171,32977,2,0,B|237:133|244:96|273:70|273:70|364:96|372:188|336:228,1,300
57,327,34742,6,0,P|42:274|55:214,1,100
93,140,35330,2,0,P|131:105|191:94,1,100
176,192,35918,2,0,P|212:228|255:260,1,100
338,307,36507,1,0,0:0:0:0:
390,221,36801,2,0,B|416:188|412:140|412:140|448:124|480:144,2,150
305,168,37830,2,0,B|266:119|179:85|179:85|138:116|122:163,1,250,0|4,0:0|0:0,0:0:0:0:
198,292,39007,6,0,P|283:335|437:226,1,300
444,132,40183,2,0,P|436:64|360:12,1,150
348,108,40918,1,0,0:0:0:0:
248,216,41359,2,0,P|128:200|52:300,1,250
170,310,42536,2,0,P|258:336|354:352,1,150
400,295,43271,5,0,0:0:0:0:
460,157,43712,2,0,P|452:96|380:44,1,150
288,68,44448,1,0,0:0:0:0:
320,216,44889,2,0,B|250:319|250:319|241:294,2,150,0|0|8,0:0|0:0|0:0,0:0:0:0:
287,131,46065,2,8,B|357:24|357:24|367:67,1,150
393,140,46801,2,8,B|398:161|398:161|468:54,1,150,8|12,0:0|0:0,0:0:0:0:
95,308,48418,6,0,B|141:123|141:123|206:96,1,250,0|8,0:0|0:0,0:0:0:0:
245,242,49595,2,0,B|306:291|306:291|475:245,1,250,0|8,0:0|0:0,0:0:0:0:
481,97,50771,2,0,B|482:80|463:47|424:36|397:45|397:45|266:93,1,250,0|8,0:0|0:0,0:0:0:0:
134,164,51948,1,12,0:0:0:0:
23,265,52389,2,0,P|61:308|149:316,1,150
241,285,53124,6,0,B|298:209|398:238|398:238|441:217|453:192,1,250,0|8,0:0|0:0,0:0:0:0:
309,150,54301,2,0,B|276:153|232:176|232:176|207:165|179:147|179:147|134:159|108:195|110:226,1,250,0|8,0:0|0:0,0:0:0:0:
241,285,55477,6,8,B|322:333|421:345|421:345|386:292,1,250
299,174,56654,1,12,0:0:0:0:
389,54,57095,2,0,P|439:103|445:180,1,150
351,147,57830,6,0,B|269:148|206:197|206:197|149:202|115:170,1,250,0|8,0:0|0:0,0:0:0:0:
222,281,59007,2,0,B|241:276|241:276|285:237|331:230|331:230|382:275|459:255,1,250,0|8,0:0|0:0,0:0:0:0:
425,109,60183,2,0,B|389:131|351:146|351:146|276:142|197:203,1,250,0|8,0:0|0:0,0:0:0:0:
89,306,61359,1,12,0:0:0:0:
75,156,61801,2,0,P|133:100|200:82,1,150
298,78,62536,6,0,P|372:110|399:174,1,150
298,180,63271,1,8,0:0:0:0:
169,257,63712,2,0,P|94:286|29:260,1,150
98,187,64448,2,0,B|134:172|144:128|144:128|175:94|219:93,1,150,8|12,0:0|0:0,0:0:0:0:
256,192,65330,12,4,67095,2:1:0:0:
84,154,77095,6,0,P|90:104|123:58,1,100
181,139,77683,2,0,P|211:98|262:75,1,100
273,175,78271,2,0,P|319:155|375:160,1,100
334,252,78859,1,0,0:0:0:0:
233,252,79154,2,0,P|179:259|114:187,1,150
61,55,80036,2,0,P|195:42|197:175,1,300
435,358,81801,6,0,P|479:334|510:287,1,100
414,262,82389,2,0,P|440:219|444:162,1,100
348,189,82977,2,0,P|349:138|324:88,1,100
254,159,83565,2,0,P|230:114|183:83,2,100
276,256,84448,1,0,0:0:0:0:
201,323,84742,2,0,P|108:302|58:124,1,300,0|4,0:0|0:1,0:0:0:0:
187,48,86065,6,0,P|263:33|345:41,1,150
418,94,86801,2,0,B|460:131|502:189|502:189|502:148,2,150,8|0|0,0:0|0:0|0:0,0:0:0:0:
327,138,87977,1,8,0:0:0:0:
206,227,88418,6,0,B|152:265|96:290|96:290|103:261,1,150
128,171,89154,2,0,B|221:80|221:80|189:78,2,150,8|0|0,0:0|0:0|0:0,0:0:0:0:
33,202,90330,1,12,0:0:0:0:
156,286,90771,6,0,P|233:278|309:289,1,150
399,319,91507,2,0,B|443:335|494:374|494:374|479:330,2,150,8|0|0,0:0|0:0|0:0,0:0:0:0:
379,221,92683,1,8,0:0:0:0:
276,111,93124,6,0,B|155:86|155:86|168:115,1,150
217,195,93859,2,0,P|239:274|208:332,2,150,8|0|0,0:0|0:0|0:0,0:0:0:0:
140,259,95036,1,12,0:0:0:0:
28,158,95477,6,0,P|80:46|217:49,1,250
228,130,96507,2,0,B|201:192|117:235|117:235|126:279|155:324|229:333,1,300
362,340,97830,2,0,P|453:286|485:152,1,250
338,190,99007,2,0,P|299:122|228:93,1,150
137,75,99742,5,0,0:0:0:0:
176,220,100183,2,0,P|152:284|84:308,1,100
68,268,100624,2,0,P|92:204|160:180,1,100
260,144,101359,2,0,B|282:70|318:29|318:29|320:50,2,150,0|0|8,0:0|0:0|0:0,0:0:0:0:
257,245,102536,2,8,B|314:270|362:316|362:316|363:285,1,150
355,193,103271,2,8,B|355:170|355:170|403:216|460:241,1,150,8|12,0:0|0:0,0:0:0:0:
69,152,104889,6,0,B|101:92|101:92|164:28|285:68,1,250,0|8,0:0|0:0,0:0:0:0:
204,188,106065,2,0,B|189:257|189:257|216:313|266:315|307:302|348:257,1,250,0|8,0:0|0:0,0:0:0:0:
476,224,107242,2,0,B|433:179|471:135|471:135|478:77|456:51|414:40|383:51,1,250,0|8,0:0|0:0,0:0:0:0:
249,162,108418,1,8,0:0:0:0:
141,48,108859,2,0,P|102:110|96:187,1,150
132,278,109595,6,0,B|162:329|186:340|241:337|241:337|273:301|273:301|302:290|331:292|352:307,1,250,0|8,0:0|0:0,0:0:0:0:
485,335,110771,2,0,B|499:306|486:270|486:270|449:237|448:194|448:194|470:159|472:133|470:102,1,250,0|8,0:0|0:0,0:0:0:0:
318,113,111948,6,8,P|211:68|92:134,1,250
214,213,113124,1,12,0:0:0:0:
295,338,113565,2,0,B|340:358|340:358|400:350|413:287,1,150
445,201,114301,6,0,B|436:123|436:123|378:46|280:79,1,250,0|8,0:0|0:0,0:0:0:0:
139,120,115477,2,0,B|92:120|63:153|63:153|88:196|69:242|69:242|112:256|127:295,1,250,0|8,0:0|0:0,0:0:0:0:
251,371,116654,2,0,B|308:358|346:342|356:302|356:302|319:262|342:190,1,250,0|8,0:0|0:0,0:0:0:0:
376,45,117830,1,8,0:0:0:0:
226,31,118271,2,0,B|152:50|115:76|115:76|100:106,1,150
78,200,119007,6,0,B|65:256|36:318|36:318|66:306,1,150
148,264,119742,1,8,0:0:0:0:
282,197,120183,2,0,B|340:188|360:124|360:124|308:128,1,150
232,112,120918,2,0,B|195:114|195:114|215:50|273:41,1,150,8|0,0:0|0:0,0:0:0:0:
256,192,121801,12,4,123712,2:1:0:0:
265,76,133124,6,0,P|393:108|432:211,1,250
364,343,134301,2,0,B|288:299|288:299|256:340|184:352|140:280,1,250
264,196,135477,2,0,P|288:134|360:99,1,150
364,200,136212,2,0,B|413:224|413:224|480:320,2,150
284,260,137389,5,0,0:0:0:0:
112,204,137830,2,0,P|217:142|335:172,1,250
464,244,139007,2,0,P|476:162|378:36,1,250
211,25,140183,6,2,B|176:80|212:136|228:136|244:136|272:192|232:256,1,250
236,360,141359,2,0,P|304:332|332:244,1,150
432,280,142095,5,0,0:0:0:0:
458,134,142536,2,0,B|392:92|336:124|336:132|336:140|280:168|220:124,1,250
82,200,143712,2,0,B|97:267|138:280|138:280|203:262|247:268|283:303,1,250
375,274,144889,2,0,P|409:224|400:130,1,150
350,53,145624,2,0,B|279:34|279:34|203:50,1,150
61,96,146507,6,0,B|69:152|69:152|94:183|94:183|103:239,1,150
151,322,147242,2,0,B|192:326|211:341|211:341|236:318|236:318|257:336|288:326|288:326|325:323|394:331,1,250
507,243,148418,2,0,B|490:211|480:189|480:189|445:184|430:158|430:158|376:171|343:159|312:117,1,250
188,41,149595,2,0,P|101:31|209:188,1,450,0|4,0:0|0:1,0:0:0:0:
277,116,151212,5,8,0:1:0:0:
361,61,151507,2,8,P|398:45|444:45,2,75,8|8|8,0:1|0:1|0:1,0:1:0:0:
381,209,152389,6,0,B|375:287|375:287|340:338|340:338|329:331,1,150,8|0,0:0|0:0,0:0:0:0:
246,280,153124,2,0,B|209:235|209:235|139:210|121:129|121:129|167:98,1,250,0|8,0:0|0:0,0:0:0:0:
290,27,154301,2,0,B|335:46|346:82|346:82|367:101|404:108|433:96|433:96|470:127|462:170,1,250,0|8,0:0|0:0,0:0:0:0:
437,310,155477,1,8,0:0:0:0:
287,317,155918,2,0,P|221:309|192:291,1,100
76,198,156654,6,0,B|61:150|80:113|115:97|115:97|151:115|174:116|210:103|210:103|251:103,1,250,0|8,0:0|0:0,0:0:0:0:
391,103,157830,2,0,B|431:136|429:179|411:208|411:208|407:234|423:263|423:263|408:309|408:309|379:321,1,250,0|8,0:0|0:0,0:0:0:0:
234,340,159007,5,8,0:0:0:0:
36,188,159742,2,8,P|84:112|168:76,1,150
163,208,160624,2,0,B|184:249|184:249|292:249,1,150
387,250,161359,6,0,B|409:250|409:250|409:166|376:126,1,150
295,70,162095,1,8,0:0:0:0:
145,70,162536,2,0,P|87:116|74:187,1,150
88,286,163271,1,8,0:0:0:0:
237,286,163712,2,0,B|268:266|268:266|317:273|344:266|344:266|377:242,1,150,0|8,0:0|0:0,0:0:0:0:
443,172,164448,2,0,P|416:128|322:84,1,150,0|8,0:0|0:0,0:0:0:0:
183,53,165330,6,0,B|143:47|143:47|93:83|93:143,1,150
93,239,166065,2,0,P|214:277|335:232,1,250,0|8,0:0|0:0,0:0:0:0:
447,149,167242,2,0,B|426:88|426:88|344:47,1,150
249,43,167977,2,8,B|186:53|186:53|166:64|166:64|104:75,1,150,8|12,0:0|0:0,0:0:0:0:
256,192,168859,12,4,170624,2:1:0:0:
109,140,180624,6,0,B|100:94|61:53,2,100,8|0|8,0:0|0:0|0:0,0:0:0:0:
125,238,181507,1,0,0:0:0:0:
176,322,181801,2,0,B|216:293|222:262|222:235|222:235|243:203|274:185|308:194,1,200,8|8,0:0|0:0,0:0:0:0:
403,193,182683,2,0,B|412:151|412:151|409:104|382:72|382:72|347:61,1,150,8|0,0:0|0:0,0:0:0:0:
262,58,183418,1,8,0:0:0:0:
161,65,183712,2,0,B|165:114|195:143|225:155|247:158|247:158|259:207|243:238|200:264,1,250,8|12,0:0|0:0,0:0:0:0:
495,352,185330,6,0,B|484:267|484:267|475:279,1,100,8|0,0:0|0:0,0:0:0:0:
418,196,185918,2,0,B|409:208|409:208|398:123,1,100,8|0,0:0|0:0,0:0:0:0:
384,24,186507,1,8,0:0:0:0:
198,99,187095,5,8,0:0:0:0:
123,166,187389,2,0,P|74:225|56:274,2,125,8|0|8,0:0|0:0|0:0,0:0:0:0:
219,198,188418,2,8,P|333:183|264:137,1,250,8|4,0:0|0:0,0:0:0:0:
