osu file format v14

[General]
AudioFilename: audio.mp3
AudioLeadIn: 0
PreviewTime: 54470
Countdown: 0
SampleSet: Normal
StackLeniency: 0.3
Mode: 0
LetterboxInBreaks: 0
WidescreenStoryboard: 1

[Editor]
Bookmarks: 68587
DistanceSpacing: 0.1
BeatDivisor: 8
GridSize: 4
TimelineZoom: 1.8

[Metadata]
Title:Kaen (TV size)
TitleUnicode:Kaen (TV size)
Artist:Ziyoou-vachi
ArtistUnicode:Ziyoou-vachi
Creator:MaddaFakka-sama
Version:xd
Source:
Tags:
BeatmapID:1975025
BeatmapSetID:945847

[Difficulty]
HPDrainRate:6
CircleSize:4
OverallDifficulty:8
ApproachRate:9.3
SliderMultiplier:2
SliderTickRate:1

[Events]
//Background and Video events
0,0,"cropped-1366-768-983754.png",0,0
//Break Periods
//Storyboard Layer 0 (Background)
//Storyboard Layer 1 (Fail)
//Storyboard Layer 2 (Pass)
//Storyboard Layer 3 (Foreground)
//Storyboard Sound Samples

[TimingPoints]
830,352.941176470588,4,1,0,25,1,0
830,-142.857142857143,4,1,0,25,0,0
22712,-142.857142857143,4,1,0,40,0,0
33653,-117.647058823529,4,1,0,40,0,0
34712,-117.647058823529,4,1,0,50,0,0
46006,-117.647058823529,4,1,0,55,0,0
51653,-117.647058823529,4,1,0,60,0,0
55888,-250,4,1,0,40,0,0
57300,-100,4,1,0,80,0,1
74241,-100,4,1,0,70,0,0
77065,-100,4,1,0,80,0,1
86947,-142.857142857143,4,1,0,50,0,0

[HitObjects]
52,174,830,6,0,P|92:183|136:180,1,69.9999978637696,0|0,0:0|0:0,0:0:0:0:
267,75,1182,2,0,P|227:66|183:69,1,69.9999978637696,0|0,0:0|0:0,0:0:0:0:
251,212,1535,2,0,P|268:132|261:45,1,139.999995727539,0|0,0:0|0:0,0:0:0:0:
79,179,5771,2,0,L|160:186,1,69.9999978637696,0|0,0:0|0:0,0:0:0:0:
224,236,6124,1,0,0:0:0:0:
275,310,6300,1,0,0:0:0:0:
313,228,6477,6,0,P|306:187|274:143,1,69.9999978637696,0|0,0:0|0:0,0:0:0:0:
289,326,6829,2,0,P|330:326|379:302,1,69.9999978637696,0|0,0:0|0:0,0:0:0:0:
278,146,7182,2,0,P|236:145|187:169,1,69.9999978637696,0|0,0:0|0:0,0:0:0:0:
373,303,7535,2,0,P|396:239|386:153,1,139.999995727539,0|0,0:0|0:0,0:0:0:0:
103,92,11418,2,0,L|184:99,1,69.9999978637696,0|0,0:0|0:0,0:0:0:0:
248,149,11771,1,0,0:0:0:0:
299,223,11947,1,0,0:0:0:0:
209,231,12124,6,0,P|162:236|126:226,1,69.9999978637696,0|0,0:0|0:0,0:0:0:0:
77,165,12477,1,0,0:0:0:0:
51,253,12653,1,0,0:0:0:0:
53,266,12741,1,0,0:0:0:0:
55,279,12829,1,0,0:0:0:0:
57,292,12918,1,0,0:0:0:0:
59,305,13006,1,0,0:0:0:0:
209,231,13182,1,0,0:0:0:0:
345,258,13359,1,0,0:0:0:0:
345,258,13447,1,0,0:0:0:0:
345,258,13535,6,0,P|333:299|307:329,1,69.9999978637696,0|0,0:0|0:0,0:0:0:0:
421,189,13888,1,0,0:0:0:0:
281,151,14065,1,0,0:0:0:0:
267,151,14153,1,0,0:0:0:0:
253,151,14241,1,0,0:0:0:0:
239,153,14329,1,0,0:0:0:0:
224,157,14418,1,0,0:0:0:0:
374,83,14594,1,0,0:0:0:0:
250,22,14771,1,0,0:0:0:0:
250,22,14859,1,0,0:0:0:0:
250,22,14947,6,0,P|215:19|181:29,1,69.9999978637696,0|0,0:0|0:0,0:0:0:0:
105,146,15300,1,0,0:0:0:0:
166,296,15477,1,0,0:0:0:0:
171,282,15565,1,0,0:0:0:0:
165,268,15653,1,0,0:0:0:0:
174,258,15741,1,0,0:0:0:0:
165,246,15829,1,0,0:0:0:0:
281,151,16006,1,0,0:0:0:0:
129,82,16182,1,0,0:0:0:0:
129,82,16271,1,0,0:0:0:0:
129,82,16359,6,0,P|122:116|104:145,1,69.9999978637696,0|0,0:0|0:0,0:0:0:0:
17,229,16711,1,0,0:0:0:0:
165,246,16888,1,0,0:0:0:0:
165,246,16976,1,0,0:0:0:0:
165,246,17065,2,0,L|238:239,1,69.9999978637696,0|0,0:0|0:0,0:0:0:0:
337,151,17418,2,0,L|263:144,1,69.9999978637696,0|0,0:0|0:0,0:0:0:0:
164,65,17771,5,0,0:0:0:0:
175,52,17947,1,0,0:0:0:0:
175,52,18300,1,0,0:0:0:0:
124,144,18477,1,0,0:0:0:0:
156,243,18653,1,0,0:0:0:0:
252,290,18829,1,0,0:0:0:0:
435,216,19006,1,0,0:0:0:0:
435,216,19094,1,0,0:0:0:0:
435,216,19182,6,0,P|415:244|387:264,1,69.9999978637696,0|0,0:0|0:0,0:0:0:0:
291,165,19535,1,0,0:0:0:0:
406,38,19712,1,0,0:0:0:0:
419,49,19800,1,0,0:0:0:0:
431,61,19888,1,0,0:0:0:0:
437,76,19977,1,0,0:0:0:0:
441,93,20065,1,0,0:0:0:0:
271,156,20241,1,0,0:0:0:0:
308,65,20418,1,0,0:0:0:0:
308,247,20594,6,0,P|274:261|229:267,1,69.9999978637696,0|0,0:0|0:0,0:0:0:0:
165,191,20947,2,0,P|134:195|83:190,1,69.9999978637696,0|0,0:0|0:0,0:0:0:0:
30,56,21300,2,0,P|83:99|151:112,1,139.999995727539,0|0,0:0|0:0,0:0:0:0:
274,29,21829,1,0,0:0:0:0:
274,29,21918,1,0,0:0:0:0:
274,29,22006,5,0,0:0:0:0:
340,117,22182,1,0,0:0:0:0:
274,205,22359,2,0,L|366:214,1,69.9999978637696,0|0,0:0|0:0,0:0:0:0:
421,99,22712,2,0,L|328:108,1,69.9999978637696,0|0,0:0|0:0,0:0:0:0:
256,225,23065,2,0,L|348:234,1,69.9999978637696,0|0,0:0|0:0,0:0:0:0:
412,80,23418,6,0,P|342:72|276:93,1,139.999995727539,0|0,0:0|0:0,0:0:0:0:
116,211,23947,2,0,L|208:220,1,69.9999978637696,0|0,0:0|0:0,0:0:0:0:
325,231,24300,1,0,0:0:0:0:
257,327,24477,1,0,0:0:0:0:
336,217,24653,2,0,L|349:182,1,34.9999989318848,0|0,0:0|0:0,0:0:0:0:
207,220,24829,5,0,0:0:0:0:
375,338,25006,1,0,0:0:0:0:
494,171,25182,1,0,0:0:0:0:
328,52,25359,2,0,L|360:39,1,34.9999989318848,0|0,0:0|0:0,0:0:0:0:
288,123,25535,1,0,0:0:0:0:
135,53,25712,1,0,0:0:0:0:
144,210,25888,1,0,0:0:0:0:
297,140,26065,1,0,0:0:0:0:
55,189,26241,6,0,L|125:194,1,69.9999978637696,0|0,0:0|0:0,0:0:0:0:
233,73,26594,1,0,0:0:0:0:
246,222,26771,1,0,0:0:0:0:
52,174,26947,6,0,L|110:213,1,69.9999978637696,0|0,0:0|0:0,0:0:0:0:
264,162,27300,1,0,0:0:0:0:
200,298,27477,1,0,0:0:0:0:
350,286,27653,6,0,L|438:277,2,69.9999978637696,0|0|0,0:0|0:0|0:0,0:0:0:0:
186,313,28182,1,0,0:0:0:0:
284,177,28359,1,0,0:0:0:0:
182,100,28535,1,0,0:0:0:0:
303,183,28712,1,0,0:0:0:0:
163,94,28888,1,0,0:0:0:0:
158,250,29065,6,0,P|165:283|185:312,1,69.9999978637696,0|0,0:0|0:0,0:0:0:0:
205,172,29418,1,0,0:0:0:0:
71,219,29594,1,0,0:0:0:0:
242,252,29771,2,0,P|287:249|315:236,1,69.9999978637696,0|0,0:0|0:0,0:0:0:0:
429,115,30124,2,0,P|383:117|355:130,1,69.9999978637696,0|0,0:0|0:0,0:0:0:0:
452,41,30477,6,0,P|382:39|317:65,1,139.999995727539,0|0,0:0|0:0,0:0:0:0:
259,163,31006,1,0,0:0:0:0:
430,282,31182,2,0,L|436:202,1,69.9999978637696,0|0,0:0|0:0,0:0:0:0:
347,358,31535,2,0,L|340:278,1,69.9999978637696,0|0,0:0|0:0,0:0:0:0:
268,83,31888,6,0,P|233:89|201:104,1,69.9999978637696,0|0,0:0|0:0,0:0:0:0:
125,184,32241,1,0,0:0:0:0:
259,163,32418,2,0,P|293:169|325:184,1,69.9999978637696,0|0,0:0|0:0,0:0:0:0:
402,264,32771,1,0,0:0:0:0:
268,243,32947,1,0,0:0:0:0:
157,107,33124,1,0,0:0:0:0:
173,89,33212,1,0,0:0:0:0:
183,66,33300,5,0,0:0:0:0:
268,243,33477,1,0,0:0:0:0:
252,261,33565,1,0,0:0:0:0:
242,283,33653,2,0,P|236:304|235:326,1,42.5000008106232,0|0,0:0|0:0,0:0:0:0:
326,317,33829,2,0,P|340:332|358:344,1,42.5000008106232,0|0,0:0|0:0,0:0:0:0:
407,216,34006,2,0,P|412:195|414:173,1,42.5000008106232,0|0,0:0|0:0,0:0:0:0:
324,183,34182,2,0,P|309:167|291:155,1,42.5000008106232,0|0,0:0|0:0,0:0:0:0:
139,141,34359,2,0,P|133:120|131:98,1,42.5000008106232,0|0,0:0|0:0,0:0:0:0:
222,108,34535,2,0,P|236:92|254:80,1,42.5000008106232,0|0,0:0|0:0,0:0:0:0:
186,232,34712,5,0,0:0:0:0:
276,277,34888,1,0,0:0:0:0:
376,230,35065,1,0,0:0:0:0:
410,116,35241,1,0,0:0:0:0:
343,6,35418,1,0,0:0:0:0:
296,133,35594,1,0,0:0:0:0:
177,216,35771,5,0,0:0:0:0:
94,97,35947,1,0,0:0:0:0:
33,229,36124,1,0,0:0:0:0:
160,210,36300,5,0,0:0:0:0:
97,120,36476,1,0,0:0:0:0:
51,219,36653,1,0,0:0:0:0:
206,111,36829,5,0,0:0:0:0:
280,3,37005,1,0,0:0:0:0:
335,122,37182,1,0,0:0:0:0:
261,230,37359,1,0,0:0:0:0:
137,304,37535,5,0,0:0:0:0:
109,161,37712,1,0,0:0:0:0:
118,299,37888,1,0,0:0:0:0:
98,176,38065,1,0,0:0:0:0:
124,318,38241,1,0,0:0:0:0:
267,290,38418,1,0,0:0:0:0:
364,182,38594,1,0,0:0:0:0:
221,154,38771,1,0,0:0:0:0:
352,170,38947,5,0,0:0:0:0:
237,146,39124,1,0,0:0:0:0:
281,275,39300,1,0,0:0:0:0:
301,75,39477,1,0,0:0:0:0:
204,213,39653,1,0,0:0:0:0:
166,67,39829,1,0,0:0:0:0:
166,67,39918,1,0,0:0:0:0:
166,67,40006,1,0,0:0:0:0:
77,141,40182,1,0,0:0:0:0:
142,292,40359,5,0,0:0:0:0:
250,340,40535,1,0,0:0:0:0:
364,306,40712,1,0,0:0:0:0:
406,186,40888,1,0,0:0:0:0:
511,99,41065,1,0,0:0:0:0:
393,15,41241,1,0,0:0:0:0:
326,153,41418,5,0,0:0:0:0:
219,43,41594,1,0,0:0:0:0:
152,181,41771,1,0,0:0:0:0:
259,291,41947,1,0,0:0:0:0:
131,182,42124,1,0,0:0:0:0:
238,292,42300,1,0,0:0:0:0:
337,168,42477,5,0,0:0:0:0:
444,278,42653,1,0,0:0:0:0:
511,140,42830,1,0,0:0:0:0:
404,30,43006,1,0,0:0:0:0:
324,184,43182,5,0,0:0:0:0:
498,156,43359,1,0,0:0:0:0:
320,168,43535,1,0,0:0:0:0:
348,342,43712,1,0,0:0:0:0:
310,155,43888,1,0,0:0:0:0:
266,325,44065,1,0,0:0:0:0:
413,259,44241,1,0,0:0:0:0:
222,203,44418,6,0,P|218:120|275:59,1,170.000003242493,0|0,0:0|0:0,0:0:0:0:
136,75,44947,1,0,0:0:0:0:
310,155,45124,1,0,0:0:0:0:
36,195,45300,2,0,P|41:141|66:104,1,85.0000016212464,0|0,0:0|0:0,0:0:0:0:
156,295,45653,2,0,P|102:289|65:264,1,85.0000016212464,0|0,0:0|0:0,0:0:0:0:
136,75,46006,6,0,P|189:80|226:105,1,85.0000016212464,0|0,0:0|0:0,0:0:0:0:
235,254,46359,2,0,P|254:217|256:175,1,85.0000016212464,0|0,0:0|0:0,0:0:0:0:
242,131,46624,1,0,0:0:0:0:
215,95,46712,1,0,0:0:0:0:
119,172,46888,1,0,0:0:0:0:
346,106,47065,1,0,0:0:0:0:
182,64,47241,1,0,0:0:0:0:
326,294,47418,6,0,L|334:203,2,85.0000016212464,0|0|0,0:0|0:0|0:0,0:0:0:0:
132,187,47947,1,0,0:0:0:0:
297,308,48124,2,0,L|305:223,1,85.0000016212464,0|0,0:0|0:0,0:0:0:0:
406,63,48477,2,0,L|414:153,1,85.0000016212464,0|0,0:0|0:0,0:0:0:0:
422,231,48829,5,0,0:0:0:0:
315,110,49006,1,0,0:0:0:0:
200,226,49182,1,0,0:0:0:0:
237,75,49359,1,0,0:0:0:0:
272,271,49535,1,0,0:0:0:0:
147,125,49712,1,0,0:0:0:0:
12,265,49888,1,0,0:0:0:0:
71,92,50065,1,0,0:0:0:0:
120,268,50241,5,0,0:0:0:0:
137,43,50418,1,0,0:0:0:0:
120,268,50594,2,0,L|112:358,1,85.0000016212464,0|0,0:0|0:0,0:0:0:0:
417,107,50947,2,0,L|332:99,1,85.0000016212464,0|0,0:0|0:0,0:0:0:0:
104,247,51300,2,0,L|96:337,1,85.0000016212464,0|0,0:0|0:0,0:0:0:0:
338,258,51653,5,0,0:0:0:0:
175,210,51829,2,0,L|225:215,1,42.5000008106232,0|0,0:0|0:0,0:0:0:0:
378,161,52006,1,0,0:0:0:0:
256,108,52182,2,0,L|287:146,1,42.5000008106232,0|0,0:0|0:0,0:0:0:0:
434,217,52359,1,0,0:0:0:0:
386,93,52535,2,0,L|381:143,1,42.5000008106232,0|0,0:0|0:0,0:0:0:0:
434,296,52712,1,0,0:0:0:0:
488,175,52888,2,0,L|449:206,1,42.5000008106232,0|0,0:0|0:0,0:0:0:0:
379,352,53065,5,0,0:0:0:0:
317,60,53241,1,0,0:0:0:0:
255,352,53418,1,0,0:0:0:0:
193,60,53594,1,0,0:0:0:0:
131,352,53771,1,0,0:0:0:0:
206,42,53947,1,0,0:0:0:0:
255,352,54124,1,0,0:0:0:0:
330,42,54300,1,0,0:0:0:0:
352,292,54477,5,0,0:0:0:0:
379,302,54565,1,0,0:0:0:0:
408,301,54653,1,0,0:0:0:0:
437,296,54741,1,0,0:0:0:0:
461,278,54829,1,0,0:0:0:0:
438,257,54918,1,0,0:0:0:0:
412,241,55006,1,0,0:0:0:0:
383,232,55094,1,0,0:0:0:0:
353,227,55182,5,0,0:0:0:0:
317,184,55271,1,0,0:0:0:0:
311,129,55359,1,0,0:0:0:0:
334,80,55447,1,0,0:0:0:0:
379,49,55535,1,0,0:0:0:0:
434,45,55623,1,0,0:0:0:0:
482,70,55712,1,0,0:0:0:0:
511,116,55800,1,0,0:0:0:0:
506,172,55888,6,0,P|474:175|453:169,1,40,0|0,0:0|0:0,0:0:0:0:
247,205,56241,2,0,P|244:173|250:152,1,40,0|0,0:0|0:0,0:0:0:0:
6,212,56594,1,0,0:0:0:0:
128,231,56771,1,0,0:0:0:0:
18,242,56947,1,0,0:0:0:0:
153,145,57124,1,0,0:0:0:0:
44,333,57300,6,0,B|80:363|122:344|122:344|100:312,1,100,0|0,0:0|0:0,0:0:0:0:
73,167,57565,1,0,0:0:0:0:
73,167,57653,2,0,P|95:210|120:225,1,50
233,123,57829,2,0,P|210:79|186:65,1,50
223,274,58006,2,0,B|243:296|253:328|253:328|274:320|295:325,1,100,0|0,0:0|0:0,0:0:0:0:
311,316,58271,1,0,0:0:0:0:
309,302,58359,1,0,0:0:0:0:
421,233,58535,1,0,0:0:0:0:
244,122,58712,5,0,0:0:0:0:
414,43,58888,2,0,P|403:99|365:145,1,100,0|0,0:0|0:0,0:0:0:0:
226,106,59153,1,0,0:0:0:0:
207,92,59241,2,0,L|157:86,1,50,0|0,0:0|0:0,0:0:0:0:
189,216,59418,1,0,0:0:0:0:
300,43,59594,1,0,0:0:0:0:
308,55,59682,1,0,0:0:0:0:
311,69,59771,1,0,0:0:0:0:
112,32,59947,1,0,0:0:0:0:
129,268,60124,6,0,P|169:295|218:292,1,100,0|0,0:0|0:0,0:0:0:0:
237,284,60388,1,0,0:0:0:0:
252,271,60477,1,0,0:0:0:0:
261,253,60565,1,0,0:0:0:0:
270,235,60653,1,0,0:0:0:0:
274,215,60741,1,0,0:0:0:0:
271,195,60829,2,0,P|214:192|181:149,1,100,0|0,0:0|0:0,0:0:0:0:
165,171,61094,1,0,0:0:0:0:
156,183,61182,1,0,0:0:0:0:
346,62,61359,1,0,0:0:0:0:
82,80,61535,6,0,L|88:154,1,50
103,291,61712,2,0,L|53:295,1,50
258,73,61888,2,0,L|251:147,1,50
237,284,62065,2,0,L|286:288,1,50
82,80,62241,37,0,0:0:0:0:
305,112,62418,1,0,0:0:0:0:
284,89,62506,1,0,0:0:0:0:
258,73,62594,1,0,0:0:0:0:
297,219,62771,1,0,0:0:0:0:
470,75,62947,6,0,B|466:102|442:117|442:117|456:149|443:173,1,100
440,330,63212,1,0,0:0:0:0:
427,317,63300,2,0,P|405:307|380:305,1,50
282,209,63477,2,0,P|266:227|258:251,1,50
255,366,63653,1,0,0:0:0:0:
118,230,63829,1,0,0:0:0:0:
133,230,63918,1,0,0:0:0:0:
147,229,64006,1,0,0:0:0:0:
230,131,64182,1,0,0:0:0:0:
61,158,64359,5,0,0:0:0:0:
281,55,64535,2,0,P|235:35|188:47,1,100
69,5,64800,1,0,0:0:0:0:
56,12,64888,2,0,P|43:34|41:59,1,50
50,266,65065,1,0,0:0:0:0:
252,176,65241,1,0,0:0:0:0:
238,155,65330,1,0,0:0:0:0:
230,131,65418,1,0,0:0:0:0:
118,230,65594,1,0,0:0:0:0:
328,339,65771,6,0,B|389:356|373:323|424:332,1,100
368,223,66035,1,0,0:0:0:0:
354,214,66124,2,0,P|342:193|338:169,1,50
445,35,66300,2,0,P|440:59|425:79,1,50
238,155,66477,1,0,0:0:0:0:
300,30,66653,1,0,0:0:0:0:
317,31,66742,1,0,0:0:0:0:
335,33,66830,1,0,0:0:0:0:
333,167,67006,1,0,0:0:0:0:
170,37,67182,37,0,0:0:0:0:
138,164,67359,2,0,L|237:154,1,100
50,66,67712,1,0,0:0:0:0:
37,212,67888,5,0,0:0:0:0:
42,225,67976,1,0,0:0:0:0:
48,239,68065,1,0,0:0:0:0:
54,252,68153,1,0,0:0:0:0:
95,279,68241,1,0,0:0:0:0:
108,230,68329,1,0,0:0:0:0:
121,181,68418,1,0,0:0:0:0:
134,132,68506,1,0,0:0:0:0:
147,83,68594,6,0,B|163:47|189:22|189:22|191:37|197:45,1,100
305,237,68859,1,0,0:0:0:0:
318,244,68947,2,0,P|342:237|361:221,1,50
311,60,69124,2,0,P|302:83|305:108,1,50
501,140,69300,2,0,P|459:115|410:121,1,100
203,182,69565,1,0,0:0:0:0:
217,188,69653,2,0,P|229:209|230:234,1,50
119,119,69829,2,0,P|106:97|105:72,1,50
261,6,70006,5,0,0:0:0:0:
410,121,70182,2,0,P|361:126|318:101,1,100
476,39,70447,1,0,0:0:0:0:
490,46,70535,2,0,P|501:69|504:94,1,50
369,226,70712,1,0,0:0:0:0:
478,301,70888,1,0,0:0:0:0:
455,321,70977,1,0,0:0:0:0:
432,340,71065,1,0,0:0:0:0:
320,161,71241,1,0,0:0:0:0:
235,345,71418,38,0,B|212:319|212:319|179:329|148:308,1,100
0,305,71682,1,0,0:0:0:0:
14,305,71771,2,0,P|31:288|43:266,1,50
184,200,71947,2,0,P|163:185|148:166,1,50
48,43,72124,1,0,0:0:0:0:
222,126,72300,1,0,0:0:0:0:
251,112,72389,1,0,0:0:0:0:
275,98,72477,1,0,0:0:0:0:
64,30,72653,1,0,0:0:0:0:
184,200,72829,5,0,0:0:0:0:
402,93,73006,2,0,P|415:139|390:182,1,100
342,299,73271,1,0,0:0:0:0:
352,311,73359,2,0,P|380:320|427:304,1,50,0|0,0:0|0:0,0:0:0:0:
286,183,73535,1,0,0:0:0:0:
156,276,73712,1,0,0:0:0:0:
167,308,73801,1,0,0:0:0:0:
180,336,73889,1,0,0:0:0:0:
390,182,74065,1,0,0:0:0:0:
140,103,74241,6,0,B|169:103|184:125|184:125|206:109|231:118,1,100
363,29,74506,1,0,0:0:0:0:
346,29,74594,2,0,P|312:44|287:76,1,50
446,82,74771,2,0,P|461:62|469:38,1,50
299,170,74947,1,0,0:0:0:0:
463,279,75124,1,0,0:0:0:0:
463,263,75213,1,0,0:0:0:0:
462,249,75301,1,0,0:0:0:0:
295,269,75477,1,0,0:0:0:0:
467,366,75653,5,0,0:0:0:0:
222,302,75829,1,0,0:0:0:0:
386,151,76006,5,0,0:0:0:0:
141,215,76182,1,0,0:0:0:0:
212,10,76359,6,0,L|190:66,1,50
59,278,76535,1,0,0:0:0:0:
60,249,76623,1,0,0:0:0:0:
55,220,76712,1,0,0:0:0:0:
13,60,76888,1,0,0:0:0:0:
158,227,77065,6,0,P|212:208|244:160,1,100
316,291,77330,1,0,0:0:0:0:
329,283,77418,2,0,P|352:289|371:305,1,50
452,144,77594,2,0,P|433:160|409:166,1,50
209,63,77771,2,0,P|251:37|300:43,1,100
178,197,78036,1,0,0:0:0:0:
171,211,78124,2,0,P|149:223|124:224,1,50
231,84,78300,2,0,P|252:71|277:70,1,50
344,226,78477,5,0,0:0:0:0:
490,247,78653,2,0,P|495:198|470:155,1,100
324,21,78918,1,0,0:0:0:0:
338,28,79006,2,0,P|348:50|351:75,1,50
333,245,79183,5,0,0:0:0:0:
490,247,79359,1,0,0:0:0:0:
463,269,79448,1,0,0:0:0:0:
437,291,79536,1,0,0:0:0:0:
344,148,79712,1,0,0:0:0:0:
174,235,79889,38,0,B|183:201|183:201|149:187|137:156,1,100
0,305,80153,1,0,0:0:0:0:
14,305,80242,2,0,P|31:288|43:266,1,50
193,190,80418,2,0,P|173:175|158:155,1,50
33,23,80595,1,0,0:0:0:0:
239,44,80771,1,0,0:0:0:0:
255,69,80860,1,0,0:0:0:0:
259,97,80948,1,0,0:0:0:0:
390,182,81124,1,0,0:0:0:0:
491,18,81300,5,0,0:0:0:0:
368,169,81477,2,0,P|354:215|379:258,1,100
483,359,81742,1,0,0:0:0:0:
473,347,81830,6,0,P|445:338|398:354,1,50
278,224,82006,1,0,0:0:0:0:
157,238,82183,1,0,0:0:0:0:
168,270,82272,1,0,0:0:0:0:
181,298,82360,1,0,0:0:0:0:
380,158,82536,1,0,0:0:0:0:
203,51,82712,5,0,0:0:0:0:
53,229,82888,2,0,P|44:202|46:175,1,50
76,83,83065,1,0,0:0:0:0:
309,333,83241,5,0,0:0:0:0:
459,155,83417,2,0,P|467:178|467:203,1,50
436,301,83594,1,0,0:0:0:0:
212,37,83771,5,0,0:0:0:0:
62,215,83947,2,0,P|53:188|55:161,1,50
85,69,84124,37,0,0:0:0:0:
114,65,84212,1,0,0:0:0:0:
143,74,84300,1,0,0:0:0:0:
166,93,84388,1,0,0:0:0:0:
180,119,84477,1,0,0:0:0:0:
215,144,84565,1,0,0:0:0:0:
258,136,84653,1,0,0:0:0:0:
282,99,84741,1,0,0:0:0:0:
290,54,84829,5,0,0:0:0:0:
341,25,84917,1,0,0:0:0:0:
401,25,85005,1,0,0:0:0:0:
453,54,85093,1,0,0:0:0:0:
484,104,85181,1,0,0:0:0:0:
487,163,85270,1,0,0:0:0:0:
460,217,85358,1,0,0:0:0:0:
411,250,85446,1,0,0:0:0:0:
351,255,85535,6,0,P|332:240|309:232,1,50
401,25,85712,2,0,P|392:48|377:67,1,50
212,236,85888,2,0,P|213:212|222:188,1,50
164,47,86065,2,0,P|140:38|121:23,1,50
145,303,86241,2,0,P|169:303|193:312,1,50
0,169,86418,2,0,P|8:145|23:126,1,50
282,99,86594,2,0,P|305:107|324:122,1,50
288,317,86771,2,0,P|287:341|278:365,1,50
155,63,86947,6,0,L|66:69,1,69.9999978637696
259,188,87300,2,0,L|170:194,1,69.9999978637696
416,308,87653,2,0,B|358:311|358:311|345:299|345:299|331:313|331:313|282:317,1,139.999995727539
