osu file format v14

[General]
AudioFilename: kaen.ogg
AudioLeadIn: 0
PreviewTime: 45122
Countdown: 0
SampleSet: Soft
StackLeniency: 0.4
Mode: 0
LetterboxInBreaks: 0
WidescreenStoryboard: 1

[Editor]
DistanceSpacing: 0.5
BeatDivisor: 4
GridSize: 4
TimelineZoom: 1.4

[Metadata]
Title:Kaen (TV Size)
TitleUnicode:火炎 (TV Size)
Artist:Ziyoou-vachi
ArtistUnicode:女王蜂
Creator:browiec
Version:Hard
Source:どろろ
Tags:dororo opening op japanese anime j-rock jrock rock akitoshi corinn -laura- fire queen bee
BeatmapID:3859777
BeatmapSetID:1863466

[Difficulty]
HPDrainRate:4
CircleSize:3.8
OverallDifficulty:6.4
ApproachRate:7.5
SliderMultiplier:1.4
SliderTickRate:1

[Events]
//Background and Video events
0,0,"BG.jpg",0,0
//Break Periods
//Storyboard Layer 0 (Background)
//Storyboard Layer 1 (Fail)
//Storyboard Layer 2 (Pass)
//Storyboard Layer 3 (Foreground)
//Storyboard Layer 4 (Overlay)
//Storyboard Sound Samples

[TimingPoints]
828,352.941176470588,4,2,1,40,1,0
828,-133.333333333333,4,2,1,40,0,0
12122,-125,4,2,1,40,0,0
23416,-111.111111111111,4,2,1,50,0,0
34710,-125,4,2,1,45,0,0
46004,-111.111111111111,4,2,1,55,0,0
56592,-133.333333333333,4,2,1,45,0,0
57298,-100,4,2,1,60,0,0
74239,-125,4,2,1,60,0,0
75651,-125,4,2,1,45,0,0
76710,-125,4,2,1,50,0,0
77063,-100,4,2,1,60,0,0

[Colours]
Combo1 : 223,223,223
Combo2 : 138,154,196
Combo3 : 102,100,100
Combo4 : 191,0,5

[HitObjects]
48,100,828,5,2,2:2:0:0:
48,100,1004,2,0,L|155:86,1,105.000004005432,2|2,2:2|2:2,2:2:0:0:
208,36,1533,2,0,L|259:42,1,52.5000020027161,2|0,2:2|2:2,2:2:0:0:
312,96,1886,1,2,2:2:0:0:
312,96,5769,6,0,L|367:89,2,52.5000020027161,2|2|2,2:2|2:2|2:2,2:2:0:0:
244,124,6298,1,2,2:2:0:0:
244,124,6475,2,0,P|229:160|247:227,1,105.000004005432,2|2,2:2|2:2,0:0:0:0:
308,268,7004,1,2,2:2:0:0:
308,268,7180,1,2,2:2:0:0:
436,192,7533,1,2,2:2:0:0:
436,192,11416,6,0,B|384:185|384:185|383:189|383:189|332:183,1,105.000004005432,2|2,2:2|2:2,2:2:0:0:
276,228,11945,1,2,2:2:0:0:
216,180,12122,6,0,L|209:124,2,56,0|2|8,3:2|3:2|0:2,2:2:0:0:
168,244,12651,1,2,3:2:0:0:
168,244,12739,1,0,3:2:0:0:
168,244,12827,2,0,L|161:300,1,56,0|0,3:2|3:2,0:0:0:0:
140,376,13180,2,0,B|112:384|112:384|84:376,1,56,8|0,2:2|3:2,0:0:0:0:
56,304,13533,6,0,L|0:311,2,56,0|2|10,3:2|3:2|2:2,2:2:0:0:
88,236,14063,1,2,3:2:0:0:
88,236,14151,1,0,3:2:0:0:
88,236,14239,2,0,L|95:180,1,56,0|0,3:2|3:2,0:0:0:0:
116,104,14592,1,8,2:2:0:0:
252,184,14945,6,0,B|320:164|320:164|356:184,1,112,0|8,3:2|2:2,2:2:0:0:
404,260,15475,1,0,3:2:0:0:
404,260,15563,1,0,3:2:0:0:
404,260,15651,2,0,L|460:253,1,56,0|0,3:2|3:2,0:0:0:0:
504,188,16004,2,0,B|511:162|511:162|503:134,1,56,8|0,2:2|3:2,0:0:0:0:
452,76,16357,6,0,L|459:20,2,56,0|0|8,3:2|3:2|2:2,2:2:0:0:
396,132,16886,1,2,3:2:0:0:
396,132,16974,1,0,3:2:0:0:
396,132,17062,2,0,L|340:125,1,56,2|2,3:2|3:2,0:0:0:0:
280,80,17416,1,10,2:2:0:0:
280,80,17592,1,2,3:2:0:0:
232,144,17769,6,0,L|239:200,2,56,2|2|8,3:2|3:2|2:2,2:2:0:0:
176,96,18298,1,2,3:2:0:0:
176,96,18474,2,0,L|120:89,1,56,2|2,3:2|3:2,0:0:0:0:
56,132,18827,1,10,2:2:0:0:
4,280,19180,6,0,B|-4:308|-4:308|3:333,2,56,0|0|8,3:2|3:2|2:2,2:2:0:0:
72,236,19710,1,0,3:2:0:0:
72,236,19798,1,0,3:2:0:0:
72,236,19886,2,0,L|128:229,1,56,0|0,3:2|3:2,0:0:0:0:
188,280,20239,2,0,B|196:308|196:308|188:333,1,56,8|2,2:2|3:2,0:0:0:0:
260,368,20592,6,0,L|316:361,1,56,2|2,3:2|3:2,2:2:0:0:
368,304,20945,1,10,2:2:0:0:
368,304,21122,1,2,3:2:0:0:
320,240,21298,2,0,L|327:184,1,56,2|0,3:2|3:2,0:0:0:0:
388,136,21651,2,0,L|381:80,1,56,8|0,2:2|3:2,2:2:0:0:
360,56,21916,1,0,3:2:0:0:
360,56,22004,6,0,B|308:49|308:49|303:53|303:53|248:46,1,112,0|8,3:2|2:2,0:0:0:0:
180,12,22533,1,0,3:2:0:0:
132,72,22710,2,0,L|138:127,1,56,2|2,3:2|3:2,2:2:0:0:
208,172,23063,1,10,2:2:0:0:
208,172,23239,1,2,2:2:0:0:
137,225,23416,6,0,P|82:195|23:210,2,125.999996154785,2|10|2,3:2|3:2|2:2,2:2:0:0:
205,279,24298,1,0,3:2:0:0:
205,279,24475,2,0,L|197:342,1,62.9999980773926,10|0,3:2|3:2,2:2:0:0:
272,384,24827,5,2,3:2:0:0:
272,384,25004,2,0,L|287:258,1,125.999996154785,2|0,2:2|3:2,2:2:0:0:
272,180,25533,2,0,L|208:187,1,62.9999980773926,2|2,2:2|3:2,0:0:0:0:
160,252,25886,2,0,L|96:244,1,62.9999980773926,10|2,2:2|3:2,0:0:0:0:
37,190,26239,6,0,B|5:234|5:234|37:306,2,125.999996154785,2|10|2,3:2|3:2|2:2,2:2:0:0:
116,164,27122,1,0,3:2:0:0:
116,164,27299,2,0,L|108:100,1,62.9999980773926,10|0,2:2|3:2,2:2:0:0:
160,40,27651,5,2,3:2:0:0:
160,40,27827,2,0,B|219:32|219:32|224:36|224:36|283:28,1,125.999996154785,2|2,2:2|3:2,2:2:0:0:
364,64,28357,1,2,2:2:0:0:
364,64,28533,1,2,3:2:0:0:
312,128,28710,2,0,L|304:191,1,62.9999980773926,10|2,2:2|3:2,0:0:0:0:
356,260,29063,5,2,3:2:0:0:
356,260,29239,2,0,P|409:230|469:244,1,125.999996154785,2|2,2:2|3:2,2:2:0:0:
472,328,29769,2,0,L|408:320,1,62.9999980773926,2|0,2:2|3:2,2:2:0:0:
352,376,30122,2,0,L|288:368,1,62.9999980773926,10|0,3:2|3:2,2:2:0:0:
220,324,30475,6,0,B|213:272|213:272|227:250|227:250|221:202,1,125.999996154785,2|8,3:2|3:2,2:2:0:0:
272,140,31004,1,2,3:2:0:0:
272,140,31180,2,0,L|335:132,1,62.9999980773926,2|2,2:2|3:2,0:0:0:0:
392,188,31533,2,0,L|455:180,1,62.9999980773926,10|2,2:2|3:2,0:0:0:0:
496,108,31886,6,0,P|464:55|405:37,1,125.999996154785,2|8,3:2|3:2,2:2:0:0:
340,88,32416,2,0,B|276:68|284:116|216:96,1,125.999996154785,2|0,3:2|3:2,2:2:0:0:
156,44,32945,2,0,L|93:52,1,62.9999980773926,10|8,2:2|3:2,2:2:0:0:
64,132,33298,5,2,3:2:0:0:
64,132,33475,2,0,L|127:140,1,62.9999980773926,2|8,2:2|3:2,0:0:0:0:
196,200,33827,1,0,3:2:0:0:
196,200,33916,1,0,3:2:0:0:
196,200,34004,2,0,L|188:263,1,62.9999980773926,0|8,3:2|3:2,0:0:0:0:
268,280,34357,2,0,L|276:217,1,62.9999980773926,0|0,3:2|3:2,2:2:0:0:
332,160,34710,6,0,B|360:152|360:152|385:160,1,56,2|2,3:2|2:2,0:0:0:0:
460,136,35063,2,0,B|468:164|468:164|460:189,1,56,2|2,2:2|2:2,0:0:0:0:
400,244,35416,1,2,2:2:0:0:
400,244,35592,1,2,2:2:0:0:
456,300,35769,1,2,2:2:0:0:
256,192,35945,12,0,39298,0:0:0:0:
456,300,39827,6,0,L|483:296,2,28,0|0|0,3:2|3:2|3:2,0:0:0:0:
308,352,40357,6,0,B|280:360|280:360|255:352,1,56,2|2,3:2|2:2,0:0:0:0:
192,304,40710,2,0,B|164:296|164:296|139:304,1,56,2|2,2:2|2:2,0:0:0:0:
84,360,41063,1,2,2:2:0:0:
84,360,41239,1,2,2:2:0:0:
24,308,41416,6,0,B|16:244|16:244|36:209|36:209|28:146,1,168,2|2,2:2|2:2,2:2:0:0:
104,132,42122,2,0,L|111:188,1,56,2|2,2:2|2:2,2:2:0:0:
188,180,42475,2,0,L|181:124,1,56,2|2,2:2|2:2,2:2:0:0:
258,116,42827,2,0,L|265:172,1,56,2|2,2:2|2:2,2:2:0:0:
324,232,43180,5,2,2:2:0:0:
324,232,43357,2,0,B|376:196|376:196|480:232,1,168,2|2,2:2|2:2,2:2:0:0:
448,76,44239,6,0,L|336:62,1,112,2|0,2:2|2:2,2:2:0:0:
260,88,44769,2,0,B|236:138|236:138|260:192,1,112,2|0,2:2|2:2,2:2:0:0:
324,236,45298,6,0,L|379:229,2,56,2|2|2,2:2|2:2|2:2,2:2:0:0:
276,296,45827,1,2,2:2:0:0:
200,252,46004,6,0,L|136:244,1,62.9999980773926,10|2,3:2|2:2,2:2:0:0:
108,168,46357,2,0,L|44:176,1,62.9999980773926,10|2,3:2|2:2,2:2:0:0:
0,244,46710,1,10,2:2:0:0:
0,244,46886,1,2,2:2:0:0:
60,300,47063,2,0,B|51:331|51:331|60:359,1,62.9999980773926,10|0,3:2|2:2,2:2:0:0:
144,372,47416,5,10,2:2:0:0:
144,372,47592,2,0,B|196:365|196:365|218:379|218:379|266:373,1,125.999996154785,2|0,2:2|2:2,2:2:0:0:
324,316,48122,2,0,L|316:252,1,62.9999980773926,10|2,2:2|2:2,0:0:0:0:
244,216,48475,2,0,L|236:152,1,62.9999980773926,10|2,2:2|2:2,0:0:0:0:
296,96,48827,6,0,L|360:88,1,62.9999980773926,10|2,3:2|2:2,2:2:0:0:
388,12,49180,2,0,L|452:20,1,62.9999980773926,10|2,3:2|2:2,2:2:0:0:
496,88,49533,1,10,2:2:0:0:
496,88,49709,1,2,2:2:0:0:
436,144,49886,2,0,B|444:175|444:175|436:203,1,62.9999980773926,10|0,3:2|2:2,2:2:0:0:
384,268,50239,5,10,2:2:0:0:
384,268,50416,2,0,B|312:240|312:240|272:268,1,125.999996154785,2|0,2:2|2:2,2:2:0:0:
200,304,50945,2,0,L|207:366,1,62.9999980773926,10|2,2:2|2:2,0:0:0:0:
128,384,51298,2,0,L|120:321,1,62.9999980773926,10|2,2:2|2:2,0:0:0:0:
48,280,51651,6,0,B|42:232|42:232|56:210|56:210|49:158,1,125.999996154785,10|8,3:2|3:2,0:0:0:0:
96,92,52180,2,0,B|127:84|127:84|155:92,1,62.9999980773926,2|8,3:2|3:2,0:0:0:0:
204,168,52533,1,0,3:2:0:0:
204,168,52710,6,0,L|196:230,1,62.9999980773926,10|0,3:2|3:2,0:0:0:0:
260,292,53063,1,8,3:2:0:0:
260,292,53239,2,0,P|313:262|373:276,1,125.999996154785,2|0,3:2|3:2,0:0:0:0:
400,356,53769,2,0,L|462:348,1,62.9999980773926,8|0,3:2|3:2,0:0:0:0:
508,280,54122,2,0,L|500:218,1,62.9999980773926,8|0,3:2|3:2,0:0:0:0:
444,160,54475,6,0,L|447:128,3,31.4999990386963,10|8|10|8,3:2|2:2|3:2|2:2,0:0:0:0:
432,172,54827,2,0,B|402:163|402:163|371:171,1,62.9999980773926,10|10,3:2|3:2,0:0:0:0:
320,236,55180,1,10,3:2:0:0:
320,236,55269,1,8,2:2:0:0:
320,236,55357,1,8,3:2:0:0:
364,304,55533,1,10,3:2:0:0:
308,364,55710,1,10,3:2:0:0:
308,364,56592,6,0,L|257:358,3,52.5000020027161,2|2|2|2,2:2|2:2|2:2|2:2,2:2:0:0:
208,264,57298,6,0,L|104:276,1,105,6|0,3:2|3:2,2:2:0:0:
60,268,57651,2,0,B|50:236|50:236|60:201,1,70,0|2,3:2|3:2,0:0:0:0:
12,124,58004,1,10,2:2:0:0:
76,60,58180,1,2,3:2:0:0:
76,60,58269,1,8,2:2:0:0:
76,60,58357,2,0,L|147:51,1,70,2|10,3:2|2:2,0:0:0:0:
228,8,58710,5,2,3:2:0:0:
292,72,58886,2,0,L|279:175,2,105,0|0|10,3:2|3:2|3:2,2:2:0:0:
372,24,59592,1,2,3:2:0:0:
372,24,59681,1,8,3:2:0:0:
372,24,59769,2,0,L|443:32,1,70,2|10,3:2|3:2,2:2:0:0:
472,132,60122,6,0,L|368:144,1,105,2|0,3:2|3:2,2:2:0:0:
328,164,60475,2,0,B|318:198|318:198|328:230,1,70,0|2,3:2|3:2,0:0:0:0:
412,268,60827,2,0,L|403:339,1,70,10|2,2:2|3:2,2:2:0:0:
376,376,61092,1,8,2:2:0:0:
376,376,61180,2,0,B|341:385|341:385|309:376,1,70,2|10,3:2|2:2,0:0:0:0:
244,312,61533,1,2,3:2:0:0:
168,364,61710,6,0,B|130:343|130:343|84:360|84:360|33:347,1,140,2|2,3:2|3:2,2:2:0:0:
4,264,62239,1,10,3:2:0:0:
80,212,62416,1,2,3:2:0:0:
80,212,62505,1,8,3:2:0:0:
80,212,62593,2,0,L|151:204,1,70,2|10,3:2|3:2,2:2:0:0:
212,288,62945,6,0,L|316:276,1,105,6|0,3:2|3:2,2:2:0:0:
356,256,63298,2,0,B|366:222|366:222|356:190,1,70,0|2,3:2|3:2,0:0:0:0:
292,124,63651,1,10,2:2:0:0:
224,180,63827,1,2,3:2:0:0:
224,180,63916,1,8,2:2:0:0:
224,180,64004,2,0,L|153:172,1,70,2|10,3:2|2:2,0:0:0:0:
88,112,64357,5,2,3:2:0:0:
160,56,64533,2,0,L|263:43,2,105,0|0|10,3:2|3:2|3:2,2:2:0:0:
88,20,65239,1,2,3:2:0:0:
88,20,65328,1,8,3:2:0:0:
88,20,65416,2,0,L|17:12,1,70,2|10,3:2|3:2,2:2:0:0:
4,116,65769,6,0,L|16:220,1,105,2|0,3:2|3:2,2:2:0:0:
36,260,66122,2,0,B|70:270|70:270|102:260,1,70,0|2,3:2|3:2,0:0:0:0:
180,212,66475,2,0,L|189:141,1,70,10|2,2:2|3:2,2:2:0:0:
216,104,66740,1,8,2:2:0:0:
216,104,66828,2,0,B|251:95|251:95|283:104,1,70,2|10,3:2|2:2,0:0:0:0:
344,172,67180,6,0,B|337:224|337:224|354:253|354:253|347:306,1,140,2|0,3:2|2:2,0:0:0:0:
408,376,67710,1,2,3:2:0:0:
476,316,67886,1,10,3:2:0:0:
476,316,67975,1,2,3:2:0:0:
476,316,68063,2,0,L|511:311,2,35,2|10|2,3:2|3:2|3:2,0:0:0:0:
436,232,68416,1,10,3:2:0:0:
436,232,68504,1,2,3:2:0:0:
436,232,68592,6,0,B|456:180|456:180|439:133,1,105,6|0,3:2|3:2,2:2:0:0:
412,100,68945,2,0,L|341:92,1,70,2|0,3:2|3:2,0:0:0:0:
276,28,69298,1,10,2:2:0:0:
224,104,69475,1,0,3:2:0:0:
224,104,69564,1,8,2:2:0:0:
224,104,69652,2,0,L|232:175,1,70,2|8,3:2|2:2,0:0:0:0:
188,252,70004,5,2,3:2:0:0:
268,296,70180,2,0,B|315:290|315:290|320:293|320:293|371:287,2,105,0|0|10,3:2|3:2|3:2,2:2:0:0:
216,372,70886,1,0,3:2:0:0:
216,372,70975,1,8,3:2:0:0:
216,372,71063,2,0,L|145:364,1,70,0|10,3:2|3:2,2:2:0:0:
56,312,71416,6,0,B|36:260|36:260|52:213,1,105,2|0,3:2|3:2,2:2:0:0:
80,180,71769,2,0,L|151:172,1,70,2|0,3:2|3:2,0:0:0:0:
220,112,72122,2,0,B|229:80|229:80|220:45,1,70,10|0,2:2|3:2,2:2:0:0:
188,20,72386,1,8,2:2:0:0:
188,20,72475,2,0,L|117:12,1,70,0|10,3:2|2:2,0:0:0:0:
44,64,72827,5,2,3:2:0:0:
96,140,73004,2,0,B|90:187|90:187|93:192|93:192|87:243,2,105,0|0|8,3:2|3:2|3:2,2:2:0:0:
188,116,73710,1,0,3:2:0:0:
188,116,73798,1,8,3:2:0:0:
188,116,73886,1,0,3:2:0:0:
244,188,74063,1,8,3:2:0:0:
176,248,74239,5,6,3:2:0:0:
180,252,75651,5,2,2:2:0:0:
180,252,75827,2,0,B|145:222|145:222|72:242,1,112,2|2,2:2|2:2,0:0:0:0:
26,298,76357,2,0,B|60:327|60:327|133:307,1,112,2|2,2:2|2:2,2:2:0:0:
272,160,77063,6,0,L|376:172,1,105,6|0,3:2|3:2,2:2:0:0:
416,192,77416,2,0,B|426:226|426:226|416:258,1,70,2|0,3:2|3:2,0:0:0:0:
364,332,77769,2,0,L|293:340,1,70,10|0,2:2|3:2,2:2:0:0:
260,320,78033,1,8,2:2:0:0:
260,320,78121,2,0,B|251:288|251:288|260:253,1,70,2|8,3:2|2:2,2:2:0:0:
188,192,78475,5,2,3:2:0:0:
116,248,78651,2,0,L|13:235,2,105,0|0|10,3:2|3:2|3:2,2:2:0:0:
172,332,79357,1,0,3:2:0:0:
172,332,79446,1,8,3:2:0:0:
172,332,79534,2,0,L|243:324,1,70,2|8,3:2|2:2,2:2:0:0:
316,252,79886,6,0,B|336:200|336:200|319:153,1,105,2|0,3:2|3:2,2:2:0:0:
292,120,80239,2,0,L|221:112,1,70,2|0,3:2|3:2,0:0:0:0:
200,24,80592,2,0,B|232:15|232:15|267:24,1,70,10|0,2:2|3:2,2:2:0:0:
316,40,80857,1,8,2:2:0:0:
316,40,80945,2,0,L|387:32,1,70,2|8,3:2|2:2,2:2:0:0:
460,84,81298,5,2,3:2:0:0:
420,168,81475,2,0,B|426:215|426:215|423:220|423:220|429:271,2,105,0|0|10,3:2|3:2|3:2,2:2:0:0:
344,136,82180,1,0,3:2:0:0:
344,136,82269,1,8,3:2:0:0:
344,136,82357,1,2,3:2:0:0:
280,200,82533,1,8,2:2:0:0:
208,124,82710,6,0,L|104:112,1,105,6|0,3:2|3:2,2:2:0:0:
64,136,83063,2,0,B|54:170|54:170|64:202,1,70,0|2,3:2|3:2,0:0:0:0:
128,268,83416,2,0,L|199:260,1,70,8|0,2:2|3:2,2:2:0:0:
232,280,83680,1,8,2:2:0:0:
232,280,83768,2,0,B|241:312|241:312|232:347,1,70,2|8,3:2|2:2,2:2:0:0:
316,380,84122,5,0,3:2:0:0:
380,316,84298,2,0,L|483:303,2,105,2|0|8,3:2|3:2|3:2,2:2:0:0:
316,264,85004,1,0,3:2:0:0:
316,264,85093,1,8,3:2:0:0:
316,264,85181,2,0,L|324:193,1,70,0|8,3:2|2:2,2:2:0:0:
404,128,85533,6,0,B|413:93|413:93|404:61,1,70,2|2,3:2|2:2,0:0:0:0:
376,32,85798,1,0,3:2:0:0:
376,32,85886,2,0,L|305:24,1,70,2|2,2:2|3:2,0:0:0:0:
236,80,86239,1,10,3:2:0:0:
236,80,86416,1,0,2:2:0:0:
288,156,86592,1,2,2:2:0:0:
228,224,86769,1,10,3:2:0:0:
