osu file format v14

[General]
AudioFilename: audio.mp3
AudioLeadIn: 0
PreviewTime: 146049
Countdown: 1
SampleSet: Soft
StackLeniency: 0.7
Mode: 0
LetterboxInBreaks: 0
WidescreenStoryboard: 1

[Editor]
Bookmarks: 23402,34696,45990,57284,68578,78461,89755,101049,112343,123637,134931,146225,157519,168813,180108,189990,199872
DistanceSpacing: 1.6
BeatDivisor: 3
GridSize: 4
TimelineZoom: 1.5

[Metadata]
Title:Kaen
TitleUnicode:火炎
Artist:Ziyoou-vachi
ArtistUnicode:女王蜂
Creator:Seto Kousuke
Version:Suou's Hard
Source:どろろ
Tags:Dororo Anime Opening japanese rock jrock Single Shirahane Suou SrSkyPlayer Senhor
BeatmapID:1917399
BeatmapSetID:918188

[Difficulty]
HPDrainRate:4
CircleSize:3.5
OverallDifficulty:6
ApproachRate:8
SliderMultiplier:1.69999990463257
SliderTickRate:1

[Events]
//Background and Video events
0,0,"puppet dude.png",0,0
//Break Periods
2,78614,83200
//Storyboard Layer 0 (Background)
//Storyboard Layer 1 (Fail)
//Storyboard Layer 2 (Pass)
//Storyboard Layer 3 (Foreground)
//Storyboard Sound Samples
Sample,190022,0,"ayakashi thunder.wav",75

[TimingPoints]
856,352.941176470588,4,2,3,30,1,0
856,-111.111111111111,4,2,3,30,0,0
12150,-111.111111111111,4,2,1,30,0,0
23444,-100,4,2,1,50,0,0
32973,-100,4,2,1,60,0,0
34738,-100,4,2,2,50,0,0
46032,-100,4,2,1,60,0,0
55914,-100,4,2,3,60,0,0
56620,-133.333333333333,4,2,3,60,0,0
57326,-100,4,2,1,75,0,1
78503,-111.111111111111,4,2,1,40,0,0
81326,-111.111111111111,4,2,1,30,0,0
82032,-111.111111111111,4,2,1,20,0,0
82738,-111.111111111111,4,2,1,30,0,0
83444,-111.111111111111,4,2,1,40,0,0
85561,-153.846153846153,4,2,1,40,0,0
86973,-111.111111111111,4,2,1,40,0,0
88385,-153.846153846153,4,2,1,40,0,0
89797,-100,4,2,1,50,0,0
101091,-100,4,2,2,50,0,0
112385,-111.111111111111,4,2,2,50,0,0
113091,-111.111111111111,4,2,1,40,0,0
133032,-153.846153846153,4,2,1,40,0,0
134267,-111.111111111111,4,2,1,40,0,0
134973,-100,4,2,1,50,0,0
145208,-100,4,2,1,60,0,0
146267,-100,4,2,2,50,0,0
157561,-100,4,2,1,60,0,0
167444,-100,4,2,3,60,0,0
168150,-133.333333333333,4,2,3,60,0,0
168855,-100,4,2,1,75,0,1
185797,-100,4,2,1,50,0,0
187208,-100,4,2,2,50,0,0
189679,-100,4,2,1,50,0,0
190032,-100,4,2,1,75,0,1
190061,-100,4,2,1,5,0,1
190120,-100,4,2,1,75,0,1
190767,-100,4,2,1,5,0,1
190826,-100,4,2,1,75,0,1
191473,-100,4,2,1,5,0,1
191532,-100,4,2,1,75,0,1
191826,-100,4,2,1,5,0,1
191885,-100,4,2,1,75,0,1
192179,-100,4,2,1,5,0,1
192238,-100,4,2,1,75,0,1
192885,-100,4,2,1,5,0,1
192944,-100,4,2,1,75,0,1
193238,-100,4,2,1,5,0,1
193297,-100,4,2,1,75,0,1
193591,-100,4,2,1,5,0,1
193650,-100,4,2,1,75,0,1
194297,-100,4,2,1,5,0,1
194355,-100,4,2,1,75,0,1
194650,-100,4,2,1,5,0,1
194708,-100,4,2,1,75,0,1
195003,-100,4,2,1,5,0,1
195061,-100,4,2,1,75,0,1
199914,-111.111111111111,4,2,3,50,0,0
202454,352.941176470588,4,2,3,30,1,0
202454,-111.111111111111,4,2,3,30,0,0

[Colours]
Combo1 : 254,22,28
Combo2 : 109,82,100
Combo3 : 173,109,139
Combo4 : 202,128,101
Combo5 : 204,178,155
Combo6 : 233,85,78

[HitObjects]
215,165,856,6,0,P|253:176|297:165,1,76.499993373871,2|0,0:0|0:0,0:0:0:0:
342,104,1208,2,0,P|380:93|424:104,1,76.499993373871,2|0,0:0|0:0,0:0:0:0:
463,169,1561,2,0,P|442:116|483:29,1,152.999986747742,2|2,0:0|0:0,0:0:0:0:
197,235,5797,6,0,P|190:193|196:160,1,76.499993373871,2|0,0:0|0:0,0:0:0:0:
281,158,6150,2,0,P|288:200|282:233,1,76.499993373871,2|0,0:0|0:0,0:0:0:0:
246,310,6503,5,2,0:0:0:0:
246,310,6679,1,0,0:0:0:0:
163,313,6855,2,0,L|73:312,1,76.499993373871,2|0,0:0|0:0,0:0:0:0:
26,372,7208,2,0,P|63:308|27:241,1,152.999986747742,2|2,0:0|0:0,0:0:0:0:
319,319,11444,6,0,P|239:296|165:331,1,152.999986747742,2|0,0:0|0:0,0:0:0:0:
100,357,11973,1,2,0:0:0:0:
100,357,12150,38,0,L|89:263,1,76.499993373871,0|0,2:0|2:0,0:0:0:0:
19,128,12679,2,0,P|85:175|133:121,1,152.999986747742,0|0,2:0|2:0,0:0:0:0:
110,53,13208,2,0,P|190:62|271:59,1,152.999986747742,8|0,2:0|2:0,0:0:0:0:
337,99,13738,1,0,2:0:0:0:
337,99,13914,1,8,2:0:0:0:
284,165,14091,2,0,B|284:209|306:239|306:239|283:266|283:315,1,152.999986747742,0|0,2:0|2:0,0:0:0:0:
344,366,14620,1,8,2:0:0:0:
489,239,16914,5,0,2:0:0:0:
489,239,17091,2,0,P|500:275|490:327,1,76.4999933738711,0|0,2:0|2:0,0:0:0:0:
426,360,17444,2,0,L|341:352,1,76.4999933738711,8|0,2:0|2:0,0:0:0:0:
303,282,17797,5,0,2:0:0:0:
303,282,17973,1,0,2:0:0:0:
162,374,18326,2,0,P|175:329|171:297,1,76.4999933738711,0|0,2:0|2:0,0:0:0:0:
106,246,18679,1,0,2:0:0:0:
89,328,18855,1,8,2:0:0:0:
205,209,20444,5,0,2:0:0:0:
205,209,20620,2,0,P|240:198|287:210,1,76.4999933738711,0|0,2:0|2:0,0:0:0:0:
336,266,20973,1,8,2:0:0:0:
336,266,21150,1,0,2:0:0:0:
395,206,21326,2,0,B|399:155|399:155|377:50,1,152.999986747742,0|8,2:0|2:0,0:0:0:0:
10,8,22738,38,0,P|21:45|23:93,1,76.4999933738711,0|0,2:0|2:0,0:0:0:0:
1,168,23091,1,8,2:0:0:0:
1,168,23267,1,0,2:0:0:0:
58,230,23444,6,0,P|100:241|149:225,1,84.9999952316285,0|0,3:0|2:0,0:0:0:0:
187,160,23797,2,0,P|229:149|278:165,1,84.9999952316285,8|0,0:3|3:0,0:0:0:0:
323,223,24150,2,0,P|295:163|385:126,1,169.999990463257,0|0,2:0|3:0,0:0:0:0:
491,239,24855,5,0,3:0:0:0:
491,239,25032,2,0,B|468:197|489:162|489:162|514:118|483:71,1,169.999990463257,0|0,3:0|3:0,0:0:0:0:
422,22,25561,2,0,P|381:15|333:10,1,84.9999952316285,0|8,2:0|0:3,0:0:0:0:
268,60,25914,1,0,2:0:0:0:
268,60,26091,1,0,3:0:0:0:
310,133,26267,6,0,P|319:171|319:219,1,84.9999952316285,0|0,3:0|3:0,0:0:0:0:
291,297,26620,2,0,P|253:288|205:288,1,84.9999952316285,8|0,0:3|3:0,0:0:0:0:
148,349,26973,2,0,P|172:294|98:219,1,169.999990463257,0|0,2:0|2:0,0:0:0:0:
22,71,27679,37,0,3:0:0:0:
22,71,27855,2,0,P|106:70|190:57,1,169.999990463257,0|0,3:0|3:0,0:0:0:0:
264,14,28385,2,0,P|272:55|264:97,1,84.9999952316285,0|8,2:0|0:3,0:0:0:0:
194,144,28738,2,0,P|185:185|193:227,1,84.9999952316285,0|0,2:0|3:0,0:0:0:0:
258,282,29091,5,0,3:0:0:0:
258,282,29267,1,0,3:0:0:0:
428,282,29620,1,0,3:0:0:0:
428,282,29797,2,0,P|437:242|428:197,1,84.9999952316285,0|8,2:0|0:3,0:0:0:0:
346,175,30150,2,0,P|336:135|345:90,1,84.9999952316285,0|0,2:0|3:0,0:0:0:0:
401,28,30503,6,0,P|316:60|244:3,1,169.999990463257,0|8,3:0|0:3,0:0:0:0:
204,90,31032,1,0,3:0:0:0:
204,90,31208,2,0,P|149:98|115:89,1,84.9999952316285,0|8,2:0|0:3,0:0:0:0:
47,48,31561,2,0,P|36:89|48:137,1,84.9999952316285,0|0,2:0|3:0,0:0:0:0:
62,213,31914,6,0,P|159:194|236:219,1,169.999990463257,0|8,3:0|0:3,0:0:0:0:
280,279,32444,2,0,P|377:297|454:272,1,169.999990463257,0|8,3:0|0:3,0:0:0:0:
505,219,32973,2,0,P|513:176|499:134,1,84.9999952316285,8|8,0:3|0:3,0:0:0:0:
428,91,33326,37,0,3:0:0:0:
428,91,33503,2,0,P|385:83|343:97,1,84.9999952316285,0|8,2:0|0:1,0:0:0:0:
309,171,33855,2,0,L|309:-9,2,169.999990463257,0|8|0,1:0|0:1|1:0,0:0:0:0:
252,235,34738,6,0,P|209:244|166:229,1,84.9999952316285,2|2,2:0|2:0,0:0:0:0:
110,292,35091,2,0,P|88:253|89:208,1,84.9999952316285,2|2,2:0|2:0,0:0:0:0:
11,176,35444,2,0,P|40:143|84:130,1,84.9999952316285,2|2,2:0|2:0,0:0:0:0:
161,151,35797,1,2,2:0:0:0:
161,151,35973,1,0,0:0:0:0:
180,68,36150,6,0,P|220:85|246:123,1,84.9999952316285
328,105,36503,2,0,P|323:148|295:185,1,84.9999952316285
224,219,36855,1,0,0:0:0:0:
224,219,37032,2,0,L|240:307,2,84.9999952316285
166,156,37561,6,0,P|121:162|86:193,1,84.9999952316285
13,151,37914,2,0,P|5:195|24:238,1,84.9999952316285
63,305,38267,2,0,P|105:291|151:303,1,84.9999952316285
201,362,38620,1,0,0:0:0:0:
201,362,38797,1,0,0:0:0:0:
285,369,38973,38,0,P|324:348|348:307,1,84.9999952316285
431,325,39326,2,0,P|423:280|391:245,1,84.9999952316285
314,239,39679,1,2,2:0:0:0:
269,166,39855,1,8,2:0:0:0:
269,166,39944,1,8,2:0:0:0:
269,166,40032,2,0,L|275:63,1,84.9999952316285,10|0,2:0|2:0,0:0:0:0:
353,49,40385,6,0,P|388:71|410:112,1,84.9999952316285,2|2,2:0|2:0,0:0:0:0:
495,108,40738,2,0,P|484:149|451:183,1,84.9999952316285,2|2,2:0|2:0,0:0:0:0:
485,260,41091,2,0,P|443:263|400:243,1,84.9999952316285,2|2,2:0|2:0,0:0:0:0:
353,178,41444,1,2,2:0:0:0:
353,178,41620,1,0,0:0:0:0:
310,251,41797,6,0,P|271:267|229:264,1,84.9999952316285,2|2,2:0|2:0,0:0:0:0:
181,334,42150,2,0,P|153:302|143:261,1,84.9999952316285,2|2,2:0|2:0,0:0:0:0:
61,238,42503,2,0,P|82:201|118:179,1,84.9999952316285,2|2,2:0|2:0,0:0:0:0:
203,182,42855,1,0,0:0:0:0:
203,182,43032,2,0,L|210:91,2,84.9999952316285,0|2|0,0:0|2:0|0:0,0:0:0:0:
490,366,44267,6,0,B|465:321|485:276|485:276|502:237|475:191,1,169.999990463257,2|2,2:0|2:0,0:0:0:0:
405,162,44797,1,0,2:0:0:0:
220,337,45326,2,0,P|258:349|311:336,1,84.9999952316285,2|0,2:0|2:0,0:0:0:0:
308,256,45679,2,0,P|270:244|217:257,1,84.9999952316285,2|0,2:0|2:0,0:0:0:0:
150,290,46032,37,0,3:0:0:0:
150,290,46208,1,0,2:0:0:0:
87,231,46385,2,0,L|80:145,1,84.9999952316285,8|0,3:2|2:0,0:0:0:0:
154,104,46738,2,0,L|161:18,1,84.9999952316285,8|0,0:2|2:0,0:0:0:0:
238,53,47091,6,0,P|325:64|419:51,2,169.999990463257,8|0|8,3:2|3:0|0:2,0:0:0:0:
349,181,48150,2,0,P|342:223|352:275,1,84.9999952316285,8|0,0:2|2:0,0:0:0:0:
285,322,48503,2,0,P|322:341|375:348,1,84.9999952316285,8|0,0:2|2:0,0:0:0:0:
432,298,48855,5,0,3:0:0:0:
432,298,49032,1,0,2:0:0:0:
465,220,49208,2,0,L|470:130,1,84.9999952316285,8|0,3:2|2:0,0:0:0:0:
420,65,49561,2,0,P|381:56|330:70,1,84.9999952316285,8|0,0:2|2:0,0:0:0:0:
281,129,49914,6,0,P|241:149|132:87,2,169.999990463257,8|0|8,3:2|3:0|0:2,0:0:0:0:
249,296,50973,2,0,L|160:314,1,84.9999952316285,8|0,0:2|2:0,0:0:0:0:
102,370,51326,2,0,L|13:352,1,84.9999952316285,8|0,0:2|2:0,0:0:0:0:
17,267,51679,38,0,P|33:176|16:84,1,169.999990463257,8|8,3:2|3:2,0:0:0:0:
53,21,52208,1,8,0:2:0:0:
53,21,52385,2,0,L|148:8,1,84.9999952316285,8|8,3:2|0:2,0:0:0:0:
192,74,52738,2,0,L|287:87,1,84.9999952316285,8|8,3:2|0:2,0:0:0:0:
343,33,53091,6,0,L|438:20,1,84.9999952316285,8|8,3:2|0:2,0:0:0:0:
500,65,53444,2,0,L|513:160,1,84.9999952316285,8|8,3:2|0:2,0:0:0:0:
481,228,53797,2,0,P|436:220|385:240,1,84.9999952316285,8|8,3:2|0:2,0:0:0:0:
337,290,54150,2,0,P|292:297|241:277,1,84.9999952316285,8|8,3:2|0:2,0:0:0:0:
202,218,54503,6,0,L|207:170,3,42.4999976158143,8|8|8|8,3:2|0:2|3:2|0:2,0:0:0:0:
232,142,54855,2,0,L|227:94,3,42.4999976158143,8|8|8|8,3:2|0:2|3:2|0:2,0:0:0:0:
232,57,55208,2,0,P|192:35|145:40,1,84.9999952316285,8|8,3:2|3:2,0:0:0:0:
80,81,55561,1,8,3:2:0:0:
80,81,55738,1,8,3:2:0:0:
123,154,55914,6,0,P|120:200|99:249,1,84.9999952316285
63,309,56267,2,0,P|88:347|131:379,1,84.9999952316285
204,370,56620,2,0,P|269:346|336:371,1,127.499997711182,2|2,0:0|0:0,0:0:0:0:
483,297,57326,38,0,P|473:255|480:210,1,84.9999952316285,4|0,3:2|0:3,0:3:0:0:
504,179,57591,1,0,3:3:0:0:
504,179,57679,2,0,P|513:137|506:92,1,84.9999952316285,0|0,3:3|3:3,0:3:0:0:
452,30,58032,1,8,0:3:0:0:
380,76,58208,1,0,3:3:0:0:
380,76,58297,2,0,P|336:81|247:62,1,127.499992847443,8|8,0:3|0:3,0:3:0:0:
205,134,58738,5,0,3:3:0:0:
248,206,58914,2,0,P|217:289|139:278,1,169.999990463257,0|0,3:3|3:3,0:3:0:0:
97,216,59444,1,8,0:3:0:0:
43,281,59620,2,0,L|1:281,2,42.4999976158143,0|8|0,0:3|0:3|3:3,0:3:0:0:
93,349,59973,1,8,0:3:0:0:
148,285,60150,6,0,P|193:277|243:287,1,84.9999952316285,0|0,3:3|0:3,0:3:0:0:
267,305,60414,1,0,3:3:0:0:
267,305,60503,2,0,P|312:313|362:303,1,84.9999952316285,0|0,3:3|3:3,0:3:0:0:
422,352,60855,1,8,0:3:0:0:
491,302,61032,1,0,3:3:0:0:
491,302,61120,2,0,P|498:259|465:173,1,127.499992847443,8|8,0:3|0:3,0:3:0:0:
392,140,61561,5,0,3:3:0:0:
317,180,61738,2,0,P|231:191|136:176,1,169.999990463257,4|0,0:3|3:3,0:3:0:0:
88,120,62267,1,8,0:3:0:0:
153,65,62444,2,0,L|204:65,2,42.4999976158143,0|8|0,0:3|0:3|3:3,0:3:0:0:
87,10,62797,1,8,0:3:0:0:
16,72,62973,38,0,P|2:113|16:166,1,84.9999952316285,4|0,3:2|0:3,0:3:0:0:
38,184,63238,1,0,3:3:0:0:
38,184,63326,2,0,P|51:225|37:278,1,84.9999952316285,0|0,3:3|3:3,0:3:0:0:
7,341,63679,1,8,0:3:0:0:
91,345,63855,1,0,3:3:0:0:
91,345,63944,2,0,P|134:338|221:358,1,127.499992847443,8|8,0:3|0:3,0:3:0:0:
273,291,64385,5,0,3:3:0:0:
331,352,64561,2,0,P|417:347|446:266,1,169.999990463257,0|0,3:3|3:3,0:3:0:0:
405,203,65091,1,8,0:3:0:0:
452,132,65267,2,0,L|501:132,2,42.4999976158143,0|8|0,0:3|0:3|3:3,0:3:0:0:
400,64,65620,1,8,0:3:0:0:
356,137,65797,6,0,P|315:147|268:135,1,84.9999952316285,0|0,3:3|0:3,0:3:0:0:
232,126,66061,1,0,3:3:0:0:
232,126,66150,2,0,P|191:116|144:128,1,84.9999952316285,0|0,3:3|3:3,0:3:0:0:
87,183,66503,1,8,0:3:0:0:
20,130,66679,1,0,3:3:0:0:
20,130,66767,2,0,P|12:86|30:1,1,127.499992847443,8|8,0:3|0:3,0:3:0:0:
108,37,67208,53,0,3:3:0:0:
186,4,67385,2,0,P|267:31|358:0,1,169.999990463257,0|0,3:3|3:3,0:3:0:0:
414,58,67914,1,8,0:3:0:0:
370,131,68091,1,0,3:3:0:0:
370,131,68179,1,0,3:3:0:0:
370,131,68267,2,0,L|377:180,3,42.4999976158143,8|0|0|0,0:3|3:3|3:3|3:3,0:3:0:0:
403,205,68620,6,0,P|442:195|501:213,1,84.9999952316285,4|0,3:2|0:3,0:3:0:0:
511,237,68885,1,0,3:3:0:0:
511,237,68973,2,0,L|508:328,1,84.9999952316285,0|0,3:3|3:3,0:3:0:0:
445,380,69326,1,8,0:3:0:0:
376,329,69503,1,0,3:3:0:0:
376,329,69591,2,0,P|333:323|283:323,1,84.9999952316285,8|0,0:3|0:3,0:3:0:0:
251,335,69855,1,8,0:3:0:0:
180,382,70032,5,0,3:3:0:0:
110,333,70208,2,0,P|95:248|113:159,1,169.999990463257,0|0,3:3|3:3,0:3:0:0:
174,110,70738,1,8,0:3:0:0:
115,48,70914,2,0,L|115:6,2,42.4999976158143,0|8|0,0:3|0:3|3:3,0:3:0:0:
53,106,71267,1,8,0:3:0:0:
110,166,71444,6,0,P|144:189|200:189,1,84.9999952316285,0|0,3:3|0:3,0:3:0:0:
221,216,71708,1,0,3:3:0:0:
221,216,71797,2,0,P|261:208|300:168,1,84.9999952316285,0|0,3:3|3:3,0:3:0:0:
275,96,72150,1,8,0:3:0:0:
331,32,72326,1,0,3:3:0:0:
331,32,72414,2,0,P|374:21|425:21,1,84.9999952316285,8|0,0:3|0:3,0:3:0:0:
454,35,72679,1,8,0:3:0:0:
497,107,72855,37,0,3:3:0:0:
460,184,73032,2,0,P|371:195|271:170,1,169.999990463257,0|0,3:3|3:3,0:3:0:0:
275,96,73561,1,8,0:3:0:0:
302,15,73738,2,0,L|358:15,2,42.4999976158143,0|8|0,0:3|0:3|3:3,0:3:0:0:
217,3,74091,1,8,0:3:0:0:
160,66,74267,6,0,P|116:76|72:67,1,84.9999952316285,4|0,3:2|0:3,0:3:0:0:
40,46,74532,1,0,3:3:0:0:
40,46,74620,2,0,L|33:133,1,84.9999952316285,0|0,3:3|3:3,0:3:0:0:
84,199,74973,1,8,0:3:0:0:
38,271,75150,1,0,3:3:0:0:
38,271,75238,2,0,P|29:314|35:360,1,84.9999952316285,8|0,0:3|0:3,0:3:0:0:
65,382,75503,1,8,0:3:0:0:
139,341,75679,5,0,3:3:0:0:
217,373,75855,2,0,P|308:379|385:340,1,169.999990463257,0|0,3:3|3:3,0:3:0:0:
376,260,76385,1,8,0:3:0:0:
314,201,76561,2,0,L|268:201,2,42.4999976158143,0|8|0,0:3|0:3|3:3,0:3:0:0:
373,140,76914,1,8,0:3:0:0:
314,78,77091,6,0,P|271:71|217:82,1,84.9999952316285,0|0,3:3|3:3,0:3:0:0:
201,108,77355,1,0,3:3:0:0:
201,108,77444,2,0,P|158:115|104:104,1,84.9999952316285,0|0,3:3|3:3,0:3:0:0:
46,61,77797,1,8,0:3:0:0:
42,153,77973,1,0,3:3:0:0:
42,153,78061,1,0,3:3:0:0:
42,153,78150,2,0,L|42:206,3,42.4999976158143,8|0|0|0,0:3|3:3|3:3|3:3,0:3:0:0:
382,34,84150,38,0,P|400:114|379:191,1,152.999986747742,0|8,2:0|2:0,0:0:0:0:
437,246,84679,1,0,2:0:0:0:
437,246,84855,2,0,P|402:264|348:259,1,76.4999933738711,0|0,2:0|2:0,0:0:0:0:
354,348,85208,2,0,P|316:335|281:294,1,76.4999933738711,8|0,2:0|2:0,0:0:0:0:
288,223,85561,2,0,B|270:168|290:122|290:122|315:66|286:9,1,220.999977485658,0|0,2:0|2:0,0:0:0:0:
22,218,86973,6,0,P|58:210|108:222,1,76.4999933738711,0|0,2:0|2:0,0:0:0:0:
153,279,87326,2,0,P|189:287|239:275,1,76.4999933738711,8|0,2:0|2:0,0:0:0:0:
273,209,87679,2,0,P|257:284|330:322,1,152.999986747742,0|8,2:0|2:0,0:0:0:0:
433,314,88385,2,0,B|452:262|419:207|419:207|441:164|441:164|411:108|445:53,1,276.249971857073,0|0,2:0|2:0,0:0:0:0:
512,0,89444,1,8,2:0:0:0:
349,49,89797,6,0,P|308:58|262:46,1,84.9999952316285,0|0,3:0|2:0,0:0:0:0:
192,6,90150,2,0,P|151:-3|105:9,1,84.9999952316285,8|0,2:2|2:0,0:0:0:0:
52,69,90503,1,0,2:0:0:0:
52,69,90679,1,0,3:0:0:0:
177,183,91032,1,8,2:2:0:0:
117,242,91208,6,0,P|107:285|124:341,1,84.9999952316285,0|0,0:0|3:0,0:0:0:0:
185,371,91561,2,0,L|269:354,1,84.9999952316285,8|0,2:2|2:0,0:0:0:0:
300,274,91914,1,0,2:0:0:0:
300,274,92091,1,0,3:0:0:0:
248,111,92444,1,8,2:2:0:0:
248,111,92620,38,0,P|289:99|344:108,1,84.9999952316285,0|0,3:0|2:0,0:0:0:0:
383,36,92973,2,0,P|407:71|415:126,1,84.9999952316285,8|0,2:2|2:0,0:0:0:0:
496,139,93326,2,0,P|469:172|420:197,1,84.9999952316285,0|0,2:0|3:0,0:0:0:0:
348,190,93679,1,0,2:0:0:0:
348,190,93855,1,8,2:2:0:0:
296,257,94032,5,0,0:0:0:0:
221,215,94208,1,0,3:0:0:0:
145,253,94385,2,0,L|144:322,2,56.6666634877523,8|0|0,0:2|0:0|0:0,0:0:0:0:
69,221,94738,1,0,2:0:0:0:
69,221,94914,2,0,P|22:147|68:85,1,169.999990463257,0|8,3:0|2:2,0:0:0:0:
147,107,95444,6,0,P|190:106|234:89,1,84.9999952316285,0|0,3:0|0:0,0:0:0:0:
285,27,95797,2,0,P|328:28|372:45,1,84.9999952316285,8|0,2:2|0:0,0:0:0:0:
443,101,96150,1,0,2:0:0:0:
443,101,96238,1,0,0:0:0:0:
443,101,96326,2,0,L|437:193,1,84.9999952316285,0|2,0:0|2:0,0:0:0:0:
347,330,96855,6,0,L|255:324,1,84.9999952316285,0|0,2:0|0:0,0:0:0:0:
230,295,97120,1,0,0:0:0:0:
230,295,97208,2,0,P|216:255|224:203,1,84.9999952316285,8|0,2:2|0:0,0:0:0:0:
247,180,97473,1,0,0:0:0:0:
247,180,97561,2,0,P|261:140|253:88,1,84.9999952316285,0|0,2:0|0:0,0:0:0:0:
209,27,97914,1,2,0:0:0:0:
65,98,98267,37,0,3:0:0:0:
65,98,98444,2,0,P|58:141|70:190,1,84.9999952316285,0|8,2:0|2:2,0:0:0:0:
55,265,98797,1,0,2:0:0:0:
136,240,98973,1,0,2:0:0:0:
136,240,99150,2,0,P|179:240|225:260,1,84.9999952316285,0|0,3:0|2:0,0:0:0:0:
281,311,99503,6,0,P|324:311|370:291,1,84.9999952316285,8|0,0:2|2:0,0:0:0:0:
409,225,99855,1,0,3:0:0:0:
409,225,100032,2,0,L|474:225,2,56.6666634877523,8|0|0,2:2|0:0|2:0,0:0:0:0:
345,167,100385,2,0,P|336:125|345:79,1,84.9999952316285,0|0,2:0|3:0,0:0:0:0:
407,28,100738,1,8,2:2:0:0:
326,0,100914,1,8,2:2:0:0:
326,0,101091,6,0,L|147:9,1,169.999990463257,0|0,2:0|2:0,0:0:0:0:
106,78,101620,1,0,0:0:0:0:
106,78,101797,2,0,P|94:123|107:165,1,84.9999952316285,0|0,2:0|0:0,0:0:0:0:
188,169,102150,2,0,P|200:124|187:82,1,84.9999952316285,0|0,2:0|0:0,0:0:0:0:
156,9,102503,6,0,P|111:-5|64:2,1,84.9999952316285,0|0,2:0|0:0,0:0:0:0:
14,58,102855,1,0,2:0:0:0:
14,58,103032,1,0,0:0:0:0:
14,142,103208,2,0,L|14:319,1,169.999990463257,0|0,2:0|2:0,0:0:0:0:
352,275,104267,38,0,L|346:335,2,56.6666634877523,0|0|0,2:0|0:0|0:0,0:0:0:0:
315,195,104620,2,0,L|309:135,2,56.6666634877523,0|0|0,2:0|0:0|0:0,0:0:0:0:
265,267,104973,2,0,P|208:287|149:263,1,113.333326975505,0|0,2:0|0:0,0:0:0:0:
107,201,105326,6,0,L|38:192,2,56.6666634877523,0|0|0,2:0|0:0|0:0,0:0:0:0:
161,134,105679,2,0,L|230:125,2,56.6666634877523,0|0|0,2:0|0:0|0:0,0:0:0:0:
94,79,106032,2,0,L|25:70,2,56.6666634877523,0|0|0,2:0|0:0|0:0,0:0:0:0:
167,33,106385,2,0,P|208:17|267:27,1,84.9999952316285,10|0,2:0|0:0,0:0:0:0:
316,71,106738,6,0,L|367:63,2,42.4999976158143
259,133,107091,2,0,L|208:125,2,42.4999976158143
322,203,107444,1,0,0:0:0:0:
322,203,107532,1,0,0:0:0:0:
322,203,107620,2,0,P|334:246|327:288,1,84.9999952316285
172,355,108150,6,0,L|219:346,2,42.4999976158143,2|0|0,2:0|0:0|0:0,0:0:0:0:
103,305,108503,2,0,L|56:296,2,42.4999976158143,0|0|0,2:0|0:0|0:0,0:0:0:0:
168,250,108855,1,2,2:0:0:0:
168,250,108944,1,0,0:0:0:0:
168,250,109032,2,0,P|182:207|178:164,1,84.9999952316285,0|0,0:0|2:0,0:0:0:0:
302,51,109561,38,0,L|362:35,2,56.6666634877523,2|0|0,2:0|0:0|0:0,0:0:0:0:
222,89,109914,2,0,L|162:73,2,56.6666634877523,0|0|0,2:0|0:0|0:0,0:0:0:0:
268,165,110267,2,0,P|328:172|385:133,1,113.333326975505,2|0,2:0|0:0,0:0:0:0:
447,99,110620,2,0,L|463:219,1,113.333326975505,2|0,2:0|0:0,0:0:0:0:
455,302,110973,6,0,L|516:310,2,56.6666634877523,2|0|0,2:0|0:0|0:0,0:0:0:0:
383,352,111326,2,0,L|322:360,2,56.6666634877523,2|0|0,2:0|0:0|0:0,0:0:0:0:
371,258,111679,2,0,P|359:196|375:144,1,113.333326975505,2|0,2:0|0:0,0:0:0:0:
415,69,112032,2,0,L|293:58,1,113.333326975505
236,122,112385,6,0,P|223:198|223:277,1,152.999986747742
87,346,113091,2,0,P|86:269|73:194,1,152.999986747742
256,192,113620,12,0,116267,0:0:0:0:
90,304,117326,6,0,P|128:304|179:292,1,76.4999933738711,0|0,2:0|2:0,0:0:0:0:
221,233,117679,1,8,2:0:0:0:
221,233,117855,1,0,2:0:0:0:
169,166,118032,2,0,P|158:122|170:79,1,76.4999933738711,0|0,2:0|2:0,0:0:0:0:
247,81,118385,2,0,P|258:125|246:168,1,76.4999933738711,8|0,2:0|2:0,0:0:0:0:
221,233,118738,2,0,L|299:233,1,76.4999933738711,0|0,2:0|2:0,0:0:0:0:
352,296,119091,2,0,P|321:219|437:148,1,229.499980121613,8|0,2:0|2:0,0:0:0:0:
424,144,121561,38,0,L|413:40,1,76.4999933738711,0|0,2:0|2:0,0:0:0:0:
345,21,121914,1,8,2:0:0:0:
345,21,122091,2,0,P|266:45|216:-3,1,152.999986747742,0|0,2:0|2:0,0:0:0:0:
63,202,122973,2,0,P|55:283|112:338,1,152.999986747742,0|8,2:0|2:0,0:0:0:0:
172,377,123503,2,0,L|341:360,2,152.999986747742,0|0|0,2:0|2:0|2:0,0:0:0:0:
256,192,124385,12,0,127561,0:0:0:0:
477,21,128444,5,0,0:0:0:0:
435,94,128620,1,0,2:0:0:0:
435,94,128797,1,0,2:0:0:0:
472,168,128973,2,0,P|480:211|480:250,1,76.4999933738711,8|0,0:0|2:0,0:0:0:0:
428,310,129326,2,0,L|339:318,1,76.4999933738711,0|0,2:0|2:0,0:0:0:0:
230,199,129855,2,0,L|141:191,2,76.4999933738711,0|0|0,2:0|2:0|2:0,0:0:0:0:
297,147,130385,1,8,2:0:0:0:
217,47,131973,5,0,2:0:0:0:
175,120,132150,2,0,P|169:164|169:211,1,76.4999933738711,0|0,2:0|2:0,0:0:0:0:
230,253,132503,2,0,P|236:297|236:344,1,76.4999933738711,8|0,0:0|2:0,0:0:0:0:
165,373,132855,1,0,2:0:0:0:
165,373,133032,2,0,L|-8:384,1,165.749983114243,0|0,2:0|2:0,0:0:0:0:
70,54,134267,6,0,P|109:44|150:50,1,76.4999933738711,0|0,2:0|2:0,0:0:0:0:
211,99,134620,1,8,2:0:0:0:
211,99,134797,1,0,2:0:0:0:
167,171,134973,38,0,P|160:222|176:259,1,84.9999952316285,0|0,3:0|2:0,0:0:0:0:
241,302,135326,2,0,P|288:292|329:300,1,84.9999952316285,8|0,0:3|3:0,0:0:0:0:
379,362,135679,2,0,P|351:277|408:226,1,169.999990463257,0|8,2:0|3:0,0:0:0:0:
504,91,136385,5,0,3:0:0:0:
504,91,136561,2,0,P|413:105|335:89,1,169.999990463257,0|0,3:0|3:0,0:0:0:0:
286,20,137091,2,0,P|242:15|197:26,1,84.9999952316285,0|8,2:0|0:3,0:0:0:0:
157,96,137444,1,0,2:0:0:0:
157,96,137620,1,0,3:0:0:0:
220,152,137797,6,0,P|233:199|223:239,1,84.9999952316285,0|0,3:0|3:0,0:0:0:0:
166,295,138150,2,0,L|80:306,1,84.9999952316285,8|0,0:3|3:0,0:0:0:0:
21,365,138503,2,0,P|68:299|11:238,1,169.999990463257,0|8,2:0|2:3,0:0:0:0:
11,69,139208,5,0,3:0:0:0:
11,69,139385,2,0,B|53:46|88:67|88:67|132:92|179:61,1,169.999990463257,0|0,0:0|3:0,0:0:0:0:
240,13,139914,2,0,P|254:67|244:102,1,84.9999952316285,0|8,2:0|0:3,0:0:0:0:
183,150,140267,2,0,P|169:204|179:239,1,84.9999952316285,0|0,2:0|3:0,0:0:0:0:
241,284,140620,37,0,3:0:0:0:
241,284,140797,1,0,3:0:0:0:
311,236,140973,2,0,L|405:248,1,84.9999952316285,8|0,0:3|3:0,0:0:0:0:
498,107,141503,1,8,0:3:0:0:
498,107,141679,2,0,B|412:117|412:117|308:100,1,169.999990463257,0|0,2:0|3:0,0:0:0:0:
87,21,142561,2,0,P|124:13|179:28,1,84.9999952316285,0|0,3:0|2:0,0:0:0:0:
167,108,142914,2,0,P|130:116|75:101,1,84.9999952316285,8|0,0:3|2:0,0:0:0:0:
9,65,143267,1,0,3:0:0:0:
9,65,143444,6,0,P|0:153|0:240,1,169.999990463257,0|8,3:0|0:3,0:0:0:0:
51,302,143973,2,0,P|126:264|200:303,1,169.999990463257,0|8,3:0|0:3,0:0:0:0:
261,356,144503,2,0,P|305:352|345:339,1,84.9999952316285,8|8,0:3|0:3,0:0:0:0:
402,278,144855,5,0,3:0:0:0:
402,278,145032,2,0,L|393:190,1,84.9999952316285,0|8,2:0|0:1,0:0:0:0:
336,129,145385,2,0,P|426:164|488:117,2,169.999990463257,0|8|0,1:0|0:1|1:0,0:0:0:0:
297,52,146267,6,0,P|253:45|212:68,1,84.9999952316285,2|2,2:0|2:0,0:0:0:0:
151,11,146620,2,0,P|131:49|140:96,1,84.9999952316285,2|2,2:0|2:0,0:0:0:0:
66,137,146973,2,0,P|96:167|144:173,1,84.9999952316285,2|2,2:0|2:0,0:0:0:0:
217,152,147326,1,2,2:0:0:0:
217,152,147503,1,0,0:0:0:0:
299,171,147679,38,0,P|308:215|300:259,1,84.9999952316285
363,312,148032,2,0,P|323:334|279:340,1,84.9999952316285
219,285,148385,1,0,0:0:0:0:
219,285,148561,2,0,P|182:263|140:256,2,84.9999952316285
301,254,149091,6,0,P|307:212|299:171,1,84.9999952316285
360,111,149444,2,0,P|322:92|280:87,1,84.9999952316285
240,12,149797,2,0,P|210:42|193:80,1,84.9999952316285
216,162,150150,1,0,0:0:0:0:
216,162,150326,1,0,0:0:0:0:
131,150,150503,6,0,P|133:191|158:225,1,84.9999952316285
123,302,150855,2,0,P|163:312|203:299,1,84.9999952316285
263,239,151208,1,2,2:0:0:0:
325,312,151385,1,8,2:0:0:0:
325,312,151473,1,8,2:0:0:0:
325,312,151561,2,0,L|426:299,1,84.9999952316285,10|0,2:0|2:0,0:0:0:0:
462,234,151914,6,0,P|459:182|434:153,1,84.9999952316285,2|2,2:0|2:0,0:0:0:0:
484,84,152267,2,0,P|434:70|398:84,1,84.9999952316285,2|2,2:0|2:0,0:0:0:0:
347,17,152620,2,0,P|318:59|321:98,1,84.9999952316285,2|2,2:0|2:0,0:0:0:0:
359,167,152973,1,2,2:0:0:0:
359,167,153150,1,0,0:0:0:0:
287,211,153326,38,0,P|244:214|207:195,1,84.9999952316285
138,245,153679,2,0,P|121:205|128:163,1,84.9999952316285
60,113,154032,2,0,P|93:85|134:78,1,84.9999952316285
210,115,154385,1,0,0:0:0:0:
210,115,154561,2,0,L|217:27,2,84.9999952316285,0|2|0,0:0|2:0|0:0,0:0:0:0:
2,311,155797,6,0,B|44:290|81:311|81:311|122:332|181:297,1,169.999990463257,2|2,2:0|2:0,0:0:0:0:
218,239,156326,1,0,2:0:0:0:
471,268,156855,2,0,P|479:315|470:351,1,84.9999952316285,2|0,2:0|2:0,0:0:0:0:
384,347,157208,2,0,P|376:300|385:264,1,84.9999952316285,2|0,2:0|2:0,0:0:0:0:
425,189,157561,5,0,3:0:0:0:
425,189,157738,1,0,2:0:0:0:
363,130,157914,2,0,P|320:121|270:131,1,84.9999952316285,8|0,3:2|2:0,0:0:0:0:
230,196,158267,2,0,P|187:205|137:195,1,84.9999952316285,8|0,0:2|2:0,0:0:0:0:
104,125,158620,6,0,P|113:218|108:298,2,169.999990463257,8|0|8,3:2|3:0|0:2,0:0:0:0:
222,2,159679,2,0,P|267:-6|311:5,1,84.9999952316285,8|0,0:2|2:0,0:0:0:0:
349,74,160032,2,0,P|394:82|438:71,1,84.9999952316285,8|0,0:2|2:0,0:0:0:0:
496,17,160385,37,0,3:0:0:0:
496,17,160561,1,0,2:0:0:0:
512,101,160738,2,0,L|507:193,1,84.9999952316285,8|0,3:2|2:0,0:0:0:0:
451,250,161091,2,0,L|455:334,1,84.9999952316285,8|0,0:2|2:0,0:0:0:0:
371,323,161444,6,0,P|285:313|195:333,2,169.999990463257,8|0|8,3:2|3:0|0:2,0:0:0:0:
248,204,162503,2,0,P|238:162|246:118,1,84.9999952316285,8|0,0:2|2:0,0:0:0:0:
279,44,162855,2,0,L|188:35,1,84.9999952316285,8|0,0:2|2:0,0:0:0:0:
109,25,163208,6,0,P|123:118|102:213,1,169.999990463257,8|8,3:2|3:2,0:0:0:0:
73,269,163738,1,8,0:2:0:0:
73,269,163914,2,0,L|172:278,1,84.9999952316285,8|8,3:2|0:2,0:0:0:0:
223,330,164267,2,0,L|322:321,1,84.9999952316285,8|8,3:2|0:2,0:0:0:0:
383,360,164620,6,0,L|393:274,1,84.9999952316285,8|8,3:2|0:2,0:0:0:0:
457,220,164973,2,0,L|447:134,1,84.9999952316285,8|8,3:2|0:2,0:0:0:0:
370,173,165326,2,0,L|284:183,1,84.9999952316285,8|8,3:2|0:2,0:0:0:0:
219,128,165679,2,0,L|229:43,1,84.9999952316285,8|8,3:2|0:2,0:0:0:0:
314,45,166032,38,0,L|357:52,3,42.4999976158143,8|8|8|8,3:2|0:2|3:2|0:2,0:0:0:0:
393,31,166385,2,0,L|436:24,3,42.4999976158143,8|8|8|8,3:2|0:2|3:2|3:2,0:0:0:0:
469,49,166738,2,0,P|495:97|498:135,1,84.9999952316285,8|8,3:2|3:2,0:0:0:0:
481,210,167091,1,8,3:2:0:0:
481,210,167267,1,8,3:2:0:0:
504,291,167444,6,0,P|458:291|408:299,1,84.9999952316285
339,266,167797,2,0,P|295:281|251:306,1,84.9999952316285
202,363,168150,2,0,P|214:277|184:227,1,127.499997711182,2|2,0:0|0:0,0:0:0:0:
76,131,168855,6,0,P|118:138|163:124,1,84.9999952316285,4|0,3:2|0:3,0:3:0:0:
185,93,169120,1,0,3:3:0:0:
185,93,169208,2,0,P|227:86|272:100,1,84.9999952316285,0|0,3:3|3:3,0:3:0:0:
322,162,169561,1,8,0:3:0:0:
375,95,169737,1,0,3:3:0:0:
375,95,169826,2,0,P|419:90|506:113,1,127.499992847443,8|8,0:3|0:3,0:3:0:0:
455,185,170267,5,0,3:3:0:0:
498,258,170444,2,0,P|478:350|411:347,1,169.999990463257,0|0,3:3|3:3,0:3:0:0:
356,290,170973,1,8,0:3:0:0:
288,342,171150,2,0,L|288:386,2,42.4999976158143,0|8|0,0:3|0:3|3:3,0:3:0:0:
218,292,171503,1,8,0:3:0:0:
282,237,171679,38,0,P|289:193|284:150,1,84.9999952316285,0|0,3:3|0:3,0:3:0:0:
311,119,171944,1,0,3:3:0:0:
311,119,172032,2,0,P|284:82|250:56,1,84.9999952316285,0|0,3:3|3:3,0:3:0:0:
175,24,172385,1,8,0:3:0:0:
125,93,172561,1,0,3:3:0:0:
125,93,172650,2,0,P|77:100|-1:92,1,127.499992847443,8|8,0:3|0:3,0:3:0:0:
2,178,173091,5,0,3:3:0:0:
75,221,173267,2,0,P|160:235|247:219,1,169.999990463257,4|0,0:3|3:3,0:3:0:0:
293,152,173797,1,8,0:3:0:0:
247,80,173973,2,0,L|202:80,2,42.4999976158143,0|8|0,0:3|0:3|3:3,0:3:0:0:
292,7,174326,1,8,0:3:0:0:
341,76,174503,6,0,P|385:84|423:75,1,84.9999952316285,4|0,3:2|0:3,0:3:0:0:
461,55,174767,1,0,3:3:0:0:
461,55,174855,2,0,L|469:147,1,84.9999952316285,0|0,3:3|3:3,0:3:0:0:
417,208,175208,1,8,0:3:0:0:
479,265,175385,1,0,3:3:0:0:
479,265,175473,2,0,P|484:318|457:386,1,127.499992847443,8|8,0:3|0:3,0:3:0:0:
386,337,175914,5,0,3:3:0:0:
307,370,176091,2,0,P|213:366|182:293,1,169.999990463257,0|0,3:3|3:3,0:3:0:0:
221,233,176620,1,8,0:3:0:0:
178,158,176797,2,0,L|135:158,2,42.4999976158143,0|8|0,0:3|0:3|3:3,0:3:0:0:
230,91,177150,1,8,0:3:0:0:
184,19,177326,38,0,P|141:11|94:29,1,84.9999952316285,0|0,3:3|0:3,0:3:0:0:
64,43,177591,1,0,3:3:0:0:
64,43,177679,2,0,L|52:127,1,84.9999952316285,0|0,3:3|3:3,0:3:0:0:
0,195,178032,1,8,0:3:0:0:
74,235,178208,1,0,3:3:0:0:
74,235,178297,2,0,P|87:277|78:361,1,127.499992847443,8|8,0:3|0:3,0:3:0:0:
160,380,178738,5,0,3:3:0:0:
226,327,178914,2,0,P|309:305|386:349,1,169.999990463257,0|0,3:3|3:3,0:3:0:0:
455,384,179444,1,8,0:3:0:0:
508,318,179620,1,0,3:3:0:0:
508,318,179708,1,0,3:3:0:0:
508,318,179797,2,0,L|508:260,3,42.4999976158143,8|0|0|0,0:3|3:3|3:3|3:3,0:3:0:0:
473,250,180150,6,0,P|460:208|468:160,1,84.9999952316285,4|0,3:2|0:3,0:3:0:0:
496,139,180414,1,0,3:3:0:0:
496,139,180503,2,0,P|509:97|501:49,1,84.9999952316285,0|0,3:3|3:3,0:3:0:0:
427,20,180855,2,0,L|325:15,1,84.9999952316285,8|0,0:3|3:3,0:3:0:0:
299,17,181120,1,8,0:3:0:0:
299,17,181208,1,0,0:3:0:0:
243,81,181385,1,8,0:3:0:0:
289,151,181561,5,0,3:3:0:0:
248,226,181738,2,0,P|167:271|123:252,1,127.499992847443,0|0,3:3|3:3,0:3:0:0:
108,234,182091,1,0,0:0:0:0:
130,152,182267,1,8,0:3:0:0:
89,76,182444,2,0,L|25:76,2,42.4999976158143,0|8|0,0:3|0:3|3:3,0:3:0:0:
141,8,182797,1,8,0:3:0:0:
193,74,182973,38,0,P|234:82|290:68,1,84.9999952316285,0|0,3:3|0:3,0:3:0:0:
309,48,183238,1,0,3:3:0:0:
309,48,183326,2,0,P|350:40|406:54,1,84.9999952316285,0|0,3:3|3:3,0:3:0:0:
448,111,183679,2,0,L|439:214,1,84.9999952316285,8|0,0:3|3:3,0:3:0:0:
440,238,183944,1,8,0:3:0:0:
440,238,184032,1,0,0:3:0:0:
492,304,184208,1,8,0:3:0:0:
433,366,184385,5,0,3:3:0:0:
370,308,184561,2,0,P|287:288|194:307,1,169.999990463257,4|0,3:3|3:3,0:3:0:0:
146,365,185091,1,8,0:3:0:0:
85,305,185267,2,0,L|24:305,2,42.4999976158143,0|8|0,0:3|0:3|3:3,0:3:0:0:
138,239,185620,1,8,0:3:0:0:
79,177,185797,6,0,P|45:100|67:49,2,127.499992847443,0|0|0,3:2|3:2|3:2,0:0:0:0:
277,185,187208,6,0,L|309:137,2,56.6666634877523,2|0|0,0:0|0:0|0:0,0:0:0:0:
329,257,187561,2,0,L|409:239,2,56.6666634877523,2|0|0,0:0|0:0|0:0,0:0:0:0:
256,311,187914,2,0,L|168:304,1,56.6666634877523,2|0,0:2|0:0,2:0:0:0:
158,291,188150,2,0,P|116:213|158:124,1,169.999990463257
184,60,188620,38,0,L|241:51,2,56.6666634877523,2|0|0,0:0|0:0|0:0,0:0:0:0:
75,57,188973,2,0,L|108:10,2,56.6666634877523,2|0|0,0:0|0:0|0:0,0:0:0:0:
10,118,189326,2,0,L|14:156,4,28.3333317438762,2|0|0|0|0,0:0|0:0|0:0|0:0|0:0,0:0:0:0:
45,171,189679,2,0,L|38:262,1,84.9999952316285
101,313,190032,70,0,P|144:322|189:312,1,84.9999952316285,4|0,3:2|0:0,0:0:0:0:
213,284,190297,1,0,3:3:0:0:
213,284,190385,2,0,P|256:275|301:285,1,84.9999952316285,0|0,3:3|3:3,0:3:0:0:
370,324,190738,1,8,0:3:0:0:
436,271,190914,1,0,0:3:0:0:
436,271,191003,1,8,0:3:0:0:
436,271,191091,2,0,L|443:174,1,84.9999952316285,0|8,0:3|0:3,0:3:0:0:
413,105,191444,69,0,3:3:0:0:
323,68,191620,1,0,3:0:0:0:
246,106,191797,2,0,P|198:101|170:73,1,84.9999952316285,0|0,3:0|0:0,0:0:0:0:
113,11,192150,1,8,0:3:0:0:
64,80,192326,2,0,L|14:80,2,42.4999976158143,0|8|0,0:3|0:3|3:3,0:3:0:0:
113,149,192679,1,8,0:3:0:0:
172,76,192855,6,0,P|204:103|246:106,1,84.9999952316285,0|0,3:0|0:0,0:0:0:0:
281,102,193120,1,0,3:3:0:0:
281,102,193208,2,0,P|313:75|354:72,1,84.9999952316285,0|0,3:0|3:0,0:0:0:0:
428,30,193561,1,8,0:3:0:0:
487,110,193738,1,0,0:3:0:0:
487,110,193826,1,8,0:3:0:0:
487,110,193914,2,0,L|483:195,1,84.9999952316285,0|8,0:3|0:3,0:3:0:0:
411,243,194267,69,0,3:3:0:0:
414,328,194444,1,0,0:0:0:0:
336,362,194620,2,0,P|288:352|261:320,1,84.9999952316285,0|0,3:0|0:0,0:0:0:0:
261,239,194973,1,8,0:3:0:0:
310,169,195150,2,0,L|356:169,2,42.4999976158143,0|8|0,0:3|0:3|3:3,0:3:0:0:
254,104,195503,1,8,0:3:0:0:
205,173,195679,6,0,P|164:183|110:161,1,84.9999952316285,4|0,3:2|0:3,0:3:0:0:
99,135,195944,1,0,3:3:0:0:
99,135,196032,2,0,P|58:125|4:147,1,84.9999952316285,0|0,3:3|3:3,0:3:0:0:
3,220,196385,1,8,0:3:0:0:
70,289,196561,1,0,3:3:0:0:
70,289,196650,1,8,0:3:0:0:
70,289,196738,2,0,L|157:294,1,84.9999952316285,0|8,0:3|0:3,0:3:0:0:
216,234,197091,69,0,3:3:0:0:
270,299,197267,2,0,P|349:330|406:263,1,169.999990463257,0|0,3:3|3:3,0:3:0:0:
357,204,197797,1,8,0:3:0:0:
402,132,197973,2,0,L|444:132,2,42.4999976158143,0|8|0,0:3|0:3|3:3,0:3:0:0:
349,64,198326,1,8,0:3:0:0:
295,130,198503,6,0,P|254:141|211:127,1,84.9999952316285,0|0,3:3|3:3,0:3:0:0:
188,95,198767,1,0,3:3:0:0:
188,95,198855,2,0,P|147:84|104:98,1,84.9999952316285,0|0,3:3|3:3,0:3:0:0:
59,166,199208,1,8,0:3:0:0:
59,166,199297,1,0,3:3:0:0:
59,166,199385,1,0,3:3:0:0:
59,166,199473,1,0,3:3:0:0:
59,166,199561,2,0,L|55:224,3,42.4999976158143,8|0|0|0,0:3|3:3|3:3|3:3,0:3:0:0:
76,241,199914,54,0,P|114:252|162:238,1,76.4999933738711,2|0,0:0|0:0,0:0:0:0:
220,295,200267,2,0,P|259:288|296:255,1,76.4999933738711
346,202,200620,2,0,B|358:162|344:123|344:123|326:84|347:39,1,152.999986747742,2|0,0:0|0:0,0:0:0:0:
49,333,202454,38,0,P|93:343|128:333,1,76.4999933738711,2|0,0:0|0:0,0:0:0:0:
183,276,202807,2,0,P|227:266|262:276,1,76.4999933738711,0|0,0:0|0:0,0:0:0:0:
306,341,203160,2,0,P|295:260|341:187,1,152.999986747742,2|2,0:0|0:0,0:0:0:0:
497,29,207395,6,0,P|458:22|416:34,1,76.4999933738711,0|2,0:0|0:0,0:0:0:0:
367,94,207748,2,0,P|328:101|286:89,1,76.4999933738711,0|2,0:0|0:0,0:0:0:0:
215,58,208101,1,0,0:0:0:0:
215,58,208277,1,2,0:0:0:0:
197,140,208454,6,0,L|208:223,1,76.4999933738711,0|2,0:0|0:0,0:0:0:0:
271,270,208807,2,0,P|198:246|135:291,1,152.999986747742,2|2,0:0|0:0,0:0:0:0:
