osu file format v14

[General]
AudioFilename: audio.mp3
AudioLeadIn: 0
PreviewTime: -1
Countdown: 1
SampleSet: Soft
StackLeniency: 0.7
Mode: 0
LetterboxInBreaks: 0
WidescreenStoryboard: 0

[Editor]
Bookmarks: 1161,11749,23749,35043,46337,57631,68925,88690
DistanceSpacing: 1
BeatDivisor: 4
GridSize: 4
TimelineZoom: 1

[Metadata]
Title:Kaen
TitleUnicode:火炎
Artist:Ziyoou-vachi
ArtistUnicode:女王蜂
Creator:Canonbomb18
Version:Forsaken
Source:どろろ
Tags:
BeatmapID:1933097
BeatmapSetID:925428

[Difficulty]
HPDrainRate:6
CircleSize:4
OverallDifficulty:8
ApproachRate:9.2
SliderMultiplier:1.4
SliderTickRate:1

[Events]
//Background and Video events
0,0,"Dororo-TICGN.jpg",0,0
//Break Periods
//Storyboard Layer 0 (Background)
//Storyboard Layer 1 (Fail)
//Storyboard Layer 2 (Pass)
//Storyboard Layer 3 (Foreground)
//Storyboard Sound Samples

[TimingPoints]
1161,352.941176470588,4,2,0,30,1,0
1161,-133.333333333333,4,2,0,30,0,0
2219,-200,4,2,0,30,0,0
6102,-133.333333333333,4,2,0,30,0,0
7866,-200,4,2,0,30,0,0
11749,-100,4,2,0,30,0,0

[Colours]
Combo1 : 255,192,0
Combo2 : 128,128,128
Combo3 : 255,0,0
Combo4 : 128,128,255

[HitObjects]
189,119,1161,5,0,0:0:0:0:
189,119,1337,2,0,L|149:158,1,52.5000020027161
111,247,1690,1,0,0:0:0:0:
209,261,1866,2,0,L|246:298,1,52.5000020027161
359,175,2219,2,0,B|348:103|281:127|281:127|267:57|192:56|151:133|225:171|225:171|264:222|155:288|110:238,1,490
255,197,6102,5,0,0:0:0:0:
325,132,6278,1,0,0:0:0:0:
284,45,6455,1,0,0:0:0:0:
188,57,6631,1,0,0:0:0:0:
101,185,6808,1,0,0:0:0:0:
254,157,6984,1,0,0:0:0:0:
407,129,7160,1,0,0:0:0:0:
319,257,7337,1,0,0:0:0:0:
229,384,7513,6,0,L|266:347,1,52.5000020027161
245,193,7866,2,0,P|224:99|408:201,1,490
329,126,11749,6,0,L|269:184,1,70
148,312,12102,1,0,0:0:0:0:
273,334,12278,1,0,0:0:0:0:
182,165,12455,2,0,L|232:116,1,70
347,6,12808,1,0,0:0:0:0:
447,36,12984,1,0,0:0:0:0:
447,36,13072,1,0,0:0:0:0:
447,36,13160,1,0,0:0:0:0:
446,133,13337,1,0,0:0:0:0:
281,233,13513,1,0,0:0:0:0:
282,138,13690,1,0,0:0:0:0:
275,131,13778,1,0,0:0:0:0:
267,126,13866,6,0,L|218:75,1,70
17,87,14219,2,0,L|65:137,1,70
134,203,14572,1,0,0:0:0:0:
159,226,14660,1,0,0:0:0:0:
168,260,14748,1,0,0:0:0:0:
159,293,14836,1,0,0:0:0:0:
134,317,14925,1,0,0:0:0:0:
219,369,15102,1,0,0:0:0:0:
253,367,15190,1,0,0:0:0:0:
288,366,15278,5,0,0:0:0:0:
382,360,15455,1,0,0:0:0:0:
495,210,15631,2,0,L|446:159,1,70
441,77,15984,1,0,0:0:0:0:
441,77,16072,1,0,0:0:0:0:
441,77,16160,1,0,0:0:0:0:
262,29,16337,1,0,0:0:0:0:
227,116,16513,1,0,0:0:0:0:
385,12,16690,6,0,L|434:63,1,70
332,224,17043,1,0,0:0:0:0:
285,139,17219,1,0,0:0:0:0:
95,130,17396,5,0,0:0:0:0:
151,279,17572,1,0,0:0:0:0:
203,159,17749,1,0,0:0:0:0:
258,233,17925,1,0,0:0:0:0:
359,75,18102,6,0,L|310:24,1,70
123,21,18455,1,0,0:0:0:0:
186,98,18631,1,0,0:0:0:0:
186,98,18719,1,0,0:0:0:0:
186,98,18808,1,0,0:0:0:0:
137,180,18984,1,0,0:0:0:0:
183,364,19160,2,0,L|134:313,1,70
129,306,19425,1,0,0:0:0:0:
122,298,19513,5,0,0:0:0:0:
62,228,19690,1,0,0:0:0:0:
137,47,19866,2,0,L|186:98,1,70
330,225,20219,1,0,0:0:0:0:
354,250,20308,1,0,0:0:0:0:
387,259,20396,1,0,0:0:0:0:
421,250,20484,1,0,0:0:0:0:
444,225,20572,1,0,0:0:0:0:
383,167,20749,1,0,0:0:0:0:
383,167,20837,1,0,0:0:0:0:
383,167,20925,5,0,0:0:0:0:
467,190,21102,1,0,0:0:0:0:
415,375,21278,2,0,L|366:324,1,70
361,317,21543,1,0,0:0:0:0:
355,310,21631,1,0,0:0:0:0:
386,218,21808,1,0,0:0:0:0:
305,42,21984,1,0,0:0:0:0:
400,71,22160,1,0,0:0:0:0:
400,71,22249,1,0,0:0:0:0:
400,71,22337,5,0,0:0:0:0:
343,148,22513,1,0,0:0:0:0:
190,35,22690,2,0,L|139:84,1,70
154,336,23043,5,0,0:0:0:0:
216,155,23219,1,0,0:0:0:0:
324,312,23396,1,0,0:0:0:0:
148,234,23572,1,0,0:0:0:0:
360,87,23749,6,0,L|409:138,1,70
376,360,24102,1,0,0:0:0:0:
275,240,24278,2,0,L|226:189,1,70
106,86,24631,1,0,0:0:0:0:
53,311,24808,2,0,L|104:262,1,70
270,110,25160,6,0,P|309:99|352:103,1,70
453,220,25513,1,0,0:0:0:0:
418,221,25601,1,0,0:0:0:0:
385,234,25689,1,0,0:0:0:0:
359,256,25777,1,0,0:0:0:0:
341,286,25865,1,0,0:0:0:0:
200,362,26043,1,0,0:0:0:0:
92,170,26219,1,0,0:0:0:0:
241,213,26396,1,0,0:0:0:0:
411,63,26572,6,0,L|462:14,1,70
422,210,26925,2,0,L|371:161,1,70
352,147,27190,1,0,0:0:0:0:
333,131,27278,1,0,0:0:0:0:
204,42,27455,1,0,0:0:0:0:
27,170,27631,2,0,L|76:221,1,70
243,368,27984,5,0,0:0:0:0:
234,211,28160,1,0,0:0:0:0:
457,235,28337,2,0,L|408:286,1,70
389,304,28602,1,0,0:0:0:0:
370,320,28690,1,0,0:0:0:0:
216,322,28866,1,0,0:0:0:0:
63,152,29043,1,0,0:0:0:0:
61,307,29219,1,0,0:0:0:0:
222,142,29396,2,0,L|271:91,1,70
