osu file format v14

[General]
AudioFilename: audio.mp3
AudioLeadIn: 0
PreviewTime: 59463
Countdown: 0
SampleSet: Soft
StackLeniency: 0.4
Mode: 0
LetterboxInBreaks: 0
WidescreenStoryboard: 0

[Editor]
DistanceSpacing: 1.3
BeatDivisor: 4
GridSize: 8
TimelineZoom: 2.5

[Metadata]
Title:Outlaw no Shoushin
TitleUnicode:アウトローの傷心
Artist:Zips feat. Kagamine Len
ArtistUnicode:じっぷす feat. 鏡音レン
Creator:Nevo
Version:Disparity
Source:
Tags:regraz mafumafu addy2607 KaedeharaKazuha glaceon wanpachi Cycopton xandit bokeru vocaloid japanese rock Heartbreak
BeatmapID:2905784
BeatmapSetID:1409201

[Difficulty]
HPDrainRate:6
CircleSize:4.2
OverallDifficulty:9
ApproachRate:9.6
SliderMultiplier:1.7
SliderTickRate:1

[Events]
//Background and Video events
0,0,"44512015_p0.jpg",0,0
//Break Periods
2,78282,85573
//Storyboard Layer 0 (Background)
//Storyboard Layer 1 (Fail)
//Storyboard Layer 2 (Pass)
//Storyboard Layer 3 (Foreground)
//Storyboard Layer 4 (Overlay)
//Storyboard Sound Samples

[TimingPoints]
368,285.714285714286,4,2,1,60,1,0
368,-125,4,2,1,60,0,0
4368,-125,4,2,1,100,0,0
4939,-83.3333333333333,4,2,1,100,0,0
23225,-117.647058823529,4,2,1,70,0,0
25510,-133.333333333333,4,2,1,70,0,0
32082,-133.333333333333,4,2,1,80,0,0
32368,-100,4,2,1,80,0,0
41510,-90.9090909090909,4,2,1,80,0,0
58653,-133.333333333333,4,2,1,80,0,0
59225,-133.333333333333,4,2,1,5,0,0
59510,-181.818181818181,4,2,1,60,0,0
59796,-74.074074074074,4,2,1,100,0,1
76939,-74.074074074074,4,2,1,70,0,1
77796,-74.074074074074,4,2,1,100,0,1
78082,-74.074074074074,4,2,1,100,0,0
86082,-100,4,2,1,100,0,0
86653,-100,4,2,1,70,0,0
86939,-133.333333333333,4,2,1,70,0,0
96368,-100,4,2,1,80,0,0
123510,-285.714285714284,4,2,1,70,0,0
123796,-74.074074074074,4,2,1,100,0,1
140939,-74.074074074074,4,2,1,70,0,0
144368,-400,4,2,1,70,0,0
153510,-153.846153846153,4,2,1,80,0,0
159225,-133.333333333333,4,2,1,80,0,0
160382,271.493212669683,4,2,1,80,1,0
161467,327.868852459016,4,2,1,80,1,0
161794,437.956204379562,4,2,1,80,1,0
161903,301.507537688442,4,2,1,80,1,0
162205,444.444444444444,4,2,1,80,1,0
162648,285.714285714286,4,2,1,80,1,0
162648,-399.999999999997,4,2,1,80,0,0
162862,-399.999999999997,4,2,1,5,0,0
162933,-71.4285714285714,4,2,1,100,0,1
180933,-71.4285714285714,4,2,1,100,0,0
199220,-71.4285714285714,4,2,1,60,0,0

[Colours]
Combo1 : 0,91,183
Combo2 : 192,192,192
Combo3 : 124,233,230

[HitObjects]
357,325,368,6,1,L|430:314,2,68,2|0|2,0:0|0:0|0:0,0:0:0:0:
465,242,796,2,1,P|488:258|510:305,1,68,0|0,0:0|0:0,0:0:0:0:
155,325,1225,6,1,L|82:314,2,68,2|0|2,0:0|0:0|0:0,0:0:0:0:
47,242,1653,2,1,P|23:258|1:305,1,68,0|0,0:0|0:0,0:0:0:0:
257,358,2082,1,10,0:3:0:0:
257,358,2153,2,1,B|224:266|290:266|256:180,1,170,8|0,0:3|0:0,0:0:0:0:
347,51,2653,6,1,L|326:141,2,68,2|0|2,0:0|0:0|0:0,0:0:0:0:
503,149,3082,2,1,L|513:218,1,68,0|0,0:0|0:0,0:0:0:0:
165,51,3510,6,1,L|186:141,2,68,2|0|2,0:0|0:0|0:0,0:0:0:0:
9,149,3939,2,1,L|-1:218,1,68,0|0,0:0|0:0,0:0:0:0:
255,36,4368,5,10,0:3:0:0:
327,194,4510,1,4,0:3:0:0:
162,173,4653,2,1,P|205:145|285:129,1,102,12|0,0:0|0:0,0:0:0:0:
345,93,4939,6,1,L|326:197,1,102,6|2,3:2|1:0,0:0:0:0:
495,202,5225,2,1,L|477:301,1,102,10|2,0:0|1:0,0:0:0:0:
299,346,5510,1,2,3:2:0:0:
388,279,5653,1,2,1:0:0:0:
256,264,5796,1,10,0:0:0:0:
396,298,5939,1,2,1:0:0:0:
167,93,6082,6,1,L|186:197,1,102,2|2,3:2|1:0,0:0:0:0:
17,202,6368,2,1,L|34:301,1,102,10|2,0:0|1:0,0:0:0:0:
213,346,6653,1,2,3:2:0:0:
124,279,6796,1,2,1:0:0:0:
256,264,6939,1,10,0:0:0:0:
116,298,7082,1,2,1:0:0:0:
331,137,7225,6,1,P|397:121|437:133,1,102,2|2,3:2|1:0,0:0:0:0:
181,137,7510,2,1,P|115:121|75:133,1,102,10|2,0:0|1:0,0:0:0:0:
255,183,7796,1,2,3:2:0:0:
203,52,7939,1,2,1:0:0:0:
127,208,8082,1,10,0:0:0:0:
219,39,8225,1,2,1:0:0:0:
308,284,8368,5,2,3:2:0:0:
181,137,8510,1,2,1:0:0:0:
63,289,8653,1,10,0:0:0:0:
255,183,8796,1,2,1:0:0:0:
290,372,8939,1,2,3:2:0:0:
197,296,9082,1,2,1:0:0:0:
420,356,9225,2,1,P|450:338|497:233,1,153,10|0,0:0|0:0,0:0:0:0:
448,126,9510,6,1,L|475:255,1,102,6|2,3:2|1:0,0:0:0:0:
273,100,9796,2,1,L|293:0,1,102,10|2,0:0|1:0,0:0:0:0:
372,184,10082,1,2,3:2:0:0:
127,112,10225,1,2,1:0:0:0:
356,201,10368,1,10,0:0:0:0:
202,236,10510,1,2,1:0:0:0:
327,383,10653,6,1,L|300:254,1,102,2|2,3:2|1:0,0:0:0:0:
108,203,10939,2,1,L|87:302,1,102,10|2,0:0|1:0,0:0:0:0:
249,115,11225,1,2,3:2:0:0:
11,161,11368,1,2,1:0:0:0:
235,103,11510,1,10,0:0:0:0:
113,57,11653,1,2,1:0:0:0:
235,233,11796,6,1,P|288:228|327:197,1,102,2|2,3:2|1:0,0:0:0:0:
360,12,12082,2,1,P|337:60|345:109,1,102,10|2,0:0|1:0,0:0:0:0:
506,226,12368,1,2,3:2:0:0:
432,70,12510,1,2,1:0:0:0:
321,255,12653,1,10,0:0:0:0:
428,177,12796,1,2,1:0:0:0:
211,182,12939,5,2,3:2:0:0:
414,268,13082,1,2,1:0:0:0:
133,302,13225,1,10,0:0:0:0:
321,255,13368,1,2,1:0:0:0:
92,207,13510,1,2,3:2:0:0:
290,344,13653,1,2,1:0:0:0:
31,372,13796,1,10,0:0:0:0:
225,282,13939,1,8,0:0:0:0:
225,282,14010,1,8,0:0:0:0:
225,282,14082,6,1,L|210:177,1,102,6|2,3:2|1:0,0:0:0:0:
399,368,14368,2,1,L|414:263,1,102,10|2,0:0|1:0,0:0:0:0:
473,76,14653,1,2,3:2:0:0:
300,189,14796,1,2,1:0:0:0:
158,12,14939,1,10,0:0:0:0:
309,97,15082,1,2,1:0:0:0:
117,203,15225,6,1,P|47:200|13:180,1,102,2|2,3:2|1:0,0:0:0:0:
211,79,15510,2,1,P|281:82|315:102,1,102,10|2,0:0|1:0,0:0:0:0:
394,273,15796,1,2,3:2:0:0:
239,188,15939,1,2,1:0:0:0:
416,151,16082,1,10,0:0:0:0:
221,206,16225,1,2,1:0:0:0:
481,321,16368,6,1,P|491:248|478:215,1,102,2|2,3:2|1:0,0:0:0:0:
326,41,16653,2,1,P|316:114|329:147,1,102,10|2,0:0|1:0,0:0:0:0:
426,4,16939,1,2,3:2:0:0:
227,32,17082,1,2,1:0:0:0:
448,16,17225,1,10,0:0:0:0:
210,130,17368,1,2,1:0:0:0:
397,231,17510,5,2,3:2:0:0:
296,94,17653,1,2,1:0:0:0:
188,290,17796,1,10,0:0:0:0:
318,181,17939,1,2,1:0:0:0:
400,357,18082,1,2,3:2:0:0:
281,260,18225,1,2,1:0:0:0:
469,202,18368,2,1,P|400:187|283:182,1,153,10|0,0:0|0:0,0:0:0:0:
200,150,18653,6,1,P|137:165|85:184,1,102,6|2,3:2|1:0,0:0:0:0:
272,361,18939,2,1,L|281:249,1,102,10|2,0:0|1:0,0:0:0:0:
268,63,19225,1,2,3:2:0:0:
168,247,19368,1,2,1:0:0:0:
311,162,19510,1,10,0:0:0:0:
164,49,19653,1,2,1:0:0:0:
391,271,19796,6,1,P|454:256|506:237,1,102,2|2,3:2|1:0,0:0:0:0:
319,60,20082,2,1,L|310:172,1,102,10|2,0:0|1:0,0:0:0:0:
323,358,20368,1,2,3:2:0:0:
423,174,20510,1,2,1:0:0:0:
280,259,20653,1,10,0:0:0:0:
427,372,20796,1,2,1:0:0:0:
161,340,20939,6,1,L|42:352,1,102,2|2,3:2|1:0,0:0:0:0:
209,151,21225,2,1,L|328:163,1,102,10|2,0:0|1:0,0:0:0:0:
122,211,21510,1,2,3:2:0:0:
86,54,21653,1,2,1:0:0:0:
236,250,21796,1,10,0:0:0:0:
9,248,21939,1,2,1:0:0:0:
201,67,22082,5,2,3:2:0:0:
155,302,22225,1,2,1:0:0:0:
83,103,22368,1,10,0:0:0:0:
310,161,22510,1,2,1:0:0:0:
97,231,22653,1,2,3:2:0:0:
187,152,22796,1,10,0:0:0:0:
36,26,22939,1,10,0:0:0:0:
14,54,23010,1,8,0:0:0:0:
2,87,23082,1,8,0:0:0:0:
0,123,23153,1,8,0:0:0:0:
10,160,23225,6,1,L|34:316,1,144.500000000001,6|2,3:2|3:2,0:0:0:0:
73,378,23653,2,1,P|113:354|159:344,1,72.2500000000003,2|0,0:0|3:2,0:0:0:0:
201,280,23939,2,1,P|233:285|284:307,1,72.2500000000003,2|0,0:0|3:2,0:0:0:0:
348,371,24225,6,1,P|406:346|491:338,1,144.500000000001,2|0,0:0|0:0,0:0:0:0:
412,261,24653,2,1,P|378:215|367:169,1,72.2500000000003,2|0,3:2|0:0,0:0:0:0:
492,118,24939,2,1,P|469:170|434:202,1,72.2500000000003,2|0,3:2|0:0,0:0:0:0:
331,128,25225,2,1,B|293:118|293:118|253:137,1,72.2500000000003,2|0,3:2|0:0,0:0:0:0:
92,52,25510,6,1,P|172:77|248:223,1,255.000000000001,2|0,3:2|3:2,0:0:0:0:
163,279,26225,2,1,P|151:244|151:205,1,63.7500000000002,2|2,0:0|3:2,0:0:0:0:
226,344,26510,2,1,B|174:391|109:352|109:352|63:373|63:373|-17:324|27:239,1,318.750000000001,2|0,0:0|3:2,0:0:0:0:
83,122,27368,2,1,P|89:142|87:191,1,63.7500000000002,2|2,0:0|3:2,0:0:0:0:
27,42,27653,6,1,B|99:9|171:62|171:62|199:52|199:52|278:87|341:33,1,318.750000000001,2|0,0:0|3:2,0:0:0:0:
418,0,28510,2,1,P|457:3|482:20,1,63.7500000000002,2|2,0:0|3:2,0:0:0:0:
512,104,28796,2,1,P|532:138|490:287,1,191.25,2|0,0:0|3:2,0:0:0:0:
501,277,29510,2,1,P|456:267|359:264,1,127.5,2|0,3:2|3:2,0:0:0:0:
216,372,30082,6,1,P|265:346|284:273,1,127.5,2|2,3:2|3:2,0:0:0:0:
186,233,30510,2,1,L|199:302,1,63.7500000000002,2|0,0:0|3:2,0:0:0:0:
109,265,30796,2,1,L|123:333,1,63.7500000000002,2|0,0:0|3:2,0:0:0:0:
14,240,31082,2,1,L|43:371,1,127.5,2|0,0:0|0:0,0:0:0:0:
146,164,31510,1,0,3:2:0:0:
20,113,31796,1,0,3:2:0:0:
20,113,32082,6,1,L|67:103,1,31.8750000000001,8|0,0:0|0:0,0:0:0:0:
152,52,32225,2,1,L|201:63,1,31.8750000000001,8|8,0:0|0:0,0:0:0:0:
268,146,32368,6,1,L|403:130,1,127.5,6|0,3:2|0:0,0:0:0:0:
453,77,32653,1,10,0:0:0:0:
252,169,32796,2,1,P|229:216|230:253,1,85,2|0,3:2|0:0,0:0:0:0:
373,345,33082,2,1,P|343:301|311:283,1,85,2|8,3:2|0:0,0:0:0:0:
106,339,33368,6,1,P|55:348|5:247,1,170,2|0,0:0|0:0,0:0:0:0:
103,181,33796,2,1,L|75:298,1,85,10|0,0:0|3:2,0:0:0:0:
12,104,34082,2,1,L|31:21,1,85,2|0,0:0|3:2,0:0:0:0:
200,91,34368,2,1,B|155:99|155:99|110:81,1,85,10|0,0:0|0:0,0:0:0:0:
302,6,34653,6,1,B|343:-4|403:12|403:12|430:38|477:38,1,170,2|8,3:2|0:0,0:0:0:0:
346,101,35082,2,1,P|395:127|513:136,1,170,0|2,3:2|3:2,0:0:0:0:
254,75,35510,1,10,0:0:0:0:
310,266,35653,6,1,P|333:198|345:83,1,170,2|0,0:0|0:0,0:0:0:0:
186,240,36082,2,1,P|234:179|238:165,1,85,8|0,0:0|3:2,0:0:0:0:
79,218,36368,2,1,P|88:295|95:307,1,85,0|2,0:0|3:2,0:0:0:0:
167,352,36653,2,1,B|208:336|208:336|260:339,1,85,10|2,0:0|0:0,0:0:0:0:
406,369,36939,6,1,P|458:363|470:259,1,170,0|8,3:2|0:0,0:0:0:0:
333,200,37368,2,1,P|390:246|480:203,1,170,0|0,3:2|3:2,0:0:0:0:
419,82,37796,2,1,B|402:118|402:118|406:171,1,85,10|2,0:0|0:0,0:0:0:0:
493,28,38082,6,1,L|321:48,1,170,0|8,3:2|0:0,0:0:0:0:
261,156,38510,1,0,3:2:0:0:
208,100,38653,2,1,L|36:80,1,170,2|8,0:0|0:0,0:0:0:0:
129,12,39082,1,0,0:0:0:0:
148,186,39225,6,1,P|142:252|133:293,1,85,2|0,3:2|0:0,0:0:0:0:
85,127,39510,1,10,0:0:0:0:
238,238,39653,2,1,L|326:224,1,85,2|0,3:2|0:0,0:0:0:0:
93,343,39939,2,1,L|5:329,1,85,2|8,3:2|0:0,0:0:0:0:
305,321,40225,5,2,0:0:0:0:
305,321,40296,1,8,0:0:0:0:
305,321,40368,2,1,B|373:309|373:309|419:316|419:316|491:301,1,170,0|8,3:2|0:0,0:0:0:0:
414,138,40796,1,0,3:2:0:0:
414,138,40939,2,1,P|402:190|418:226,1,85,0|8,3:2|0:0,0:0:0:0:
464,33,41225,1,8,0:0:0:0:
424,17,41296,1,8,0:0:0:0:
382,18,41368,1,8,0:0:0:0:
344,35,41439,1,8,0:0:0:0:
315,66,41510,6,1,L|331:183,1,93.5,6|0,3:2|0:0,0:0:0:0:
410,106,41796,1,10,0:0:0:0:
239,127,41939,2,1,L|255:244,1,93.5,10|0,0:0|3:2,0:0:0:0:
459,279,42225,2,1,L|471:186,1,93.5,2|8,3:2|0:0,0:0:0:0:
177,298,42510,6,1,P|254:324|349:267,1,187,2|0,0:0|0:0,0:0:0:0:
143,179,42939,2,1,B|101:175|101:175|43:217,1,93.5,10|8,0:0|0:0,0:0:0:0:
239,127,43225,2,1,B|212:94|212:94|141:83,1,93.5,2|0,3:2|3:2,0:0:0:0:
345,99,43510,2,1,P|342:162|316:207,1,93.5,10|0,0:0|0:0,0:0:0:0:
286,9,43796,6,1,L|394:-2,1,93.5,2|0,3:2|0:0,0:0:0:0:
472,53,44082,1,10,0:0:0:0:
239,127,44225,2,1,L|31:105,1,187,2|0,3:2|3:2,0:0:0:0:
85,297,44653,2,1,P|118:240|123:210,1,93.5,8|0,0:0|0:0,0:0:0:0:
11,356,44939,5,0,3:2:0:0:
216,305,45082,2,1,L|206:195,1,93.5,0|8,0:0|0:0,0:0:0:0:
367,106,45368,1,0,3:2:0:0:
340,281,45510,2,1,P|302:227|294:197,1,93.5,0|0,0:0|3:2,0:0:0:0:
441,261,45796,2,1,L|432:354,1,93.5,10|2,0:0|0:0,0:0:0:0:
390,186,46082,6,1,B|438:168|438:168|495:182,1,93.5,6|0,3:2|0:0,0:0:0:0:
340,281,46368,1,10,0:0:0:0:
279,120,46510,2,1,B|231:102|231:102|148:123,1,93.5,10|0,0:0|3:2,0:0:0:0:
68,202,46796,2,1,L|179:220,1,93.5,2|8,3:2|0:0,0:0:0:0:
0,100,47082,6,1,P|18:160|38:309,1,187,2|0,0:0|0:0,0:0:0:0:
176,375,47510,2,1,P|185:322|211:279,1,93.5,10|8,0:0|0:0,0:0:0:0:
337,287,47796,2,1,P|305:243|293:194,1,93.5,2|0,3:2|3:2,0:0:0:0:
387,107,48082,2,1,P|334:98|291:72,1,93.5,10|0,0:0|0:0,0:0:0:0:
449,0,48368,6,1,P|424:88|457:192,1,187,2|10,3:2|0:0,0:0:0:0:
507,306,48796,2,1,B|426:259|426:259|326:290,1,187,2|0,3:2|3:2,0:0:0:0:
177,352,49225,2,1,L|79:341,1,93.5,8|0,0:0|0:0,0:0:0:0:
240,97,49510,6,1,P|274:174|212:271,1,187,0|8,3:2|0:0,0:0:0:0:
0,186,49939,2,1,B|56:156|101:177|101:177|143:192|193:170,1,187,0|0,3:2|3:2,0:0:0:0:
136,82,50368,1,10,0:0:0:0:
63,271,50510,5,10,0:0:0:0:
63,271,50582,1,8,0:0:0:0:
63,271,50653,2,1,L|82:380,1,93.5,6|0,3:2|0:0,0:0:0:0:
332,296,50939,1,10,0:0:0:0:
180,174,51082,2,1,L|199:283,1,93.5,10|0,0:0|3:2,0:0:0:0:
368,135,51368,2,1,L|387:26,1,93.5,2|8,3:2|0:0,0:0:0:0:
301,205,51653,1,2,0:0:0:0:
301,205,51796,6,1,P|387:230|460:167,1,187,0|10,3:2|0:0,0:0:0:0:
468,69,52225,1,8,0:0:0:0:
368,135,52368,2,1,L|254:104,1,93.5,2|0,3:2|3:2,0:0:0:0:
210,229,52653,2,1,L|324:198,1,93.5,10|0,0:0|0:0,0:0:0:0:
120,28,52939,6,1,P|93:92|108:166,1,140.25,2|0,3:2|0:0,0:0:0:0:
120,180,53225,1,10,0:0:0:0:
7,69,53368,2,1,P|8:143|28:185,1,93.5,2|0,0:0|3:2,0:0:0:0:
210,229,53653,2,1,P|209:155|189:113,1,93.5,2|8,3:2|0:0,0:0:0:0:
93,282,53939,5,2,0:0:0:0:
198,350,54082,1,0,3:2:0:0:
198,350,54225,2,1,L|392:324,1,187,2|0,3:2|0:0,0:0:0:0:
510,246,54653,1,2,3:2:0:0:
510,246,54725,1,0,0:0:0:0:
510,246,54796,1,0,3:2:0:0:
419,112,54939,2,1,P|375:154|365:216,1,93.5,10|0,0:0|3:2,0:0:0:0:
486,19,55225,6,1,L|369:32,1,93.5,6|0,3:2|0:0,0:0:0:0:
278,117,55510,1,8,0:0:0:0:
194,32,55653,1,8,0:0:0:0:
132,200,55796,2,1,L|33:181,1,93.5,0|0,3:2|3:2,0:0:0:0:
238,297,56082,2,1,L|337:278,1,93.5,8|0,0:0|0:0,0:0:0:0:
138,366,56368,5,0,3:2:0:0:
332,250,56510,1,0,3:2:0:0:
117,215,56653,1,8,0:0:0:0:
248,326,56796,1,8,0:0:0:0:
301,131,56939,1,0,3:2:0:0:
152,286,57082,1,2,3:2:0:0:
330,353,57225,2,1,P|387:354|422:333,1,93.5,10|0,0:0|0:0,0:0:0:0:
417,336,57439,1,8,0:0:0:0:
417,336,57510,5,2,3:2:0:0:
298,151,57653,1,0,3:0:0:0:
240,344,57796,1,8,0:0:0:0:
470,260,57939,1,0,3:2:0:0:
470,260,58010,1,0,0:0:0:0:
470,260,58082,1,8,0:0:0:0:
205,207,58225,1,0,3:2:0:0:
374,84,58368,1,8,0:0:0:0:
393,126,58439,1,8,0:0:0:0:
398,172,58510,1,8,0:0:0:0:
390,218,58582,1,8,0:0:0:0:
371,263,58653,6,1,B|281:235|226:297|226:297|156:304|139:249,1,255.000000000001,0|0,0:0|0:0,0:0:0:0:
143,261,59510,6,1,P|137:320|124:342,1,70.1250000000003,2|0,0:0|0:0,0:0:0:0:
67,275,59796,6,1,L|48:135,1,114.75,6|0,3:2|0:0,0:0:0:0:
360,230,60082,2,1,L|379:90,1,114.75,10|0,0:0|0:0,0:0:0:0:
207,2,60368,2,1,L|214:117,1,114.75,2|0,3:2|0:0,0:0:0:0:
486,66,60653,1,10,0:0:0:0:
263,205,60796,6,1,P|188:212|124:153,1,114.75,2|0,0:0|3:2,0:0:0:0:
377,68,61082,1,2,0:0:0:0:
340,277,61225,1,10,0:0:0:0:
214,116,61368,1,2,0:0:0:0:
263,366,61510,2,1,P|321:383|469:287,1,229.5,2|8,3:2|0:0,0:0:0:0:
460,306,62082,5,2,3:2:0:0:
202,239,62225,1,2,0:0:0:0:
360,177,62368,1,10,0:0:0:0:
144,324,62510,1,2,0:0:0:0:
375,290,62653,2,1,L|356:146,1,114.75,2|0,3:2|0:0,0:0:0:0:
410,26,62939,1,10,0:0:0:0:
133,121,63082,6,1,B|176:139|176:139|261:119,1,114.75,2|0,0:0|3:2,0:0:0:0:
165,8,63368,1,2,0:0:0:0:
50,69,63510,2,1,P|32:141|69:195,1,114.75,10|0,0:0|0:0,0:0:0:0:
284,243,63796,2,1,P|212:211|87:292,1,229.5,2|8,3:2|0:0,0:0:0:0:
91,281,64368,6,1,P|84:217|56:162,1,114.75,2|0,3:2|0:0,0:0:0:0:
47,360,64653,1,10,0:0:0:0:
47,360,64796,2,1,B|90:374|90:374|177:346,1,114.75,2|0,0:0|3:2,0:0:0:0:
465,360,65082,2,1,B|422:374|422:374|335:346,1,114.75,2|8,0:0|0:0,0:0:0:0:
460,144,65368,6,1,P|496:182|485:278,1,114.75,2|0,0:0|3:2,0:0:0:0:
343,140,65653,1,2,0:0:0:0:
209,253,65796,2,1,L|88:226,1,114.75,10|0,0:0|0:0,0:0:0:0:
301,253,66082,2,1,L|422:226,1,114.75,2|0,3:2|0:0,0:0:0:0:
169,140,66368,1,10,0:0:0:0:
255,335,66510,1,2,0:0:0:0:
343,140,66653,6,1,L|364:21,1,114.75,2|2,3:2|0:0,0:0:0:0:
130,18,66939,1,8,0:0:0:0:
256,96,67082,1,0,0:0:0:0:
35,155,67225,1,0,3:2:0:0:
268,115,67368,1,0,0:0:0:0:
145,302,67510,2,1,L|124:183,1,114.75,8|0,0:0|0:0,0:0:0:0:
380,326,67796,6,1,B|342:351|342:351|241:324,1,114.75,2|0,3:2|0:0,0:0:0:0:
455,245,68082,1,10,0:0:0:0:
306,136,68225,2,1,L|327:259,1,114.75,2|0,0:0|3:2,0:0:0:0:
390,73,68510,1,10,0:0:0:0:
348,41,68582,1,8,0:0:0:0:
297,32,68653,1,8,0:0:0:0:
247,48,68725,1,8,0:0:0:0:
206,79,68796,1,8,0:0:0:0:
155,88,68868,1,8,0:0:0:0:
106,72,68939,6,1,L|-19:42,1,114.75,6|0,3:2|0:0,0:0:0:0:
186,316,69225,2,1,L|61:346,1,114.75,10|0,0:0|0:0,0:0:0:0:
286,192,69510,2,1,L|154:192,1,114.75,2|0,3:2|0:0,0:0:0:0:
408,322,69796,1,10,0:0:0:0:
374,101,69939,6,1,P|321:245|312:329,1,229.5,2|2,0:0|0:0,0:0:0:0:
206,2,70368,2,1,P|209:87|231:142,1,114.75,10|2,0:0|0:0,0:0:0:0:
33,128,70653,2,1,P|102:206|241:260,1,229.5,2|8,3:2|0:0,0:0:0:0:
215,258,71225,5,2,3:2:0:0:
49,310,71368,1,2,0:0:0:0:
332,330,71510,1,10,0:0:0:0:
224,143,71653,1,2,0:0:0:0:
195,347,71796,2,1,B|276:334|276:334|323:354|323:354|424:340,1,229.5,2|10,3:2|0:0,0:0:0:0:
294,78,72225,6,1,B|317:122|317:122|411:168,1,114.75,2|0,0:0|3:2,0:0:0:0:
389,15,72510,1,2,0:0:0:0:
325,244,72653,2,1,B|372:258|372:258|471:224,1,114.75,10|0,0:0|0:0,0:0:0:0:
224,143,72939,2,1,P|186:246|241:355,1,229.5,2|8,3:2|0:0,0:0:0:0:
234,349,73510,6,1,P|170:325|104:332,1,114.75,2|0,3:2|0:0,0:0:0:0:
354,383,73796,1,10,0:0:0:0:
446,284,73939,2,1,L|475:145,1,114.75,2|0,0:0|3:2,0:0:0:0:
341,24,74225,2,1,L|370:163,1,114.75,2|8,0:0|0:0,0:0:0:0:
158,149,74510,6,1,P|207:120|264:120,1,114.75,2|0,0:0|3:2,0:0:0:0:
66,236,74796,1,2,0:0:0:0:
25,120,74939,2,1,L|-6:-16,1,114.75,10|0,0:0|0:0,0:0:0:0:
234,215,75225,2,1,L|203:351,1,114.75,2|0,3:2|0:0,0:0:0:0:
52,343,75510,1,10,0:0:0:0:
320,275,75653,1,2,0:0:0:0:
114,134,75796,6,1,B|105:175|105:175|134:256,1,114.75,2|2,3:2|0:0,0:0:0:0:
405,210,76082,1,8,0:0:0:0:
186,47,76225,1,0,0:0:0:0:
458,19,76368,1,0,3:2:0:0:
227,213,76510,1,8,0:0:0:0:
512,156,76653,1,8,0:0:0:0:
474,119,76725,1,8,0:0:0:0:
426,98,76796,1,8,0:0:0:0:
373,96,76868,1,8,0:0:0:0:
323,114,76939,5,2,0:0:0:0:
120,269,77796,6,1,L|103:365,1,57.3750000000001,8|0,0:0|0:0,0:0:0:0:
25,61,78082,5,6,3:2:0:0:
110,220,86082,6,1,L|121:304,1,85,2|2,3:2|1:0,0:0:0:0:
192,188,86368,2,1,L|203:272,1,85,10|2,0:0|1:0,0:0:0:0:
270,119,86653,2,1,P|215:85|159:85,1,85,2|2,0:0|0:0,0:0:0:0:
282,212,86939,2,1,L|401:188,1,95.6250000000002,2|0,0:0|0:0,0:0:0:0:
411,113,87225,6,1,L|394:196,1,63.7500000000002,6|0,3:2|0:0,0:0:0:0:
512,172,87510,1,10,0:0:0:0:
512,172,87653,2,1,L|495:255,1,63.7500000000002,2|0,3:2|0:0,0:0:0:0:
425,334,87939,2,1,L|412:271,1,63.7500000000002,2|8,3:2|0:0,0:0:0:0:
319,365,88225,6,1,P|256:376|188:351,1,127.5,2|0,0:0|0:0,0:0:0:0:
131,236,88653,2,1,P|172:264|184:291,1,63.7500000000002,10|0,0:0|3:2,0:0:0:0:
44,250,88939,2,1,P|47:200|65:176,1,63.7500000000002,2|0,0:0|3:2,0:0:0:0:
154,88,89225,2,1,L|135:164,1,63.7500000000002,10|0,0:0|0:0,0:0:0:0:
257,278,89510,6,1,L|230:122,1,127.5,2|8,3:2|0:0,0:0:0:0:
346,219,89939,2,1,L|319:63,1,127.5,0|2,3:2|3:2,0:0:0:0:
410,12,90368,2,1,L|428:102,1,63.7500000000002,10|2,0:0|0:0,0:0:0:0:
512,140,90653,6,1,P|458:155|431:239,1,127.5,0|8,3:2|0:0,0:0:0:0:
512,325,91082,2,1,P|463:297|384:337,1,127.5,0|2,3:2|3:2,0:0:0:0:
317,365,91510,2,1,P|267:349|232:348,1,63.7500000000002,10|2,0:0|0:0,0:0:0:0:
90,365,91796,6,1,P|153:354|160:237,2,191.25,0|0|10,3:2|3:2|0:0,0:0:0:0:
88,211,92796,1,2,0:0:0:0:
88,211,92939,2,1,B|234:192|234:192|286:214,1,191.25,0|0,3:2|3:2,0:0:0:0:
288,113,93510,2,1,B|247:95|247:95|101:114,1,191.25,2|0,0:0|0:0,0:0:0:0:
53,25,94082,6,1,L|141:15,1,63.7500000000002,2|0,3:2|0:0,0:0:0:0:
18,125,94368,1,10,0:0:0:0:
18,125,94510,2,1,L|81:117,1,63.7500000000002,2|0,3:2|0:0,0:0:0:0:
169,223,94796,2,1,L|105:215,1,63.7500000000002,2|8,3:2|0:0,0:0:0:0:
244,159,95082,6,1,P|268:211|224:288,1,127.5,2|0,0:0|0:0,0:0:0:0:
115,306,95510,1,8,0:0:0:0:
115,306,95653,1,0,3:2:0:0:
185,379,95796,1,0,0:0:0:0:
288,285,95939,1,8,0:0:0:0:
314,260,96010,1,8,0:0:0:0:
346,243,96082,1,8,0:0:0:0:
381,235,96153,1,8,0:0:0:0:
417,237,96225,1,8,0:0:0:0:
452,248,96296,1,8,0:0:0:0:
482,267,96368,6,1,L|463:80,1,170,6|10,3:2|0:0,0:0:0:0:
306,93,96796,2,1,P|354:132|392:137,1,85,2|0,3:2|0:0,0:0:0:0:
259,257,97082,2,1,P|307:218|345:213,1,85,2|8,3:2|0:0,0:0:0:0:
92,79,97368,6,1,P|147:126|245:153,1,170,2|0,0:0|0:0,0:0:0:0:
94,281,97796,2,1,P|147:250|205:249,1,85,10|0,0:0|3:2,0:0:0:0:
165,99,98082,2,1,P|218:130|276:131,1,85,2|0,0:0|3:2,0:0:0:0:
301,311,98368,2,1,P|354:280|412:279,1,85,10|0,0:0|0:0,0:0:0:0:
512,118,98653,6,1,P|445:136|370:101,1,170,2|8,3:2|0:0,0:0:0:0:
380,260,99082,2,1,P|330:230|201:258,1,170,0|2,3:2|3:2,0:0:0:0:
118,294,99510,1,10,0:0:0:0:
144,378,99653,6,1,P|156:315|146:193,1,170,2|0,0:0|0:0,0:0:0:0:
53,137,100082,1,8,0:0:0:0:
53,137,100225,2,1,P|110:136|137:123,1,85,0|0,3:2|0:0,0:0:0:0:
294,64,100510,1,2,3:2:0:0:
219,9,100653,2,1,L|202:114,1,85,10|2,0:0|0:0,0:0:0:0:
304,233,100939,6,1,L|293:49,1,170,0|8,3:2|0:0,0:0:0:0:
399,256,101368,2,1,L|388:72,1,170,0|0,3:2|3:2,0:0:0:0:
489,279,101796,1,10,0:0:0:0:
384,359,101939,6,1,P|335:330|209:333,1,170,2|0,0:0|0:0,0:0:0:0:
135,363,102368,2,1,L|146:260,1,85,8|0,0:0|3:2,0:0:0:0:
18,153,102653,2,1,L|29:256,1,85,2|0,0:0|3:2,0:0:0:0:
195,196,102939,2,1,B|136:182|136:182|105:191,1,85,8|0,0:0|0:0,0:0:0:0:
255,272,103225,6,1,P|288:232|245:116,1,170,2|10,3:2|0:0,0:0:0:0:
87,88,103653,2,1,L|187:67,1,85,2|0,3:2|0:0,0:0:0:0:
343,108,103939,2,1,L|260:126,1,85,2|8,3:2|0:0,0:0:0:0:
411,28,104225,5,2,0:0:0:0:
411,28,104296,1,8,0:0:0:0:
411,28,104368,2,1,P|440:66|444:118,1,85,0|0,3:2|3:2,0:0:0:0:
304,210,104653,1,8,0:0:0:0:
343,108,104796,1,0,3:2:0:0:
401,284,104939,1,0,3:2:0:0:
389,188,105082,1,8,0:0:0:0:
511,328,105225,1,8,0:0:0:0:
464,227,105368,5,8,0:0:0:0:
471,206,105439,1,0,0:0:0:0:
481,183,105510,2,1,L|453:46,1,127.5,6|0,3:2|0:0,0:0:0:0:
447,27,105796,1,10,0:0:0:0:
389,188,105939,2,1,L|346:99,1,85,10|0,0:0|3:2,0:0:0:0:
323,264,106225,2,1,L|254:197,1,85,2|8,3:2|0:0,0:0:0:0:
311,351,106510,2,1,L|124:308,1,170,2|0,0:0|0:0,0:0:0:0:
0,319,106939,6,1,P|42:357|76:364,1,85,10|8,0:0|0:0,0:0:0:0:
199,252,107225,2,1,P|168:299|137:315,1,85,2|0,3:2|3:2,0:0:0:0:
16,162,107510,2,1,P|33:215|59:238,1,85,10|0,0:0|0:0,0:0:0:0:
194,131,107796,2,1,P|163:178|132:194,1,85,2|0,3:2|0:0,0:0:0:0:
158,40,108082,1,10,0:0:0:0:
158,40,108225,2,1,B|206:21|251:40|251:40|297:59|344:23,1,170,2|0,3:2|3:2,0:0:0:0:
461,15,108653,2,1,P|421:48|400:94,1,85,8|0,0:0|0:0,0:0:0:0:
512,186,108939,6,1,L|497:85,1,85,0|0,3:2|0:0,0:0:0:0:
366,240,109225,2,1,L|351:341,1,85,8|0,0:0|3:2,0:0:0:0:
404,152,109510,2,1,P|346:148|301:169,1,85,0|0,0:0|3:2,0:0:0:0:
186,264,109796,1,10,0:0:0:0:
104,184,109939,1,2,0:0:0:0:
26,309,110082,6,1,L|167:271,1,127.5,6|0,3:2|0:0,0:0:0:0:
186,264,110368,1,10,0:0:0:0:
406,367,110510,2,1,L|322:353,1,85,10|0,0:0|3:2,0:0:0:0:
438,240,110796,2,1,L|338:263,1,85,2|8,3:2|0:0,0:0:0:0:
492,51,111082,6,1,L|346:161,1,170,2|0,0:0|0:0,0:0:0:0:
255,61,111510,2,1,P|303:39|345:42,1,85,10|8,0:0|0:0,0:0:0:0:
183,205,111796,2,1,P|140:203|103:183,1,85,2|0,3:2|3:2,0:0:0:0:
241,148,112082,2,1,L|209:311,1,127.5,10|0,0:0|0:0,0:0:0:0:
247,374,112368,6,1,L|234:272,1,85,2|0,3:2|0:0,0:0:0:0:
320,227,112653,1,10,0:0:0:0:
489,317,112796,2,1,B|441:352|441:352|328:330,1,170,2|0,3:2|3:2,0:0:0:0:
381,146,113225,2,1,P|413:196|417:240,1,85,8|0,0:0|0:0,0:0:0:0:
283,122,113510,5,0,3:2:0:0:
386,55,113653,2,1,L|500:73,1,85,0|8,0:0|0:0,0:0:0:0:
305,5,113939,2,1,L|117:28,1,170,0|0,3:2|3:2,0:0:0:0:
36,111,114368,1,10,0:0:0:0:
176,157,114510,5,10,0:0:0:0:
174,174,114582,1,8,0:0:0:0:
171,196,114653,2,1,L|160:282,1,85,6|0,3:2|0:0,0:0:0:0:
269,179,114939,1,10,0:0:0:0:
76,214,115082,2,1,L|65:300,1,85,10|0,0:0|3:2,0:0:0:0:
279,94,115368,2,1,L|268:180,1,85,2|8,3:2|0:0,0:0:0:0:
0,157,115653,6,1,P|69:114|160:154,1,170,2|0,0:0|0:0,0:0:0:0:
230,293,116082,2,1,P|194:264|181:220,1,85,10|8,0:0|0:0,0:0:0:0:
335,292,116368,2,1,P|327:337|296:370,1,85,2|0,3:2|3:2,0:0:0:0:
292,210,116653,2,1,B|331:196|331:196|379:207,1,85,10|0,0:0|0:0,0:0:0:0:
486,106,116939,6,1,L|385:120,1,85,2|0,3:2|3:2,0:0:0:0:
459,198,117225,1,10,0:0:0:0:
411,32,117368,2,1,L|310:46,1,85,2|0,0:0|3:2,0:0:0:0:
292,210,117653,2,1,L|191:224,1,85,2|8,3:2|0:0,0:0:0:0:
50,177,117939,6,1,P|103:214|122:239,1,85,2|0,0:0|3:2,0:0:0:0:
95,312,118153,1,0,0:0:0:0:
95,312,118225,2,1,P|132:259|227:292,1,170,2|0,3:2|0:0,0:0:0:0:
309,355,118653,2,1,L|302:310,2,42.5,2|0|0,3:2|0:0|3:2,0:0:0:0:
444,269,118939,2,1,L|457:173,1,85,10|0,0:0|3:2,0:0:0:0:
455,47,119225,6,1,P|419:86|382:106,1,85,6|0,3:2|0:0,0:0:0:0:
350,217,119510,2,1,P|296:219|256:207,1,85,8|8,0:0|0:0,0:0:0:0:
147,95,119796,1,0,3:2:0:0:
249,61,119939,1,0,3:2:0:0:
82,24,120082,2,1,B|60:55|60:55|51:115,1,85,8|0,0:0|0:0,0:0:0:0:
9,172,120296,5,8,0:0:0:0:
9,172,120368,2,1,L|26:263,1,85,0|0,3:2|3:2,0:0:0:0:
93,341,120653,1,8,0:0:0:0:
172,248,120796,1,0,3:2:0:0:
172,248,120868,1,0,0:0:0:0:
172,248,120939,1,8,0:0:0:0:
290,335,121082,1,2,3:2:0:0:
325,357,121153,1,8,0:0:0:0:
367,366,121225,1,10,0:0:0:0:
409,362,121296,1,8,0:0:0:0:
447,344,121368,1,10,0:0:0:0:
478,315,121439,1,8,0:0:0:0:
497,278,121510,5,2,0:0:0:0:
252,143,123510,6,1,L|240:189,1,44.6250000000003,2|0,0:0|0:0,0:0:0:0:
206,82,123796,6,1,L|223:208,1,114.75,6|0,3:2|0:0,0:0:0:0:
404,188,124082,2,1,L|354:293,1,114.75,10|0,0:0|0:0,0:0:0:0:
45,175,124368,2,1,L|132:274,1,114.75,2|0,3:2|0:0,0:0:0:0:
306,198,124653,1,10,0:0:0:0:
444,348,124796,6,1,P|360:313|195:332,1,229.5,2|2,0:0|0:0,0:0:0:0:
21,305,125225,2,1,P|105:279|130:239,1,114.75,10|2,0:0|0:0,0:0:0:0:
48,96,125510,2,1,B|20:139|20:139|34:220,1,114.75,2|0,3:2|0:0,0:0:0:0:
320,107,125796,1,8,0:0:0:0:
320,107,126082,5,2,3:2:0:0:
159,15,126225,1,2,0:0:0:0:
424,53,126368,1,10,0:0:0:0:
184,105,126510,1,2,0:0:0:0:
399,216,126653,2,1,L|524:199,1,114.75,2|0,3:2|0:0,0:0:0:0:
320,107,126939,1,10,0:0:0:0:
189,321,127082,6,1,P|119:347|53:319,1,114.75,2|0,0:0|3:2,0:0:0:0:
187,191,127368,1,2,0:0:0:0:
316,348,127510,2,1,P|386:374|452:346,1,114.75,10|0,0:0|0:0,0:0:0:0:
450,340,127725,1,0,0:0:0:0:
469,305,127796,2,1,L|456:183,1,114.75,2|0,3:2|0:0,0:0:0:0:
256,43,128082,1,8,0:0:0:0:
256,43,128368,6,1,B|236:75|236:75|257:184,1,114.75,2|0,3:2|0:0,0:0:0:0:
362,16,128653,1,10,0:0:0:0:
159,131,128796,2,1,L|46:106,1,114.75,2|0,0:0|3:2,0:0:0:0:
353,131,129082,2,1,L|466:106,1,114.75,2|8,0:0|0:0,0:0:0:0:
78,236,129368,6,1,P|68:292|87:345,1,114.75,2|0,0:0|3:2,0:0:0:0:
256,127,129653,1,2,0:0:0:0:
315,351,129796,2,1,B|359:367|359:367|434:343,1,114.75,10|0,0:0|0:0,0:0:0:0:
197,351,130082,2,1,B|153:367|153:367|78:343,1,114.75,2|0,3:2|0:0,0:0:0:0:
374,235,130368,1,10,0:0:0:0:
154,277,130510,1,2,0:0:0:0:
387,124,130653,5,2,3:2:0:0:
260,288,130796,1,2,0:0:0:0:
139,95,130939,1,8,0:0:0:0:
386,263,131082,1,0,0:0:0:0:
122,190,131225,1,0,3:2:0:0:
329,55,131368,1,0,0:0:0:0:
248,309,131510,1,8,0:0:0:0:
148,69,131653,1,0,0:0:0:0:
374,235,131796,6,1,L|500:218,1,114.75,2|0,3:2|0:0,0:0:0:0:
330,128,132082,1,10,0:0:0:0:
255,345,132225,2,1,L|381:328,1,114.75,2|0,0:0|3:2,0:0:0:0:
160,69,132510,1,10,0:0:0:0:
124,97,132582,1,8,0:0:0:0:
104,138,132653,1,8,0:0:0:0:
103,184,132725,1,8,0:0:0:0:
121,226,132796,1,8,0:0:0:0:
155,256,132868,1,8,0:0:0:0:
198,270,132939,6,1,P|231:199|219:154,1,114.75,6|0,3:2|0:0,0:0:0:0:
442,283,133225,2,1,P|414:213|374:186,1,114.75,10|0,0:0|0:0,0:0:0:0:
204,367,133510,2,1,P|277:340|300:299,1,114.75,2|0,3:2|0:0,0:0:0:0:
269,32,133796,1,10,0:0:0:0:
103,184,133939,6,1,L|237:170,1,114.75,2|0,0:0|3:2,0:0:0:0:
397,112,134225,1,2,0:0:0:0:
442,283,134368,1,10,0:0:0:0:
441,20,134510,1,2,0:0:0:0:
249,176,134653,2,1,P|229:231|319:320,1,172.125,2|0,3:2|0:0,0:0:0:0:
383,384,134939,2,1,B|345:361|317:370|317:370|297:352|297:352|255:384|202:381,1,172.125,8|0,0:0|0:0,0:0:0:0:
159,321,135225,5,2,3:2:0:0:
404,303,135368,1,2,0:0:0:0:
139,208,135510,1,10,0:0:0:0:
448,229,135653,1,2,0:0:0:0:
151,94,135796,2,1,P|206:76|268:73,1,114.75,2|0,3:2|0:0,0:0:0:0:
281,326,136082,1,10,0:0:0:0:
42,259,136225,6,1,L|17:124,1,114.75,2|0,0:0|3:2,0:0:0:0:
303,235,136510,1,2,0:0:0:0:
116,334,136653,1,10,0:0:0:0:
380,297,136796,1,0,0:0:0:0:
224,160,136939,2,1,L|203:272,1,114.75,2|0,3:2|0:0,0:0:0:0:
397,210,137225,2,1,L|376:97,1,114.75,8|0,0:0|0:0,0:0:0:0:
27,158,137510,6,1,P|81:214|127:218,1,114.75,2|0,3:2|0:0,0:0:0:0:
296,106,137796,1,10,0:0:0:0:
131,18,137939,2,1,P|107:71|117:131,1,114.75,2|0,0:0|3:2,0:0:0:0:
278,227,138225,2,1,L|411:207,1,114.75,2|8,0:0|0:0,0:0:0:0:
136,363,138510,6,1,L|14:348,1,114.75,2|0,0:0|3:2,0:0:0:0:
224,160,138796,1,2,0:0:0:0:
311,305,138939,2,1,P|284:362|230:385,1,114.75,10|0,0:0|0:0,0:0:0:0:
20,199,139225,2,1,P|50:136|105:117,1,114.75,2|0,3:2|0:0,0:0:0:0:
357,172,139510,1,10,0:0:0:0:
132,215,139653,1,2,0:0:0:0:
453,270,139796,5,2,3:2:0:0:
245,67,139939,1,2,0:0:0:0:
81,308,140082,2,1,P|148:315|197:291,1,114.75,8|0,0:0|0:0,0:0:0:0:
439,74,140368,1,0,3:2:0:0:
118,18,140510,1,8,0:0:0:0:
301,173,140653,1,8,0:0:0:0:
307,212,140725,1,8,0:0:0:0:
311,252,140796,1,8,0:0:0:0:
314,292,140868,1,8,0:0:0:0:
314,332,140939,5,2,0:0:0:0:
40,39,142082,5,6,3:2:0:0:
69,267,142225,1,10,3:2:0:0:
186,235,142510,5,0,3:2:0:0:
186,235,142582,1,0,3:2:0:0:
186,235,142653,1,6,3:2:0:0:
105,174,142796,1,10,0:0:0:0:
41,358,143082,5,0,3:2:0:0:
41,358,143153,1,0,3:2:0:0:
41,358,143225,1,6,3:2:0:0:
239,311,143368,1,10,0:0:0:0:
320,355,143653,5,0,3:2:0:0:
320,355,143725,1,0,0:0:0:0:
320,355,143796,1,6,3:2:0:0:
492,310,143939,1,10,0:0:0:0:
256,192,144368,6,1,L|212:185,1,42.5,6|2,3:2|0:0,0:0:0:0:
243,107,144939,2,1,L|199:100,1,42.5,2|2,0:0|0:0,0:0:0:0:
92,334,145510,6,1,L|136:327,1,42.5,0|2,3:2|0:0,0:0:0:0:
105,249,145939,1,2,0:0:0:0:
105,249,146082,2,1,L|149:242,1,42.5,2|0,0:0|0:0,0:0:0:0:
328,310,146653,6,1,L|325:340,1,21.25,2|2,3:2|0:0,0:0:0:0:
408,262,146939,2,1,L|405:292,1,21.25,2|2,0:0|0:0,0:0:0:0:
343,183,147225,2,1,L|337:225,1,42.5,2|2,0:0|0:0,0:0:0:0:
423,182,147653,2,1,L|428:139,1,42.5,2|2,0:0|0:0,0:0:0:0:
418,57,148082,1,2,0:0:0:0:
342,94,148225,1,0,0:0:0:0:
342,94,148296,1,0,0:0:0:0:
342,94,148368,2,1,L|291:86,1,42.5,2|0,0:0|0:0,0:0:0:0:
102,18,148939,6,1,P|84:38|78:58,1,42.5,2|2,3:2|0:0,0:0:0:0:
68,132,149368,2,1,L|44:126,1,21.25,2|0,0:0|0:0,0:0:0:0:
168,107,149653,2,1,L|144:101,1,21.25,2|0,0:0|0:0,0:0:0:0:
200,280,149939,6,1,P|218:260|224:240,1,42.5,2|2,0:0|0:0,0:0:0:0:
234,166,150368,2,1,L|258:172,1,21.25,2|0,0:0|0:0,0:0:0:0:
134,191,150653,2,1,L|158:197,1,21.25,2|0,0:0|0:0,0:0:0:0:
278,261,150939,1,2,0:0:0:0:
289,259,151082,1,2,0:0:0:0:
402,191,151225,6,1,L|413:102,1,85,2|0,3:2|0:0,0:0:0:0:
148,229,152368,6,1,L|155:276,1,42.5,2|2,3:2|0:0,0:0:0:0:
62,201,152796,2,1,L|66:228,1,21.25,2|0,0:0|0:0,0:0:0:0:
125,150,153082,2,1,L|118:99,1,42.5,2|0,0:0|0:0,0:0:0:0:
90,28,153510,6,1,P|133:24|154:32,1,55.2500000000003,6|0,3:2|0:0,0:0:0:0:
198,93,153796,2,1,P|238:78|260:80,1,55.2500000000003,2|0,3:2|0:0,0:0:0:0:
319,127,154082,2,1,P|354:102|376:98,1,55.2500000000003,2|0,3:2|0:0,0:0:0:0:
445,129,154368,1,2,3:2:0:0:
445,129,154510,6,1,L|428:239,1,110.500000000001,2|2,0:0|0:0,0:0:0:0:
410,324,154939,1,2,3:2:0:0:
322,276,155082,1,2,0:0:0:0:
244,344,155225,2,1,P|177:347|133:317,1,110.500000000001,2|0,3:2|3:2,0:0:0:0:
141,325,155796,6,1,L|121:384,3,55.2500000000003,2|2|2|2,3:2|0:0|3:2|0:0,0:0:0:0:
206,256,156368,2,1,L|194:133,1,110.500000000001,2|2,3:2|3:2,0:0:0:0:
11,165,156796,2,1,P|50:197|120:197,1,110.500000000001,2|2,0:0|0:0,0:0:0:0:
288,145,157225,1,2,3:2:0:0:
82,4,157510,2,1,P|75:34|92:126,1,110.500000000001,2|0,3:2|3:2,0:0:0:0:
233,66,158082,6,1,L|158:54,1,55.2500000000003,2|0,3:2|0:0,0:0:0:0:
288,145,158368,1,2,3:2:0:0:
288,145,158510,2,1,P|318:121|335:86,1,55.2500000000003,2|0,0:0|3:2,0:0:0:0:
271,231,158796,2,1,P|309:235|345:222,1,55.2500000000003,2|0,0:0|3:2,0:0:0:0:
372,163,159082,1,2,0:0:0:0:
182,207,159225,6,1,L|190:294,1,63.7500000000002,0|2,3:2|3:2,0:0:0:0:
113,367,159510,2,1,L|41:354,1,63.7500000000002,2|0,3:2|3:2,0:0:0:0:
271,231,159796,2,1,L|263:318,1,63.7500000000002,2|0,3:2|3:2,0:0:0:0:
62,260,160082,2,1,L|0:271,1,63.7500000000002,2|2,3:2|3:2,0:0:0:0:
354,277,160382,5,2,0:0:0:0:
354,277,161467,5,2,0:0:0:0:
278,336,161794,1,2,0:0:0:0:
282,348,161903,1,2,0:0:0:0:
183,231,162205,1,2,0:0:0:0:
428,99,162648,6,1,L|459:110,1,31.8750000000002,2|0,0:0|0:0,0:0:0:0:
420,78,162933,6,1,L|302:95,1,119,14|0,0:0|0:0,0:0:0:0:
205,294,163219,2,1,L|87:277,1,119,2|0,3:2|0:0,0:0:0:0:
328,206,163504,1,10,0:0:0:0:
58,190,163647,2,1,P|0:289|82:359,1,238,2|2,0:0|0:0,0:0:0:0:
319,290,164076,1,10,0:0:0:0:
87,277,164219,1,2,0:0:0:0:
428,180,164362,6,1,B|251:162|251:162|178:184,1,238,2|8,3:2|0:0,0:0:0:0:
193,179,164933,1,2,3:2:0:0:
419,311,165076,1,2,0:0:0:0:
348,76,165219,1,10,0:0:0:0:
224,278,165362,1,2,0:0:0:0:
428,180,165504,2,1,L|458:22,1,119,2|0,3:2|0:0,0:0:0:0:
222,73,165790,1,10,0:0:0:0:
340,265,165933,6,1,L|306:138,1,119,2|0,0:0|3:2,0:0:0:0:
67,158,166219,1,2,0:0:0:0:
247,335,166362,2,1,L|154:237,1,119,10|0,0:0|0:0,0:0:0:0:
56,316,166576,1,0,0:0:0:0:
56,316,166647,2,1,L|202:297,1,119,2|0,3:2|0:0,0:0:0:0:
429,355,166933,1,8,0:0:0:0:
429,355,167219,6,1,P|470:292|470:244,1,119,2|0,3:2|0:0,0:0:0:0:
361,85,167504,1,10,0:0:0:0:
150,179,167647,2,1,P|79:191|26:165,1,119,2|0,0:0|3:2,0:0:0:0:
267,17,167933,2,1,L|244:151,1,119,2|8,0:0|0:0,0:0:0:0:
497,172,168219,6,1,B|453:160|453:160|371:183,1,119,2|0,0:0|3:2,0:0:0:0:
191,294,168504,1,2,0:0:0:0:
292,366,168647,2,1,L|307:232,1,119,10|0,0:0|0:0,0:0:0:0:
68,103,168933,2,1,P|110:164|174:177,1,119,2|0,3:2|0:0,0:0:0:0:
424,60,169219,1,10,0:0:0:0:
189,92,169362,1,2,0:0:0:0:
365,279,169504,5,2,3:2:0:0:
290,48,169647,1,2,0:0:0:0:
153,277,169790,1,8,0:0:0:0:
465,214,169933,1,0,0:0:0:0:
265,152,170076,1,0,3:2:0:0:
307,355,170219,1,0,0:0:0:0:
232,172,170362,1,8,0:0:0:0:
132,376,170504,1,0,0:0:0:0:
418,321,170647,6,1,P|437:253|433:185,1,119,2|0,3:2|0:0,0:0:0:0:
345,76,170933,1,10,0:0:0:0:
212,344,171076,2,1,P|250:299|279:228,1,119,2|0,0:0|3:2,0:0:0:0:
15,214,171362,1,10,0:0:0:0:
56,217,171433,1,8,0:0:0:0:
97,213,171504,1,8,0:0:0:0:
138,202,171576,1,8,0:0:0:0:
175,185,171647,1,8,0:0:0:0:
212,154,171719,1,8,0:0:0:0:
234,118,171790,6,1,L|110:81,1,119,6|0,3:2|0:0,0:0:0:0:
390,265,172076,2,1,L|275:299,1,119,10|0,0:0|0:0,0:0:0:0:
512,100,172362,2,1,L|407:19,1,119,2|0,3:2|0:0,0:0:0:0:
175,185,172647,1,10,0:0:0:0:
458,331,172790,6,1,P|493:255|382:170,1,238,2|2,0:0|0:0,0:0:0:0:
127,266,173219,1,10,0:0:0:0:
353,357,173362,1,2,0:0:0:0:
224,109,173504,1,2,3:2:0:0:
88,359,173647,1,0,0:0:0:0:
289,285,173790,1,8,0:0:0:0:
139,166,173933,5,0,0:0:0:0:
139,166,174004,1,8,0:0:0:0:
139,166,174076,2,1,L|16:134,1,119,2|0,3:2|0:0,0:0:0:0:
221,9,174362,1,10,0:0:0:0:
368,238,174504,1,0,3:2:0:0:
250,182,174647,1,2,0:0:0:0:
479,127,174790,1,0,3:2:0:0:
405,353,174933,1,10,0:0:0:0:
326,150,175076,6,1,P|318:61|330:14,1,119,2|8,3:2|0:0,0:0:0:0:
439,273,175362,5,2,3:2:0:0:
164,200,175504,1,10,0:0:0:0:
410,93,175647,1,2,3:2:0:0:
282,292,175790,5,10,0:0:0:0:
37,222,175933,1,0,3:2:0:0:
249,103,176076,1,8,0:0:0:0:
249,103,176147,1,8,0:0:0:0:
249,103,176219,1,0,3:2:0:0:
138,377,176362,6,1,L|117:244,1,119,6|0,3:2|0:0,0:0:0:0:
159,35,176647,1,10,0:0:0:0:
330,262,176790,2,1,B|376:273|376:273|475:241,1,119,2|0,0:0|3:2,0:0:0:0:
182,262,177076,2,1,B|136:273|136:273|37:241,1,119,2|8,0:0|0:0,0:0:0:0:
404,57,177362,6,1,P|391:143|352:183,1,119,2|0,0:0|3:2,0:0:0:0:
169,137,177647,1,2,0:0:0:0:
348,372,177790,2,1,L|327:243,1,119,10|0,0:0|0:0,0:0:0:0:
188,19,178076,2,1,L|168:136,1,119,2|0,3:2|0:0,0:0:0:0:
83,311,178362,1,10,0:0:0:0:
360,271,178504,1,2,0:0:0:0:
93,143,178647,5,2,3:2:0:0:
173,370,178790,1,2,0:0:0:0:
420,178,178933,1,8,0:0:0:0:
180,270,179076,1,0,0:0:0:0:
512,286,179219,1,0,3:2:0:0:
281,30,179362,5,8,0:0:0:0:
246,22,179433,1,8,0:0:0:0:
210,17,179504,1,8,0:0:0:0:
175,16,179576,1,8,0:0:0:0:
139,19,179647,1,8,0:0:0:0:
104,25,179719,1,8,0:0:0:0:
69,34,179790,5,2,0:0:0:0:
6,350,180076,1,2,0:0:0:0:
91,321,180219,1,2,0:0:0:0:
382,384,180504,1,2,0:0:0:0:
255,191,180933,5,6,3:2:0:0:
