osu file format v14

[General]
AudioFilename: audio.mp3
AudioLeadIn: 0
PreviewTime: 154735
Countdown: 0
SampleSet: Soft
StackLeniency: 0.5
Mode: 0
LetterboxInBreaks: 0
WidescreenStoryboard: 1

[Editor]
DistanceSpacing: 2.5
BeatDivisor: 3
GridSize: 32
TimelineZoom: 2.099998

[Metadata]
Title:Mushikui Psychedelism
TitleUnicode:ムシクイサイケデリズム
Artist:Zips
ArtistUnicode:じっぷす
Creator:Nevo
Version:SMOKELIND's Insane
Source:ヘイセイプロジェクト
Tags:vocaloid vocaloid2 kagamine rin len 鏡音リン jippusu heisei project japanese novelty Saikede Rhythm agatsu cycopton smokelind synderes frostwich Bug-Eaten wanpachi
BeatmapID:2242167
BeatmapSetID:1055498

[Difficulty]
HPDrainRate:4.7
CircleSize:3.5
OverallDifficulty:7.7
ApproachRate:9
SliderMultiplier:1.47
SliderTickRate:1

[Events]
//Background and Video events
0,0,"zips.png",0,0
//Break Periods
2,147451,154880
//Storyboard Layer 0 (Background)
//Storyboard Layer 1 (Fail)
//Storyboard Layer 2 (Pass)
//Storyboard Layer 3 (Foreground)
//Storyboard Layer 4 (Overlay)
//Storyboard Sound Samples

[TimingPoints]
1176,285.714285714286,4,2,1,30,1,0
1176,-212.765957446809,4,2,1,30,0,0
10318,-103.092783505155,4,2,1,70,0,0
28604,-175.438596491228,4,3,1,40,0,0
37747,-114.942528735632,4,2,1,60,0,0
46890,-129.870129870129,4,2,1,50,0,0
51461,-129.870129870129,4,2,1,70,0,0
56033,-85.4700854700855,4,2,1,90,0,0
69747,-103.092783505155,4,2,1,90,0,0
74318,-175.438596491228,4,3,1,40,0,0
83033,-114.942528735632,4,3,1,60,0,0
83461,-114.942528735632,4,2,1,60,0,0
92604,-129.870129870129,4,2,1,50,0,0
97176,-129.870129870129,4,2,1,70,0,0
101747,-85.4700854700855,4,2,1,90,0,0
115461,-103.092783505155,4,2,1,90,0,0
137604,-114.942528735632,4,2,1,90,0,0
138318,-114.942528735632,4,2,1,50,0,0
142890,-114.942528735632,4,2,1,70,0,0
147461,-370.37037037037,4,2,1,30,0,0
153390,-370.37037037037,4,2,1,5,0,0
153461,-370.37037037037,4,2,1,40,0,0
153675,-370.37037037037,4,2,1,5,0,0
153747,-370.37037037037,4,2,1,42,0,0
153961,-370.37037037037,4,2,1,5,0,0
154033,-370.37037037037,4,2,1,45,0,0
154318,-370.37037037037,4,2,1,5,0,0
154890,-370.37037037037,4,2,1,60,0,0
155176,-370.37037037037,4,2,1,70,0,0
155461,-370.37037037037,4,2,1,80,0,0
155747,-370.37037037037,4,2,1,90,0,0
155890,-85.4700854700855,4,2,1,90,0,0
169176,-103.092783505155,4,2,1,90,0,0
173747,-103.092783505155,4,2,1,70,0,0

[Colours]
Combo1 : 205,99,63
Combo2 : 183,0,0
Combo3 : 68,112,147

[HitObjects]
418,26,10318,6,0,L|404:195,1,142.590003372414,6|8,3:2|0:0,0:0:0:0:
395,318,10747,1,0,3:0:0:0:
317,157,10890,2,0,P|255:132|180:181,1,142.590003372414,2|8,0:0|0:0,0:0:0:0:
186,269,11318,1,0,0:0:0:0:
25,76,11461,6,0,L|39:245,1,142.590003372414,2|8,3:2|0:0,0:0:0:0:
48,368,11890,1,0,3:0:0:0:
126,207,12033,2,0,P|167:181|211:186,1,71.2950016862069,2|0,0:0|3:0,0:0:0:0:
261,317,12318,2,0,P|226:311|198:289,1,71.2950016862069,10|0,0:0|0:0,0:0:0:0:
352,176,12604,6,0,L|341:276,1,71.2950016862069,2|0,3:2|0:0,0:0:0:0:
293,94,12890,1,10,0:0:0:0:
293,94,13033,1,2,3:2:0:0:
437,170,13176,2,0,L|429:99,1,71.2950016862069,2|0,0:0|3:0,0:0:0:0:
283,6,13461,2,0,L|275:76,1,71.2950016862069,8|0,0:0|0:0,0:0:0:0:
212,251,13747,6,0,P|148:283|84:251,2,142.590003372414,2|8|2,3:2|0:0|0:0,0:0:0:0:
257,157,14461,1,0,0:0:0:0:
134,61,14604,2,0,L|138:96,2,35.6475008431034,8|8|8,0:0|0:0|0:0,0:0:0:0:
352,57,14890,6,0,L|334:223,1,142.590003372414,6|8,3:2|0:0,0:0:0:0:
239,318,15318,1,2,3:2:0:0:
419,212,15461,2,0,L|437:378,1,142.590003372414,2|8,0:0|0:0,0:0:0:0:
331,337,15890,1,0,0:0:0:0:
237,193,16033,2,0,B|157:177|189:241|77:225,1,142.590003372414,2|8,3:2|0:0,0:0:0:0:
238,297,16461,1,2,3:2:0:0:
119,150,16604,2,0,L|111:64,1,71.2950016862069,2|0,0:0|3:0,0:0:0:0:
21,220,16890,2,0,L|14:290,1,71.2950016862069,8|0,0:0|0:0,0:0:0:0:
195,373,17176,6,0,P|272:341|364:341,1,142.590003372414,2|8,3:2|0:0,0:0:0:0:
447,226,17604,1,2,3:2:0:0:
350,320,17747,2,0,P|333:275|338:228,1,71.2950016862069,2|0,0:0|3:0,0:0:0:0:
384,103,18033,2,0,P|381:138|366:170,1,71.2950016862069,8|0,0:0|0:0,0:0:0:0:
170,139,18318,2,0,P|241:93|314:127,1,142.590003372414,6|8,3:2|0:0,0:0:0:0:
248,250,18747,1,8,0:0:0:0:
248,250,18818,1,8,0:0:0:0:
248,250,18890,2,0,L|244:147,1,71.2950016862069,6|8,3:0|0:0,0:0:0:0:
84,107,19176,2,0,L|72:162,3,35.6475008431034,8|8|8|8,0:0|0:0|0:0|0:0,0:0:0:0:
124,40,19461,6,0,L|138:209,1,142.590003372414,6|8,3:2|0:0,0:0:0:0:
142,318,19890,1,0,3:0:0:0:
205,131,20033,2,0,P|271:121|332:187,1,142.590003372414,2|8,0:2|0:0,0:0:0:0:
323,280,20461,1,0,0:0:0:0:
487,76,20604,6,0,L|473:245,1,142.590003372414,2|8,3:2|0:0,0:0:0:0:
464,368,21033,1,0,3:0:0:0:
390,207,21176,2,0,P|349:181|305:186,1,71.2950016862069,2|0,0:0|3:0,0:0:0:0:
251,317,21461,2,0,P|286:311|314:289,1,71.2950016862069,8|0,0:0|0:0,0:0:0:0:
160,176,21747,6,0,L|171:276,1,71.2950016862069,2|0,3:2|0:0,0:0:0:0:
219,94,22033,1,10,0:0:0:0:
219,94,22176,1,2,3:2:0:0:
75,170,22319,2,0,L|83:99,1,71.2950016862069,2|0,0:0|3:0,0:0:0:0:
229,6,22604,2,0,L|237:76,1,71.2950016862069,10|0,0:0|0:0,0:0:0:0:
300,251,22890,6,0,P|364:283|428:251,2,142.590003372414,2|8|2,3:2|0:0|3:2,0:0:0:0:
255,157,23604,1,0,0:0:0:0:
378,61,23747,2,0,L|374:96,2,35.6475008431034,8|0|8,0:0|0:0|0:0,0:0:0:0:
160,57,24033,6,0,L|178:223,1,142.590003372414,6|8,3:2|0:0,0:0:0:0:
274,297,24461,1,0,3:0:0:0:
93,212,24604,2,0,L|75:378,1,142.590003372414,2|8,0:0|0:0,0:0:0:0:
181,337,25033,1,0,0:0:0:0:
275,193,25176,2,0,P|351:213|383:311,1,178.237504215517,6|0,3:2|0:0,0:0:0:0:
274,297,25604,1,0,3:0:0:0:
387,182,25747,2,0,L|395:96,1,71.2950016862069,2|0,3:2|0:0,0:0:0:0:
201,236,26033,2,0,L|194:165,1,71.2950016862069,10|0,0:0|0:0,0:0:0:0:
346,34,26319,6,0,P|269:2|202:38,1,142.590003372414,2|8,3:2|0:0,0:0:0:0:
108,148,26747,1,0,3:0:0:0:
108,148,26818,1,0,3:0:0:0:
108,148,26890,2,0,L|112:238,1,71.2950016862069,2|8,3:2|0:0,0:0:0:0:
202,354,27176,1,8,0:0:0:0:
86,94,28604,6,0,L|184:80,2,83.7899989771729,2|0|0,0:2|0:2|0:2,0:2:0:0:
57,190,29318,1,0,0:2:0:0:
57,190,29461,2,0,L|60:245,1,41.8949994885864,0|2,0:0|0:2,0:0:0:0:
138,295,29747,2,0,L|149:212,2,83.7899989771729,0|0|0,0:0|0:2|0:2,0:0:0:0:
211,363,30461,1,0,0:2:0:0:
211,363,30604,2,0,L|266:360,1,41.8949994885864,0|0,0:2|0:2,0:2:0:0:
353,352,30890,6,0,P|382:312|372:262,1,83.7899989771729,2|0,0:2|0:2,0:2:0:0:
243,132,31461,6,0,P|244:173|270:204,1,83.7899989771729,2|0,0:2|0:2,0:2:0:0:
406,157,31890,2,0,L|417:71,1,83.7899989771729,8|0,2:2|0:2,0:0:0:0:
317,58,32318,2,0,L|327:141,1,83.7899989771729,2|0,0:2|0:2,0:2:0:0:
282,231,32747,1,8,0:0:0:0:
282,231,32890,2,0,L|223:224,1,41.8949994885864,8|0,0:0|0:0,0:0:0:0:
164,293,33176,6,0,L|81:281,2,83.7899989771729,2|0|0,0:2|0:2|0:2,0:2:0:0:
151,193,33890,1,2,0:2:0:0:
151,193,34033,2,0,L|154:138,1,41.8949994885864,0|2,0:2|0:2,0:0:0:0:
57,118,34319,2,0,L|68:200,2,83.7899989771729,0|0|0,0:0|0:2|0:0,0:0:0:0:
134,53,35033,1,8,0:0:0:0:
134,53,35176,2,0,L|189:56,1,41.8949994885864,8|8,0:0|0:0,0:0:0:0:
339,59,35461,6,0,L|432:47,1,83.7899989771729,2|0,0:2|0:2,0:2:0:0:
305,213,36033,6,0,L|212:201,1,83.7899989771729,2|0,0:2|0:2,0:2:0:0:
143,138,36461,1,2,0:2:0:0:
143,138,36604,2,0,P|150:75|153:54,1,83.7899989771729,0|0,0:2|0:0,0:0:0:0:
248,18,37033,2,0,L|302:26,1,41.8949994885864,8|0,0:0|0:0,0:0:0:0:
334,114,37319,1,8,0:0:0:0:
275,206,37462,2,0,L|216:213,1,41.8949994885864,8|0,2:2|0:0,0:0:0:0:
93,115,37747,6,0,P|122:151|127:239,1,127.890001073296,6|8,3:2|0:0,0:0:0:0:
22,336,38176,2,0,P|54:317|94:312,1,63.9450005366478,2|0,0:0|0:0,0:0:0:0:
234,347,38461,2,0,P|202:339|176:322,1,63.9450005366478,2|8,3:2|0:0,0:0:0:0:
294,212,38747,1,2,0:0:0:0:
376,367,38890,2,0,L|388:233,1,127.890001073296,0|8,3:0|0:0,0:0:0:0:
470,97,39318,1,0,0:0:0:0:
376,206,39461,2,0,L|371:128,1,63.9450005366478,0|0,1:0|3:0,0:0:0:0:
270,34,39747,1,8,0:0:0:0:
270,34,39890,1,0,0:0:0:0:
213,193,40033,6,0,P|169:241|105:241,2,127.890001073296,2|8|2,3:0|0:0|0:0,0:0:0:0:
81,110,40747,1,0,3:0:0:0:
81,110,40890,2,0,P|94:146|94:255,1,127.890001073296,8|0,0:0|3:0,0:0:0:0:
35,343,41318,1,0,0:0:0:0:
187,233,41461,2,0,P|174:269|174:378,1,127.890001073296,8|0,0:0|3:0,0:0:0:0:
281,384,41890,1,0,3:0:0:0:
375,230,42033,2,0,P|332:217|271:237,1,95.9175008049717,8|0,1:2|3:0,0:0:0:0:
270,306,42318,6,0,L|258:162,1,127.890001073296,6|8,3:2|0:0,0:0:0:0:
340,33,42747,2,0,P|373:12|412:12,1,63.9450005366478,2|0,0:0|0:0,0:0:0:0:
275,149,43033,2,0,P|243:143|217:125,1,63.9450005366478,2|8,3:2|1:2,0:0:0:0:
145,30,43318,1,2,0:0:0:0:
64,164,43461,2,0,P|74:232|76:302,2,127.890001073296,0|8|8,3:0|0:0|0:0,0:0:0:0:
200,139,44176,1,0,3:0:0:0:
159,275,44318,2,0,P|162:243|172:212,1,63.9450005366478,8|0,0:0|3:0,0:0:0:0:
236,55,44604,6,0,P|285:72|339:147,1,127.890001073296,2|8,3:2|0:0,0:0:0:0:
379,291,45033,2,0,P|414:313|453:313,1,63.9450005366478,2|0,0:0|3:0,0:0:0:0:
345,168,45318,1,2,3:0:0:0:
295,310,45461,2,0,P|269:328|238:331,1,63.9450005366478,8|0,0:0|3:0,0:0:0:0:
182,273,45676,1,8,0:0:0:0:
182,273,45747,2,0,L|187:229,3,31.9725002683239,2|0|0|0,3:2|0:0|3:0|0:0,0:0:0:0:
152,172,46033,2,0,L|146:85,1,63.9450005366478,8|8,0:0|0:0,0:0:0:0:
190,41,46247,1,8,0:0:0:0:
190,41,46318,2,0,P|222:41|259:61,1,63.9450005366478,8|8,3:0|3:0,0:0:0:0:
344,197,46604,1,12,0:0:0:0:
330,74,46747,1,8,0:0:0:0:
341,171,46890,5,2,3:2:0:0:
179,295,47176,1,0,3:2:0:0:
28,158,47461,1,2,3:2:0:0:
178,276,47747,1,0,3:2:0:0:
342,190,48033,5,2,3:2:0:0:
180,314,48319,1,0,3:2:0:0:
29,177,48604,1,2,3:2:0:0:
179,295,48890,1,0,3:2:0:0:
343,209,49176,5,2,3:2:0:0:
181,333,49462,1,0,3:2:0:0:
30,196,49747,1,2,3:2:0:0:
180,314,50033,1,0,3:2:0:0:
345,189,50318,6,0,L|361:68,1,113.189997754715,2|0,3:2|3:0,3:2:0:0:
240,43,50747,1,0,0:0:0:0:
250,67,50818,1,0,3:0:0:0:
269,80,50890,2,0,L|351:69,1,75.4599985031433,0|0,3:0|3:0,3:0:0:0:
428,137,51176,2,0,L|465:141,2,37.7299992515717,8|8|8,0:0|0:0|0:0,0:0:0:0:
345,189,51461,6,0,L|356:312,1,113.189997754715,6|8,3:2|0:0,0:0:0:0:
235,368,51890,1,2,0:0:0:0:
235,368,52033,2,0,L|109:354,1,113.189997754715,0|8,3:0|0:0,0:0:0:0:
53,249,52461,5,2,0:0:0:0:
53,249,52604,2,0,L|51:192,1,56.5949988773575,0|2,3:0|0:0,0:0:0:0:
158,139,52890,2,0,L|156:196,1,56.5949988773575,8|2,0:0|0:0,0:0:0:0:
64,248,53176,2,0,L|62:191,1,56.5949988773575,0|2,3:0|3:2,0:0:0:0:
169,138,53462,2,0,L|167:195,1,56.5949988773575,8|0,0:0|3:0,0:0:0:0:
222,256,53676,1,0,3:0:0:0:
222,256,53747,2,0,P|252:276|290:276,1,56.5949988773575,6|0,3:2|0:0,0:0:0:0:
349,192,54033,1,8,0:0:0:0:
393,328,54176,2,0,P|420:322|442:305,1,56.5949988773575,2|8,3:2|0:0,0:0:0:0:
491,140,54461,2,0,L|496:83,1,56.5949988773575,2|8,3:2|0:0,0:0:0:0:
432,43,54676,1,8,0:0:0:0:
432,43,54747,5,8,0:0:0:0:
353,207,54890,1,14,0:0:0:0:
47,24,56033,6,0,P|102:24|132:49,1,85.9950003280449,6|0,3:2|0:0,0:0:0:0:
192,205,56318,1,8,0:2:0:0:
71,97,56461,2,0,B|44:179|44:179|43:281,1,171.99000065609,2|0,0:0|3:0,0:0:0:0:
213,367,56890,1,8,0:2:0:0:
351,228,57033,2,0,L|347:183,1,42.9975001640224
310,72,57176,2,0,L|319:210,1,128.992500492067,2|0,3:2|0:0,0:0:0:0:
277,268,57461,1,8,0:2:0:0:
130,120,57604,2,0,B|165:92|165:92|292:107,1,171.99000065609,2|0,0:0|3:0,0:0:0:0:
161,273,58033,2,0,L|63:261,1,85.9950003280449,8|2,0:2|0:0,0:0:0:0:
290,363,58318,6,0,L|388:350,1,85.9950003280449,0|0,3:0|0:0,0:0:0:0:
456,185,58604,1,8,0:0:0:0:
392,316,58747,1,0,0:0:0:0:
465,164,58890,2,0,L|366:151,1,85.9950003280449,2|0,3:2|0:0,0:0:0:0:
237,293,59176,2,0,L|335:280,1,85.9950003280449,8|2,0:0|0:0,0:0:0:0:
169,132,59461,2,0,P|216:203|226:301,1,171.99000065609,2|8,3:0|0:0,0:0:0:0:
127,230,59890,1,0,0:0:0:0:
255,106,60033,2,0,P|307:106|355:123,1,85.9950003280449,2|0,3:2|0:0,0:0:0:0:
449,265,60318,2,0,P|397:265|349:248,1,85.9950003280449,10|0,0:0|0:0,0:0:0:0:
307,188,60533,5,8,0:0:0:0:
307,188,60604,2,0,P|340:249|356:354,1,171.99000065609,2|8,3:2|0:0,0:0:0:0:
462,170,61033,2,0,P|444:202|436:257,1,85.9950003280449,2|0,0:0|3:0,0:0:0:0:
260,336,61318,2,0,P|253:293|233:255,1,85.9950003280449,2|8,0:0|0:0,0:0:0:0:
127,188,61604,1,2,0:0:0:0:
233,76,61747,2,0,P|226:118|206:156,1,85.9950003280449,0|0,3:0|0:0,0:0:0:0:
41,223,62033,2,0,P|21:184|14:142,1,85.9950003280449,10|0,0:0|0:0,0:0:0:0:
244,78,62318,2,0,P|237:120|217:158,1,85.9950003280449,2|0,3:0|0:0,0:0:0:0:
52,221,62604,2,0,P|32:182|25:140,1,85.9950003280449,10|0,0:0|3:0,0:0:0:0:
156,284,62890,6,0,P|221:249|300:249,1,128.992500492067,0|0,3:0|0:0,0:0:0:0:
353,228,63176,2,0,P|289:220|233:188,1,128.992500492067,8|8,0:0|0:0,0:0:0:0:
229,111,63461,2,0,P|245:68|246:20,1,85.9950003280449,8|0,0:0|3:0,0:0:0:0:
377,207,63747,2,0,P|361:164|360:116,1,85.9950003280449,8|0,0:0|3:0,0:0:0:0:
313,318,64033,2,0,L|149:338,1,128.992500492067,14|0,0:2|0:0,0:0:0:0:
118,280,64318,2,0,L|236:300,1,85.9950003280449,10|0,0:0|0:0,0:0:0:0:
266,232,64533,1,8,0:0:0:0:
266,232,64604,2,0,L|204:246,1,42.9975001640224,0|0,3:0|3:0,0:0:0:0:
135,165,64747,2,0,L|197:178,1,42.9975001640224,8|0,0:0|3:0,0:0:0:0:
285,111,64890,2,0,L|223:125,1,42.9975001640224,8|8,0:0|0:0,0:0:0:0:
154,44,65033,2,8,L|216:57,1,42.9975001640224
379,117,65176,6,0,L|271:141,1,85.9950003280449,6|0,3:2|0:0,0:0:0:0:
429,232,65461,1,8,0:2:0:0:
471,46,65604,2,0,B|455:78|455:78|455:222,1,171.99000065609,0|0,3:0|3:0,0:0:0:0:
332,357,66033,2,0,L|244:343,1,85.9950003280449,8|0,0:2|0:0,0:0:0:0:
51,306,66318,2,0,P|88:247|77:161,1,128.992500492067,2|0,3:2|0:0,0:0:0:0:
35,120,66604,1,8,0:2:0:0:
136,252,66747,2,0,P|232:252|310:212,1,171.99000065609,2|0,0:0|3:0,0:0:0:0:
349,41,67176,1,8,0:2:0:0:
381,209,67318,2,0,P|370:178|342:145,1,42.9975001640224,2|0,0:0|0:0,0:0:0:0:
438,25,67461,6,0,P|423:66|419:129,1,85.9950003280449,0|0,3:0|0:0,0:0:0:0:
496,279,67747,1,8,0:0:0:0:
429,133,67890,1,0,0:0:0:0:
503,295,68033,2,0,P|462:309|420:315,1,85.9950003280449,2|0,3:2|0:0,0:0:0:0:
284,204,68318,2,8,P|326:209|366:224,1,85.9950003280449,8|2,0:0|0:0,0:0:0:0:
260,333,68604,6,0,L|247:142,1,171.99000065609,6|0,3:2|3:0,0:0:0:0:
118,36,69033,1,8,0:0:0:0:
156,219,69176,2,0,L|163:104,1,85.9950003280449,0|8,3:0|0:0,0:0:0:0:
315,59,69461,1,8,0:0:0:0:
280,245,69604,5,8,0:0:0:0:
280,245,69676,1,8,0:0:0:0:
279,245,69747,2,0,L|271:141,1,71.2950016862069,6|0,3:2|0:0,0:0:0:0:
396,257,70033,2,0,L|391:333,1,71.2950016862069,0|0,3:0|0:0,0:0:0:0:
296,238,70318,2,0,L|289:134,1,71.2950016862069,0|0,3:0|0:0,0:0:0:0:
413,249,70604,2,0,L|408:326,1,71.2950016862069,0|0,3:0|0:0,0:0:0:0:
228,353,70890,6,0,L|143:340,1,71.2950016862069,0|0,3:0|0:0,0:0:0:0:
66,230,71176,2,0,L|152:218,1,71.2950016862069,0|0,3:0|0:0,0:0:0:0:
224,340,71461,2,0,L|138:327,1,71.2950016862069,0|0,3:0|0:0,0:0:0:0:
61,217,71747,1,2,3:2:0:0:
105,299,71890,1,0,0:0:0:0:
171,116,72033,6,0,B|259:135|200:190|299:208,1,142.590003372414,6|8,3:2|0:0,0:0:0:0:
387,129,72461,1,0,3:0:0:0:
429,312,72604,2,0,P|409:271|404:219,1,71.2950016862069,0|0,3:0|3:0,0:0:0:0:
368,35,72890,1,0,3:0:0:0:
503,138,73033,1,8,0:0:0:0:
281,140,73176,5,2,3:2:0:0:
111,343,74318,6,0,L|97:245,2,83.7899989771729,2|0|0,0:2|0:2|0:2,0:2:0:0:
207,372,75032,1,0,0:2:0:0:
207,372,75175,2,0,L|262:369,1,41.8949994885864,0|2,0:0|0:2,0:0:0:0:
312,291,75461,2,0,L|229:280,2,83.7899989771729,0|0|0,0:0|0:2|0:2,0:0:0:0:
380,218,76175,1,0,0:2:0:0:
380,218,76318,2,0,L|377:163,1,41.8949994885864,0|0,0:2|0:2,0:2:0:0:
371,82,76604,6,0,P|412:83|443:109,1,83.7899989771729,2|0,0:2|0:2,0:2:0:0:
223,177,77175,6,0,P|191:203|150:204,1,83.7899989771729,2|0,0:2|0:2,0:2:0:0:
77,127,77604,2,0,L|160:117,1,83.7899989771729,0|0,2:2|0:0,0:0:0:0:
144,30,78032,2,0,L|227:40,1,83.7899989771729,2|0,0:2|0:2,0:0:0:0:
251,138,78461,1,8,0:0:0:0:
251,138,78604,2,0,L|244:197,1,41.8949994885864,8|0,0:0|0:0,0:0:0:0:
316,256,78890,6,0,L|304:339,2,83.7899989771729,2|0|0,0:2|0:2|0:2,0:2:0:0:
216,268,79604,1,2,0:2:0:0:
216,268,79747,2,0,L|161:265,1,41.8949994885864,0|2,0:2|0:2,0:0:0:0:
143,371,80033,2,0,L|225:360,2,83.7899989771729,0|0|0,0:0|0:2|0:0,0:0:0:0:
70,295,80747,1,8,0:0:0:0:
70,295,80890,2,0,L|73:240,1,41.8949994885864,8|8,0:0|0:0,0:0:0:0:
88,118,81175,6,0,L|76:25,1,83.7899989771729,2|0,0:2|0:2,0:2:0:0:
230,124,81747,6,0,L|218:217,1,83.7899989771729,2|0,0:2|0:2,0:2:0:0:
155,286,82175,1,2,0:2:0:0:
155,286,82318,2,0,P|92:279|71:276,1,83.7899989771729
35,181,82747,2,0,L|43:127,1,41.8949994885864,8|0,0:0|0:0,0:0:0:0:
133,94,83033,1,8,0:0:0:0:
137,116,83104,1,0,0:0:0:0:
142,137,83176,1,8,2:2:0:0:
142,137,83461,6,0,L|273:124,1,127.890001073296,6|8,3:2|0:0,0:0:0:0:
386,227,83890,2,0,L|374:306,1,63.9450005366478,2|0,0:0|0:0,0:0:0:0:
223,153,84176,2,0,L|235:232,1,63.9450005366478,2|8,3:2|0:0,0:0:0:0:
396,143,84461,1,2,0:0:0:0:
260,292,84604,2,0,P|192:289|158:234,1,127.890001073296,0|8,3:0|0:0,0:0:0:0:
48,153,85032,1,0,0:0:0:0:
79,290,85175,2,0,L|84:212,1,63.9450005366478,0|0,1:0|3:0,0:0:0:0:
89,79,85461,1,8,0:0:0:0:
89,79,85604,1,0,0:0:0:0:
219,175,85747,6,0,P|276:137|338:128,2,127.890001073296,2|8|2,3:0|0:0|0:0,0:0:0:0:
353,248,86461,1,0,0:0:0:0:
454,87,86604,2,0,P|397:49|335:40,1,127.890001073296,8|0,0:0|3:0,0:0:0:0:
410,160,87032,1,0,0:0:0:0:
257,59,87176,2,0,P|194:70|142:106,1,127.890001073296,8|0,0:0|3:0,0:0:0:0:
71,250,87604,1,0,3:0:0:0:
62,104,87747,2,0,P|100:143|117:210,1,95.9175008049717,8|0,1:2|3:0,0:0:0:0:
155,250,88033,6,0,P|210:283|277:283,1,127.890001073296,6|8,3:2|0:0,0:0:0:0:
415,191,88461,2,0,P|396:220|392:268,1,63.9450005366478,2|0,0:0|0:0,0:0:0:0:
239,165,88747,2,0,P|232:133|214:107,1,63.9450005366478,2|8,3:2|1:2,0:0:0:0:
314,74,89032,1,2,0:0:0:0:
159,166,89176,2,0,P|95:150|11:144,2,127.890001073296,0|8|8,3:0|0:0|0:0,0:0:0:0:
77,249,89890,1,0,3:0:0:0:
220,300,90033,2,0,P|189:309|157:312,1,63.9450005366478,8|0,0:0|3:0,0:0:0:0:
291,223,90318,6,0,P|255:289|255:363,1,127.890001073296,2|8,3:2|0:0,0:0:0:0:
432,220,90747,2,0,P|408:187|401:144,1,63.9450005366478,2|0,0:0|3:0,0:0:0:0:
461,74,91032,1,2,3:0:0:0:
310,149,91176,2,0,P|334:116|341:73,1,63.9450005366478,8|0,0:0|3:0,0:0:0:0:
282,26,91390,1,8,0:0:0:0:
282,26,91461,2,0,L|234:35,3,31.9725002683239,2|0|0|0,3:2|3:0|3:0|3:0,0:0:0:0:
204,101,91747,2,0,L|127:92,1,63.9450005366478,8|8,0:0|0:0,0:0:0:0:
59,100,91961,1,8,0:0:0:0:
59,100,92033,2,0,P|73:134|73:176,1,63.9450005366478,8|8,3:0|3:0,0:0:0:0:
13,335,92318,1,12,0:0:0:0:
162,259,92461,1,8,0:0:0:0:
41,255,92604,5,2,3:2:0:0:
105,87,92890,1,0,3:2:0:0:
272,152,93175,1,2,3:2:0:0:
208,319,93461,1,0,3:2:0:0:
33,238,93747,5,2,3:2:0:0:
97,70,94033,1,0,3:2:0:0:
264,135,94318,1,2,3:2:0:0:
200,302,94604,1,0,3:2:0:0:
26,218,94890,5,2,3:2:0:0:
90,50,95176,1,0,3:2:0:0:
257,115,95461,1,2,3:2:0:0:
193,282,95747,1,0,3:2:0:0:
450,185,96033,6,0,L|460:72,1,113.189997754715,2|0,3:2|3:0,0:0:0:0:
345,110,96461,1,0,0:0:0:0:
403,252,96604,2,0,P|427:263|463:261,2,37.7299992515717,8|0|0,3:0|3:0|3:0,3:0:0:0:
341,195,96890,2,0,P|322:198|306:208,2,37.7299992515717,8|8|8,0:0|0:0|0:0,0:0:0:0:
277,284,97176,6,0,L|157:276,1,113.189997754715,6|8,3:2|0:0,0:0:0:0:
78,170,97604,1,2,0:0:0:0:
78,170,97747,2,0,L|142:174,1,56.5949988773575,0|2,3:0|0:0,0:0:0:0:
257,113,98033,2,0,L|313:109,1,56.5949988773575,8|2,0:0|0:0,0:0:0:0:
126,160,98318,6,0,L|70:157,1,56.5949988773575,0|2,3:0|0:0,0:0:0:0:
249,100,98604,2,0,L|305:96,1,56.5949988773575,8|2,0:0|0:0,0:0:0:0:
442,169,98890,2,0,L|498:172,1,56.5949988773575,0|2,3:0|3:2,0:0:0:0:
319,230,99176,2,0,L|262:233,1,56.5949988773575,8|0,0:0|3:0,0:0:0:0:
212,295,99390,1,0,3:0:0:0:
212,295,99461,2,0,P|188:261|188:227,1,56.5949988773575,6|0,3:2|0:0,0:0:0:0:
301,143,99747,1,8,0:0:0:0:
372,289,99890,2,0,P|396:255|396:221,1,56.5949988773575,2|8,3:2|0:0,0:0:0:0:
467,90,100176,2,0,L|472:147,1,56.5949988773575,2|8,3:2|0:0,0:0:0:0:
508,221,100390,1,8,0:0:0:0:
508,221,100461,5,8,0:0:0:0:
374,80,100604,1,14,0:0:0:0:
401,369,101747,6,0,P|346:362|319:333,1,85.9950003280449,6|0,3:2|0:0,0:0:0:0:
279,171,102032,1,8,0:2:0:0:
402,293,102175,2,0,B|448:218|452:113,1,171.99000065609,2|0,0:0|3:0,0:0:0:0:
278,8,102604,1,8,0:2:0:0:
124,129,102747,2,0,P|132:147|134:172,1,42.9975001640224,0|0,3:0|3:0,0:0:0:0:
47,293,102890,2,0,P|42:227|59:160,1,128.992500492067,2|0,3:2|0:0,0:0:0:0:
85,149,103175,1,8,0:2:0:0:
170,332,103318,2,0,P|232:305|271:206,1,171.99000065609,2|0,0:0|3:0,0:0:0:0:
320,82,103747,2,0,P|361:110|415:105,1,85.9950003280449,8|2,0:2|0:0,0:0:0:0:
173,0,104033,6,0,P|130:4|96:29,1,85.9950003280449,0|0,3:0|0:0,0:0:0:0:
12,174,104318,1,8,0:0:0:0:
92,52,104461,1,0,0:0:0:0:
3,195,104604,2,0,P|45:190|79:165,1,85.9950003280449,2|0,3:2|0:0,0:0:0:0:
240,111,104890,2,0,P|206:85|163:81,1,85.9950003280449,8|2,0:0|0:0,0:0:0:0:
241,307,105175,2,0,P|182:242|184:144,1,171.99000065609,2|8,3:0|0:0,0:0:0:0:
326,201,105604,1,0,0:0:0:0:
159,268,105747,2,0,P|107:261|61:238,1,85.9950003280449,2|0,3:2|0:0,0:0:0:0:
31,80,106033,2,0,P|82:86|128:109,1,85.9950003280449,10|0,0:0|0:0,0:0:0:0:
162,174,106247,5,8,0:0:0:0:
162,174,106318,2,0,P|136:109|133:3,1,171.99000065609,2|8,3:2|0:0,0:0:0:0:
6,173,106747,2,0,P|27:143|42:89,1,85.9950003280449,2|0,0:0|3:0,0:0:0:0:
227,33,107033,2,0,P|228:76|243:116,1,85.9950003280449,2|8,0:0|0:0,0:0:0:0:
341,196,107318,1,2,0:0:0:0:
222,294,107461,2,0,P|234:253|258:217,1,85.9950003280449,0|0,3:0|0:0,0:0:0:0:
431,172,107747,2,0,P|446:213|447:255,1,85.9950003280449,10|0,0:0|0:0,0:0:0:0:
212,291,108033,2,0,P|224:250|248:214,1,85.9950003280449,2|0,3:0|0:0,0:0:0:0:
420,172,108318,2,0,P|435:213|436:255,1,85.9950003280449,10|0,0:0|3:0,0:0:0:0:
324,97,108604,6,0,P|255:123|176:114,1,128.992500492067,0|0,3:0|0:0,0:0:0:0:
122,129,108890,2,0,P|184:144|236:183,1,128.992500492067,8|8,0:0|0:0,0:0:0:0:
230,260,109175,2,0,P|208:300|202:348,1,85.9950003280449,8|0,0:0|3:0,0:0:0:0:
95,147,109461,2,0,P|105:191|100:239,1,85.9950003280449,8|0,0:0|3:0,0:0:0:0:
172,44,109747,2,0,L|337:44,1,128.992500492067,14|0,0:2|0:0,0:0:0:0:
361,106,110033,2,0,L|246:71,1,85.9950003280449,10|0,0:0|0:0,0:0:0:0:
216,131,110247,1,8,0:0:0:0:
216,131,110318,2,0,P|243:120|279:124,1,42.9975001640224,0|0,3:0|3:0,0:0:0:0:
330,218,110461,2,0,P|308:204|270:197,1,42.9975001640224,8|0,0:0|3:0,0:0:0:0:
175,253,110604,2,0,P|200:242|238:246,1,42.9975001640224,8|0,0:0|0:0,0:0:0:0:
297,335,110747,2,0,P|275:323|237:314,1,42.9975001640224,8|8,0:0|0:0,0:0:0:0:
430,302,110890,6,0,P|461:249|460:206,1,85.9950003280449,6|0,3:2|0:0,0:0:0:0:
365,106,111176,1,8,0:2:0:0:
317,255,111318,2,0,P|257:210|140:239,1,171.99000065609,2|0,0:0|3:0,0:0:0:0:
62,349,111747,2,0,P|83:306|84:245,1,85.9950003280449,8|0,0:2|0:0,0:0:0:0:
22,75,112033,6,0,P|48:115|100:132,1,85.9950003280449,2|0,3:2|0:0,0:0:0:0:
194,21,112318,1,8,0:2:0:0:
282,156,112461,2,0,P|248:221|222:328,1,171.99000065609,2|0,0:0|3:0,0:0:0:0:
179,129,112890,1,8,0:2:0:0:
265,244,113033,1,2,0:0:0:0:
354,91,113176,5,0,3:0:0:0:
435,231,113318,2,0,L|445:125,1,85.9950003280449,0|8,0:0|0:0,0:0:0:0:
349,239,113604,1,0,0:0:0:0:
469,344,113747,2,0,L|459:238,1,85.9950003280449,2|0,3:2|0:0,0:0:0:0:
256,158,114033,2,0,L|264:243,1,85.9950003280449,8|0,0:0|0:0,0:0:0:0:
328,80,114318,6,0,P|250:47|170:108,1,171.99000065609,6|0,3:2|3:0,0:0:0:0:
149,269,114747,1,8,0:0:0:0:
23,131,114890,2,0,P|43:168|49:227,1,85.9950003280449,0|8,3:0|0:0,0:0:0:0:
152,361,115176,2,0,L|202:344,1,42.9975001640224,8|8,0:0|0:0,0:0:0:0:
332,272,115318,2,0,L|282:255,1,42.9975001640224,8|8,0:0|0:0,0:0:0:0:
139,146,115461,6,0,L|227:113,1,71.2950016862069,6|0,3:2|0:0,0:0:0:0:
347,191,115747,2,0,L|413:216,1,71.2950016862069,0|0,3:0|0:0,0:0:0:0:
205,102,116033,2,0,L|139:128,1,71.2950016862069,0|0,3:0|0:0,0:0:0:0:
347,173,116319,2,0,L|413:198,1,71.2950016862069,0|0,3:0|0:0,0:0:0:0:
205,88,116604,2,0,L|138:113,1,71.2950016862069,0|0,3:0|0:0,0:0:0:0:
346,158,116890,2,0,L|412:183,1,71.2950016862069,0|0,3:0|0:0,0:0:0:0:
205,73,117176,2,0,L|138:98,1,71.2950016862069,0|0,3:0|0:0,0:0:0:0:
346,143,117461,1,2,3:2:0:0:
300,53,117604,1,0,0:0:0:0:
214,223,117747,6,0,B|179:252|179:252|52:243,1,142.590003372414,6|8,3:2|0:0,0:0:0:0:
206,108,118176,1,0,0:0:0:0:
319,250,118318,2,0,L|307:345,1,71.2950016862069,8|8,0:0|0:0,0:0:0:0:
427,195,118604,1,8,0:0:0:0:
225,134,118747,1,8,0:0:0:0:
440,91,118890,5,10,0:2:0:0:
320,96,120033,6,0,L|496:112,2,142.590003372414,6|8|0,3:2|0:0|3:0,0:0:0:0:
128,282,120890,1,8,0:0:0:0:
158,192,121033,1,0,0:0:0:0:
200,340,121176,2,0,L|376:313,1,142.590003372414,2|10,3:0|0:0,0:0:0:0:
442,231,121604,1,0,0:0:0:0:
315,144,121747,2,0,L|331:253,1,71.2950016862069,2|2,3:0|0:0,0:0:0:0:
425,62,122033,1,10,0:0:0:0:
425,62,122176,1,0,0:0:0:0:
293,151,122318,6,0,L|195:135,1,71.2950016862069,2|2,3:2|0:0,0:0:0:0:
126,22,122604,1,8,0:0:0:0:
126,22,122747,1,8,0:0:0:0:
273,130,122890,2,0,L|175:114,1,71.2950016862069,2|2,3:2|3:0,0:0:0:0:
60,142,123176,1,8,0:0:0:0:
122,295,123318,6,0,B|192:286|192:286|212:261|212:261|311:251,1,142.590003372414,8|0,0:0|0:0,0:0:0:0:
385,347,123747,1,8,0:0:0:0:
462,226,123890,2,0,L|473:136,1,71.2950016862069,2|0,0:2|3:0,0:0:0:0:
354,85,124176,1,0,3:0:0:0:
354,85,124247,1,0,3:0:0:0:
354,85,124318,2,0,L|362:155,1,71.2950016862069,8|8,0:0|0:0,0:0:0:0:
296,208,124533,5,8,0:0:0:0:
296,208,124604,2,0,B|242:172|242:172|146:165,1,142.590003372414,2|8,3:2|0:0,0:0:0:0:
70,310,125033,1,8,0:0:0:0:
142,187,125176,2,0,L|231:192,1,71.2950016862069,2|2,0:0|0:0,0:0:0:0:
64,325,125461,1,8,0:0:0:0:
63,155,125604,6,0,L|81:357,1,142.590003372414,2|0,0:0|0:0,0:0:0:0:
239,335,126033,1,8,0:0:0:0:
240,181,126176,2,0,L|222:383,1,142.590003372414,2|0,0:0|0:0,0:0:0:0:
343,184,126604,2,0,P|379:166|419:174,1,71.2950016862069,8|0,0:0|0:0,0:0:0:0:
508,301,126890,5,2,3:2:0:0:
508,301,127033,1,2,0:0:0:0:
479,131,127176,2,0,P|452:100|412:90,1,71.2950016862069,10|8,0:0|0:0,0:0:0:0:
354,132,127390,1,8,0:0:0:0:
354,132,127461,2,0,P|332:159|299:172,1,71.2950016862069,8|8,0:0|0:0,0:0:0:0:
208,55,127747,2,0,P|250:122|250:159,1,106.94250252931,8|0,0:0|0:0,0:0:0:0:
196,212,128033,6,8,B|120:192|170:152|71:128,1,142.590003372414,12|8,0:0|0:0,0:0:0:0:
26,285,128461,1,8,0:0:0:0:
26,285,128533,1,8,0:0:0:0:
26,285,128604,2,0,P|52:245|62:198,1,71.2950016862069,8|8,0:0|0:0,0:0:0:0:
159,316,128890,2,8,P|147:292|145:261,3,35.6475008431034,12|8|8|8,0:0|0:0|0:0|0:0,0:0:0:0:
228,226,129176,5,2,3:2:0:0:
245,227,129247,1,2,2:0:0:0:
263,229,129318,1,2,2:0:0:0:
281,231,129390,1,2,2:0:0:0:
298,233,129461,2,0,L|348:225,3,35.6475008431034,10|2|2|2,2:0|2:0|2:0|2:0,0:0:0:0:
362,142,129747,2,0,L|407:122,3,35.6475008431034,2|2|2|2,3:2|0:0|0:0|0:0,0:0:0:0:
387,46,130033,2,8,L|426:15,3,35.6475008431034,8|10|10|10,0:0|0:0|0:0|0:0,0:0:0:0:
291,54,130318,5,2,3:2:0:0:
273,50,130389,1,2,0:0:0:0:
255,47,130461,2,0,L|199:56,1,35.6475008431034,2|2,0:0|0:0,0:0:0:0:
121,119,130604,1,8,0:0:0:0:
142,120,130675,1,10,0:0:0:0:
163,122,130746,1,10,0:0:0:0:
184,124,130818,1,10,0:0:0:0:
206,126,130890,2,0,L|218:185,3,35.6475008431034,2|2|2|2,3:2|0:0|0:0|0:0,0:0:0:0:
150,209,131176,2,8,L|138:268,3,35.6475008431034,8|10|10|10,0:0|0:0|0:0|0:0,0:0:0:0:
192,309,131461,6,0,B|214:274|214:274|326:258,1,142.590003372414,2|8,3:2|0:0,0:0:0:0:
418,345,131890,1,2,0:0:0:0:
418,345,131961,1,0,0:0:0:0:
418,345,132033,2,0,L|405:287,3,35.6475008431034,2|2|2|2,3:2|0:2|0:2|0:2,0:2:0:0:
458,245,132318,2,0,L|471:187,3,35.6475008431034,10|2|2|2,0:0|0:0|0:0|0:0,0:0:0:0:
442,129,132604,6,0,B|396:168|396:168|299:168,1,142.590003372414,14|8,0:0|0:0,0:0:0:0:
150,56,133033,2,0,B|232:56|232:56|278:95,1,142.590003372414,6|0,0:0|0:0,0:0:0:0:
313,168,133390,1,8,0:0:0:0:
313,168,133461,2,8,L|302:234,3,35.6475008431034
280,286,133747,6,0,P|349:281|391:219,1,142.590003372414,6|0,3:2|3:2,0:2:0:0:
227,221,134176,1,2,0:0:0:0:
227,221,134247,1,2,0:0:0:0:
227,221,134318,2,0,P|185:193|166:90,1,142.590003372414,6|0,3:2|0:2,0:2:0:0:
256,57,134747,1,0,0:0:0:0:
72,5,134890,6,0,P|107:50|128:145,1,142.590003372414,6|0,3:2|0:0,0:0:0:0:
21,267,135318,1,2,0:0:0:0:
21,267,135390,1,2,0:0:0:0:
21,267,135461,2,0,P|68:222|133:235,1,106.94250252931,6|0,3:2|0:0,0:0:0:0:
141,292,135747,2,0,P|188:337|253:324,1,106.94250252931,6|0,3:2|0:0,0:0:0:0:
283,279,136033,6,0,P|293:195|322:130,1,142.590003372414,6|8,3:2|0:0,3:0:0:0:
207,50,136461,1,8,0:0:0:0:
207,50,136533,1,8,0:0:0:0:
207,50,136604,2,0,P|230:93|237:149,1,71.2950016862069,10|8,0:0|0:0,0:0:0:0:
393,211,136890,1,8,0:0:0:0:
242,231,137033,1,8,0:0:0:0:
242,231,137104,1,8,0:0:0:0:
242,231,137176,2,0,P|215:214|158:199,1,71.2950016862069,14|14,0:0|0:0,0:0:0:0:
277,324,137461,5,14,0:0:0:0:
371,193,137604,1,14,0:0:0:0:
371,193,138318,6,0,B|251:178|332:111|194:97,1,191.835001609943,6|0,3:2|0:0,0:0:0:0:
101,175,138890,2,0,P|126:217|131:256,1,63.9450005366478,2|0,3:2|0:0,0:0:0:0:
34,344,139176,2,0,P|44:313|62:287,1,63.9450005366478,8|0,0:0|0:0,0:0:0:0:
205,316,139461,6,0,P|258:344|337:320,1,127.890001073296,6|8,3:2|0:0,0:0:0:0:
385,203,139890,1,0,0:0:0:0:
385,203,140033,2,0,P|387:242|399:289,1,63.9450005366478,2|0,3:2|0:0,0:0:0:0:
457,154,140318,1,8,0:0:0:0:
457,154,140461,1,0,3:0:0:0:
309,105,140604,6,0,P|305:167|284:237,1,127.890001073296,2|8,3:2|0:0,0:0:0:0:
187,128,141033,1,0,0:0:0:0:
187,128,141176,2,0,P|210:162|215:200,1,63.9450005366478,2|0,3:2|0:0,0:0:0:0:
99,118,141461,2,0,P|107:87|126:62,1,63.9450005366478,8|0,0:0|0:0,0:0:0:0:
271,28,141747,6,0,P|321:66|412:75,1,127.890001073296,2|8,3:2|0:0,0:0:0:0:
495,178,142176,1,0,3:0:0:0:
495,178,142247,1,8,3:0:0:0:
495,178,142318,2,0,P|469:179|439:187,2,42.6300003577652,0|0|0,3:0|3:0|3:0,3:0:0:0:
425,258,142604,2,8,P|409:258|393:256,3,31.9725002683239
309,203,142890,6,0,P|348:238|362:329,1,127.890001073296,6|8,3:2|0:0,0:0:0:0:
176,65,143461,2,0,P|131:109|119:171,1,127.890001073296,2|8,3:2|0:0,0:0:0:0:
219,301,143890,5,0,3:0:0:0:
219,301,143961,1,8,0:0:0:0:
219,301,144033,2,8,P|207:278|202:172,1,127.890001073296
266,62,144461,1,8,0:0:0:0:
266,62,144533,1,8,0:0:0:0:
266,62,144604,2,8,L|311:70,3,31.9725002683239
377,33,144890,2,8,L|408:27,3,31.9725002683239,8|8|8|8,0:0|0:0|0:0|0:0,0:0:0:0:
462,90,145176,5,8,0:0:0:0:
459,109,145247,1,8,0:0:0:0:
457,128,145318,1,8,0:0:0:0:
492,239,145461,2,0,L|489:207,1,31.9725002683239,8|8,0:0|0:0,0:0:0:0:
360,181,145604,1,8,0:0:0:0:
326,313,145747,1,8,0:0:0:0:
274,150,145890,1,8,0:0:0:0:
234,310,146033,2,0,L|236:341,2,31.9725002683239,8|8|8,0:0|0:0|0:0,0:0:0:0:
189,121,146318,5,14,0:0:0:0:
321,179,155747,5,6,3:2:0:0:
433,331,155890,2,0,B|347:330|347:330|265:303,1,171.99000065609,2|0,0:0|0:0,0:0:0:0:
193,135,156319,1,8,0:2:0:0:
103,332,156462,2,0,L|100:290,1,42.9975001640224
63,173,156605,2,0,L|71:301,1,128.992500492067,2|0,3:2|0:0,0:0:0:0:
103,332,156890,1,8,0:2:0:0:
228,216,157033,2,0,B|418:237,1,171.99000065609,2|0,0:0|0:0,0:0:0:0:
497,92,157461,2,0,P|453:92|419:131,1,85.9950003280449,8|2,0:2|0:0,0:0:0:0:
504,290,157747,6,0,L|488:178,1,85.9950003280449,0|0,3:0|0:0,0:0:0:0:
383,359,158033,1,8,0:2:0:0:
406,196,158176,1,0,0:0:0:0:
297,361,158318,2,0,L|281:249,1,85.9950003280449,2|0,3:2|0:0,0:0:0:0:
217,120,158605,2,0,P|176:91|126:91,1,85.9950003280449,8|2,0:0|0:0,0:0:0:0:
33,276,158890,6,0,P|92:187|163:169,1,171.99000065609,2|8,3:0|0:0,0:0:0:0:
172,358,159319,1,0,0:0:0:0:
172,358,159461,2,0,P|148:316|148:254,1,85.9950003280449,2|0,3:2|0:0,0:0:0:0:
313,197,159747,2,0,P|306:239|284:275,1,85.9950003280449,10|0,0:0|0:0,0:0:0:0:
214,237,159961,5,8,0:0:0:0:
214,237,160033,2,0,P|242:151|249:53,1,171.99000065609,2|8,3:2|0:0,0:0:0:0:
124,191,160461,2,0,P|82:218|36:217,1,85.9950003280449,2|0,0:0|3:0,0:0:0:0:
159,32,160747,2,0,P|201:36|235:60,1,85.9950003280449,2|8,0:0|0:0,0:0:0:0:
278,201,161033,1,2,0:0:0:0:
444,59,161176,6,0,L|428:165,1,85.9950003280449,0|0,3:0|0:0,0:0:0:0:
276,224,161461,2,0,L|292:330,1,85.9950003280449,10|0,0:0|0:0,0:0:0:0:
415,143,161747,2,0,L|428:58,1,85.9950003280449,2|0,3:0|0:0,0:0:0:0:
260,223,162033,2,0,L|276:329,1,85.9950003280449,10|0,0:0|3:0,0:0:0:0:
198,110,162318,6,0,B|145:86|145:86|44:99,1,128.992500492067,0|0,3:0|0:0,0:0:0:0:
63,174,162604,2,0,B|133:164|133:164|186:188,1,128.992500492067,8|8,0:0|0:0,0:0:0:0:
204,270,162890,2,0,L|214:356,1,85.9950003280449,8|0,0:0|3:0,0:0:0:0:
371,244,163176,2,0,L|381:158,1,85.9950003280449,8|0,0:0|3:0,0:0:0:0:
276,25,163461,2,0,P|209:32|166:102,1,128.992500492067,14|0,0:2|0:0,0:0:0:0:
206,157,163747,2,0,P|253:120|285:119,1,85.9950003280449,10|0,0:0|0:0,0:0:0:0:
327,188,163961,1,8,0:0:0:0:
327,188,164033,2,0,P|309:214|308:246,1,42.9975001640224,0|0,3:0|0:0,0:0:0:0:
194,262,164176,2,0,P|199:293|220:316,1,42.9975001640224,8|0,0:0|0:0,0:0:0:0:
353,195,164318,2,0,P|335:221|334:253,1,42.9975001640224,8|8,0:0|0:0,0:0:0:0:
220,261,164461,2,0,P|225:292|246:315,1,42.9975001640224,8|8,0:0|0:0,0:0:0:0:
452,321,164604,6,0,P|373:267|272:256,1,171.99000065609,6|8,3:2|0:2,0:0:0:0:
67,328,165033,2,0,P|150:310|219:260,1,171.99000065609,2|0,0:0|3:0,0:0:0:0:
252,89,165461,2,0,P|229:137|224:202,1,85.9950003280449,8|0,0:2|3:0,0:0:0:0:
352,313,165747,2,0,P|329:265|324:200,1,85.9950003280449,2|0,3:2|0:0,0:0:0:0:
234,343,166033,1,8,0:2:0:0:
293,151,166176,2,0,P|352:149|411:254,1,171.99000065609,2|0,0:0|3:0,0:0:0:0:
228,318,166605,1,8,0:2:0:0:
323,233,166747,1,2,0:0:0:0:
143,174,166890,6,0,P|118:127|118:84,1,85.9950003280449,0|0,3:0|0:0,0:0:0:0:
300,32,167176,1,8,0:0:0:0:
196,112,167318,1,0,0:0:0:0:
369,85,167461,2,0,P|334:110|292:119,1,85.9950003280449,2|0,3:2|0:0,0:0:0:0:
142,0,167747,2,0,P|183:8|218:34,1,85.9950003280449,8|2,0:0|0:0,0:0:0:0:
338,159,168033,6,0,P|312:232|304:326,1,171.99000065609,6|0,3:2|3:0,0:0:0:0:
207,186,168462,1,8,0:0:0:0:
342,323,168605,2,0,P|342:280|350:237,1,85.9950003280449,0|8,3:0|0:0,0:0:0:0:
459,99,168890,2,0,P|438:82|396:74,3,42.9975001640224,8|8|8|8,0:0|0:0|0:0|0:0,0:0:0:0:
355,118,169176,6,0,P|327:142|280:152,1,71.2950016862069,6|0,3:2|0:0,0:0:0:0:
173,39,169461,2,0,P|206:49|233:72,1,71.2950016862069,0|0,3:0|0:0,0:0:0:0:
352,129,169747,2,0,P|324:153|277:163,1,71.2950016862069,0|0,3:0|0:0,0:0:0:0:
170,50,170033,2,0,P|203:60|230:83,1,71.2950016862069,0|0,3:0|0:0,0:0:0:0:
350,139,170318,2,0,P|322:163|275:173,1,71.2950016862069,0|0,3:0|0:0,0:0:0:0:
168,60,170604,2,0,P|201:70|228:93,1,71.2950016862069,0|0,3:0|0:0,0:0:0:0:
347,152,170890,2,0,P|319:176|272:186,1,71.2950016862069,0|0,3:0|0:0,0:0:0:0:
165,73,171176,1,2,3:2:0:0:
206,192,171318,1,0,0:0:0:0:
342,64,171461,6,0,P|415:100|424:179,1,142.590003372414,6|8,3:2|0:0,0:0:0:0:
355,291,171890,1,0,0:0:0:0:
206,192,172033,2,0,P|171:174|122:174,1,71.2950016862069,0|8,3:0|0:0,0:0:0:0:
56,335,172318,1,0,3:0:0:0:
16,160,172461,1,8,0:0:0:0:
71,349,172604,5,2,3:2:0:0:
71,349,173747,6,0,L|85:180,1,142.590003372414,6|8,3:2|0:0,0:0:0:0:
164,93,174176,1,0,3:0:0:0:
236,255,174319,2,0,P|281:210|365:203,1,142.590003372414,2|8,0:0|0:0,0:0:0:0:
415,317,174747,1,0,0:0:0:0:
476,158,174890,6,0,P|446:216|436:318,1,142.590003372414,2|8,3:2|0:0,0:0:0:0:
384,76,175319,1,0,3:0:0:0:
309,220,175461,2,0,P|279:245|229:250,1,71.2950016862069,2|0,0:0|3:0,0:0:0:0:
163,96,175747,2,0,P|189:119|223:128,1,71.2950016862069,10|0,0:0|0:0,0:0:0:0:
54,24,176033,6,0,P|69:64|72:117,1,71.2950016862069,2|0,3:2|0:0,0:0:0:0:
225,39,176319,1,10,0:0:0:0:
225,39,176462,1,2,3:2:0:0:
113,163,176604,2,0,P|98:203|95:256,1,71.2950016862069,2|0,0:0|3:0,0:0:0:0:
185,366,176890,2,0,P|170:326|167:273,1,71.2950016862069,8|0,0:0|0:0,0:0:0:0:
310,176,177176,6,0,P|262:246|253:323,2,142.590003372414,2|8|2,3:2|0:0|0:0,0:0:0:0:
454,114,177890,1,0,0:0:0:0:
362,296,178033,2,0,P|352:275|351:253,3,35.6475008431034,8|8|8|8,0:0|0:0|0:0|0:0,0:0:0:0:
408,210,178318,6,0,P|365:173|282:175,1,142.590003372414,6|8,3:2|0:0,0:0:0:0:
197,291,178747,1,2,3:2:0:0:
60,141,178890,2,0,P|130:135|186:177,1,142.590003372414,2|8,0:0|0:0,0:0:0:0:
199,321,179319,1,0,0:0:0:0:
40,224,179461,2,0,P|81:290|91:386,1,142.590003372414,2|8,3:2|0:0,0:0:0:0:
210,176,179890,1,2,3:2:0:0:
95,61,180033,2,0,P|72:96|66:155,1,71.2950016862069,2|0,0:0|3:0,0:0:0:0:
231,176,180318,2,0,P|210:146|200:112,1,71.2950016862069,8|0,0:0|0:0,0:0:0:0:
338,25,180604,6,0,P|398:71|483:90,1,142.590003372414,2|8,3:2|0:0,0:0:0:0:
486,209,181033,1,2,3:2:0:0:
324,130,181176,2,0,P|358:108|414:106,1,71.2950016862069,2|0,0:0|3:0,0:0:0:0:
494,236,181461,2,0,P|459:228|430:208,1,71.2950016862069,8|0,0:0|0:0,0:0:0:0:
294,98,181747,2,0,P|320:146|318:261,1,142.590003372414,6|8,3:2|0:0,0:0:0:0:
203,307,182176,1,8,0:0:0:0:
203,307,182247,1,8,0:0:0:0:
203,307,182318,2,0,P|218:279|226:207,1,71.2950016862069,6|8,3:0|0:0,0:0:0:0:
117,152,182605,2,0,P|120:169|121:187,3,35.6475008431034,8|8|8|8,0:0|0:0|0:0|0:0,0:0:0:0:
123,264,182890,6,0,P|44:268|1:212,1,142.590003372414,6|8,3:2|0:0,0:0:0:0:
112,115,183318,1,0,3:0:0:0:
218,268,183461,2,0,P|296:272|339:216,1,142.590003372414,2|8,0:2|0:0,0:0:0:0:
211,169,183890,1,0,0:0:0:0:
342,50,184033,2,0,P|436:71|461:127,1,142.590003372414,2|8,3:2|0:0,0:0:0:0:
411,258,184461,1,0,3:0:0:0:
274,111,184604,2,0,P|237:86|186:83,1,71.2950016862069,2|0,0:0|3:0,0:0:0:0:
130,232,184890,2,0,P|158:210|192:201,1,71.2950016862069,8|0,0:0|0:0,0:0:0:0:
332,337,185176,6,0,P|256:295|188:286,1,142.590003372414,2|10,3:2|0:0,0:0:0:0:
333,207,185604,1,2,3:2:0:0:
462,348,185747,2,0,P|438:308|439:251,1,71.2950016862069,2|0,0:0|3:0,0:0:0:0:
476,103,186033,2,0,P|468:137|448:166,1,71.2950016862069,10|0,0:0|0:0,0:0:0:0:
283,27,186318,6,0,B|368:40|327:90|423:107,2,142.590003372414,2|8|2,3:2|0:0|3:2,0:0:0:0:
201,148,187033,1,0,0:0:0:0:
113,10,187176,2,0,P|147:41|155:95,1,71.2950016862069,8|8,0:0|0:0,0:0:0:0:
117,140,187390,5,8,0:0:0:0:
117,140,187461,2,0,P|80:198|67:289,1,142.590003372414,6|8,3:2|0:0,0:0:0:0:
227,323,187890,1,0,3:0:0:0:
137,153,188033,2,0,P|100:211|87:302,1,142.590003372414,2|8,0:0|0:0,0:0:0:0:
243,335,188461,5,0,0:0:0:0:
317,172,188604,2,0,P|392:147|459:193,1,142.590003372414,6|8,3:2|0:0,0:0:0:0:
245,354,189033,1,0,3:0:0:0:
322,186,189176,2,0,P|369:165|414:171,1,71.2950016862069,2|0,3:2|0:0,0:0:0:0:
243,317,189461,2,0,P|196:296|151:302,1,71.2950016862069,10|0,0:0|0:0,0:0:0:0:
6,208,189747,6,0,P|45:270|54:366,1,142.590003372414,2|8,3:2|0:0,0:0:0:0:
121,160,190176,1,0,3:0:0:0:
121,160,190247,1,0,3:0:0:0:
121,160,190318,2,0,L|115:212,1,35.6475008431034,2|0,3:2|0:0,0:0:0:0:
217,119,190461,2,0,L|223:171,1,35.6475008431034,8|0,0:0|0:0,0:0:0:0:
322,89,190604,6,0,L|316:141,2,35.6475008431034,8|8|8,0:0|0:0|0:0,0:0:0:0:
