osu file format v14

[General]
AudioFilename: audio.mp3
AudioLeadIn: 0
PreviewTime: 154735
Countdown: 0
SampleSet: Soft
StackLeniency: 0.5
Mode: 0
LetterboxInBreaks: 0
WidescreenStoryboard: 0

[Editor]
Bookmarks: 119973,133687,137687,143116
DistanceSpacing: 1.2
BeatDivisor: 4
GridSize: 4
TimelineZoom: 1.8

[Metadata]
Title:Mushikui Psychedelism
TitleUnicode:ムシクイサイケデリズム
Artist:Zips
ArtistUnicode:じっぷす
Creator:Nevo
Version:Heisei
Source:ヘイセイプロジェクト
Tags:vocaloid vocaloid2 kagamine rin len 鏡音リン jippusu heisei project japanese novelty Saikede Rhythm agatsu cycopton smokelind synderes frostwich Bug-Eaten wanpachi
BeatmapID:2205402
BeatmapSetID:1055498

[Difficulty]
HPDrainRate:6
CircleSize:4
OverallDifficulty:8
ApproachRate:9
SliderMultiplier:1.7
SliderTickRate:1

[Events]
//Background and Video events
0,0,"zips.png",0,0
//Break Periods
//Storyboard Layer 0 (Background)
//Storyboard Layer 1 (Fail)
//Storyboard Layer 2 (Pass)
//Storyboard Layer 3 (Foreground)
//Storyboard Layer 4 (Overlay)
//Storyboard Sound Samples

[TimingPoints]
1176,285.714285714286,4,2,1,40,1,0
1176,-222.222222222221,4,2,1,40,0,0
10318,-100,4,2,1,80,0,0
28604,-166.666666666667,4,3,1,50,0,0
37747,-125,4,2,1,70,0,0
46890,-125,4,2,1,60,0,0
51461,-125,4,2,1,80,0,0
56033,-83.3333333333333,4,2,1,90,0,1
74318,-166.666666666667,4,3,1,50,0,0
83033,-125,4,3,1,70,0,0
83461,-125,4,2,1,70,0,0
92604,-125,4,2,1,60,0,0
97176,-100,4,2,1,80,0,0
101747,-83.3333333333333,4,2,1,90,0,1
110033,-71.4285714285714,4,2,1,90,0,1
110318,-62.5,4,2,1,90,0,1
110604,-71.4285714285714,4,2,1,90,0,1
115461,-83.3333333333333,4,2,1,90,0,1
118890,-83.3333333333333,4,2,1,90,0,0
120033,-76.9230769230769,4,2,1,90,0,1
137604,-76.9230769230769,4,2,1,90,0,0
138318,-100,4,2,1,60,0,0
142890,-100,4,2,1,80,0,0
147461,-250,4,2,1,40,0,0
153390,-250,4,2,1,5,0,0
153461,-166.666666666667,4,2,1,50,0,0
153675,-166.666666666667,4,2,1,5,0,0
153747,-100,4,2,1,52,0,0
153961,-100,4,2,1,5,0,0
154033,-500,4,2,1,55,0,0
154318,-500,4,2,1,5,0,0
154890,-222.222222222221,4,2,1,80,0,0
155176,-153.846153846154,4,2,1,80,0,0
155461,-117.647058823529,4,2,1,80,0,0
155747,-117.647058823529,4,2,1,90,0,1
155890,-76.9230769230769,4,2,1,90,0,1
163747,-40,4,2,1,90,0,1
164033,-76.9230769230769,4,2,1,90,0,1
173747,-100,4,2,1,80,0,0

[Colours]
Combo1 : 205,99,63
Combo2 : 183,0,0
Combo3 : 68,112,147

[HitObjects]
151,73,1176,6,0,L|154:112,2,38.2499988327027,2|2|2,0:0|0:0|0:0,0:0:0:0:
111,187,1604,2,0,B|167:214|214:172|214:172|248:204|236:234|236:234|226:264|255:285|255:285|281:264|271:234|271:234|262:204|294:173|294:173|337:216|391:196,1,458.999985992432,2|0,0:0|0:0,0:0:0:0:
446,128,3461,6,0,L|441:90,2,38.2499988327027,2|2|2,0:0|0:0|0:0,0:0:0:0:
502,214,3890,2,0,B|461:239|463:279|463:279|477:294|504:304|504:304|467:349|401:315|401:315|340:287|296:323|296:323|282:291|299:263|299:263|313:238|300:206,1,458.999985992432,2|0,0:0|0:0,0:0:0:0:
226,159,5747,6,0,L|231:121,2,38.2499988327027,2|2|2,0:0|0:0|0:0,0:0:0:0:
269,42,6176,2,0,B|233:16|167:49|167:49|98:86|56:59|56:59|34:99|71:132|71:132|108:167|82:232|82:232|78:212|64:182|70:195,1,458.999985992432,2|0,0:0|0:0,0:0:0:0:
20,293,8033,6,0,L|27:347,2,38.2499988327027,2|2|2,0:0|0:0|0:0,0:0:0:0:
129,355,8461,2,0,B|162:347|191:360|191:360|227:349|232:311|232:311|255:302|278:311|278:311|285:350|317:366|317:366|345:352|381:358,1,305.999990661621,2|0,0:0|0:0,0:0:0:0:
438,306,9747,1,2,0:0:0:0:
255,193,9890,1,2,0:0:0:0:
456,73,10318,6,0,L|444:189,1,85,6|0,3:2|0:0,0:0:0:0:
337,258,10604,1,8,0:0:0:0:
241,105,10747,1,0,3:0:0:0:
470,65,10890,2,0,L|456:199,1,127.5,2|0,0:0|0:0,0:0:0:0:
505,258,11176,2,0,P|455:275|412:262,1,85,8|0,0:0|0:0,0:0:0:0:
254,94,11461,6,0,B|293:64|343:73|343:73|340:106,1,127.5,2|0,3:2|0:0,0:0:0:0:
376,181,11747,2,0,P|334:186|296:171,1,85,8|0,0:0|3:0,0:0:0:0:
161,61,12033,2,0,L|180:159,1,85,2|0,0:0|3:0,0:0:0:0:
35,318,12318,2,0,L|18:234,1,85,10|0,0:0|0:0,0:0:0:0:
292,287,12604,6,0,P|243:292|207:274,1,85,2|0,3:2|0:0,0:0:0:0:
393,201,12890,1,10,0:0:0:0:
475,223,13033,1,2,3:2:0:0:
326,124,13176,2,0,L|236:136,1,85,2|0,0:0|3:0,0:0:0:0:
161,61,13461,2,0,L|251:49,1,85,8|0,0:0|0:0,0:0:0:0:
112,248,13747,6,0,B|73:241|73:241|101:201|163:197,1,127.5,2|0,3:2|0:0,0:0:0:0:
223,175,14033,2,0,P|228:196|198:259,1,85,8|0,0:0|3:0,0:0:0:0:
199,375,14318,2,0,P|235:332|331:330,1,127.5,2|0,0:0|0:0,0:0:0:0:
384,370,14604,1,8,0:0:0:0:
384,370,14676,1,8,0:0:0:0:
384,370,14747,1,8,0:0:0:0:
384,370,14818,1,8,0:0:0:0:
384,370,14890,6,0,P|391:314|385:276,1,85,6|0,3:2|0:0,0:0:0:0:
346,165,15176,1,8,0:0:0:0:
484,243,15318,1,2,3:2:0:0:
472,71,15461,2,0,P|430:64|388:68,1,85,2|0,0:0|3:0,0:0:0:0:
266,184,15747,2,0,B|169:167|169:167|121:193,1,127.5,8|0,0:0|0:0,0:0:0:0:
72,147,16033,6,0,P|65:193|91:239,1,85,2|0,3:2|0:0,0:0:0:0:
284,102,16318,1,8,0:0:0:0:
173,88,16461,1,2,3:2:0:0:
366,67,16604,2,0,P|374:108|359:148,1,85,2|0,0:0|3:0,0:0:0:0:
172,256,16890,2,0,L|169:159,1,85,8|0,0:0|0:0,0:0:0:0:
442,204,17176,6,0,P|376:245|308:239,1,127.5,2|0,3:2|0:0,0:0:0:0:
258,189,17461,1,8,0:0:0:0:
304,341,17604,1,2,3:2:0:0:
90,274,17747,2,0,P|169:255|194:257,1,85,2|0,0:0|3:0,0:0:0:0:
385,359,18033,2,0,P|342:354|303:340,1,85,8|0,0:0|0:0,0:0:0:0:
448,40,18318,6,0,B|466:58|466:58|454:97|454:97|495:147|474:204,1,170,6|8,3:2|0:0,0:0:0:0:
321,258,18747,1,8,0:0:0:0:
326,242,18818,1,8,0:0:0:0:
331,226,18890,1,6,3:0:0:0:
391,161,19033,1,8,0:0:0:0:
458,72,19176,1,8,0:0:0:0:
453,56,19248,1,8,0:0:0:0:
448,40,19319,1,8,0:0:0:0:
443,24,19390,1,8,0:0:0:0:
437,8,19461,6,0,B|382:12|382:12|343:68|273:47,1,170,6|8,3:2|0:0,0:0:0:0:
165,0,19890,1,0,3:0:0:0:
332,89,20033,2,0,P|339:125|309:226,1,127.5,2|0,0:2|0:0,0:0:0:0:
360,281,20318,2,0,P|310:290|270:278,1,85,8|0,0:0|0:0,0:0:0:0:
125,140,20604,6,0,L|137:244,1,85,2|0,3:2|0:0,0:0:0:0:
61,324,20890,2,0,L|49:220,1,85,8|0,0:0|3:0,0:0:0:0:
201,379,21176,2,0,P|253:380|306:342,1,85,2|0,0:0|3:0,0:0:0:0:
441,268,21461,2,0,P|398:264|359:280,1,85,8|0,0:0|0:0,0:0:0:0:
143,316,21747,6,0,L|137:222,1,85,2|0,3:2|0:0,0:0:0:0:
84,80,22033,1,10,0:0:0:0:
65,171,22176,1,2,3:2:0:0:
247,271,22318,2,0,L|241:177,1,85,2|0,0:0|3:0,0:0:0:0:
347,122,22604,2,0,L|352:206,1,85,10|0,0:0|0:0,0:0:0:0:
464,70,22890,6,0,B|443:47|443:47|412:53|412:53|354:7|288:47,1,170,2|8,3:2|0:0,0:0:0:0:
212,201,23318,1,0,3:0:0:0:
294,248,23461,2,0,B|316:199|288:148|288:148|326:147|352:116,1,170,2|8,3:2|0:0,0:0:0:0:
225,68,23890,1,8,0:0:0:0:
225,68,23961,1,8,0:0:0:0:
225,68,24033,6,0,B|129:68|129:68|83:93|96:138,1,170,6|8,3:2|0:0,0:0:0:0:
170,185,24461,1,0,3:0:0:0:
66,10,24604,2,0,P|17:85|28:181,1,170,2|8,0:0|0:0,0:0:0:0:
74,235,25033,1,0,3:0:0:0:
202,355,25176,6,0,B|152:365|152:365|89:331|89:331|6:348,1,170,6|8,3:2|0:0,0:0:0:0:
166,270,25604,1,0,3:0:0:0:
289,335,25747,2,0,P|342:353|419:321,1,127.5,2|0,3:2|0:0,0:0:0:0:
486,367,26033,2,0,P|491:317|476:282,1,85,10|0,0:0|0:0,0:0:0:0:
324,167,26318,6,0,B|315:215|342:256|342:256|356:222,1,127.5,2|0,3:2|0:0,0:0:0:0:
401,147,26604,2,0,P|379:106|335:85,1,85,8|0,0:0|3:0,0:0:0:0:
287,30,26818,1,0,3:0:0:0:
287,30,26890,2,0,P|325:10|366:8,1,85,2|8,3:2|0:0,0:0:0:0:
236,114,27176,2,0,L|138:103,1,85,8|2,0:0|0:0,0:0:0:0:
68,166,28604,6,0,L|83:218,1,50.9999984436036,2|0,0:2|0:2,0:2:0:0:
161,264,28890,2,0,L|175:214,1,50.9999984436036,0|0,0:2|0:2,0:2:0:0:
220,139,29176,2,0,P|187:127|152:129,2,50.9999984436036,0|0|0,0:2|0:2|0:0,0:2:0:0:
273,210,29604,6,0,P|323:205|371:187,1,101.999996887207,2|0,0:2|0:2,0:2:0:0:
440,96,30033,2,0,L|432:45,1,50.9999984436036,0|0,0:2|0:2,0:2:0:0:
351,90,30318,2,0,L|311:121,1,50.9999984436036,0|0,0:2|0:2,0:2:0:0:
220,139,30604,2,0,L|227:88,1,50.9999984436036,0|0,0:2|0:2,0:2:0:0:
273,210,30890,6,0,P|305:233|372:241,1,101.999996887207,2|0,0:2|0:2,0:2:0:0:
450,203,31318,1,0,0:2:0:0:
449,307,31461,2,0,P|406:279|356:274,1,101.999996887207,2|0,0:2|0:2,0:2:0:0:
309,336,31890,1,8,2:2:0:0:
201,291,32033,6,0,L|137:298,1,50.9999984436036,2|0,0:2|0:2,0:2:0:0:
120,222,32318,2,0,L|13:235,1,101.999996887207,2|0,0:2|0:2,0:2:0:0:
166,128,32747,1,8,0:0:0:0:
45,89,32890,1,8,0:0:0:0:
310,229,33176,6,0,P|348:204|367:147,1,101.999996887207,2|0,0:2|0:2,0:2:0:0:
442,58,33604,2,0,L|448:114,1,50.9999984436036,2|0,0:2|0:2,0:2:0:0:
512,165,33890,2,0,L|506:221,1,50.9999984436036,2|0,0:2|0:2,0:2:0:0:
438,320,34176,6,0,P|405:329|330:309,1,101.999996887207,2|0,0:2|0:2,0:2:0:0:
235,248,34604,2,0,L|259:302,1,50.9999984436036,0|0,0:2|0:2,0:2:0:0:
119,321,34890,2,0,L|183:310,1,50.9999984436036,0|8,0:0|0:0,0:0:0:0:
155,235,35104,1,8,0:0:0:0:
155,235,35176,2,0,L|104:243,1,50.9999984436036,8|8,0:0|0:0,0:0:0:0:
37,142,35461,6,0,P|101:154|149:153,1,101.999996887207,2|0,0:2|0:2,0:2:0:0:
152,56,35890,1,0,0:2:0:0:
152,56,36033,2,0,P|204:93|248:113,1,101.999996887207,2|0,0:2|0:2,0:2:0:0:
333,43,36461,2,0,L|319:113,2,50.9999984436036,2|0|0,0:2|0:2|0:2,0:2:0:0:
399,114,36890,2,0,L|389:165,1,50.9999984436036,0|8,0:0|0:0,0:0:0:0:
414,95,37318,6,0,L|424:44,1,50.9999984436036,8|8,0:0|2:2,0:0:0:0:
417,245,37747,6,0,B|374:255|340:234|340:234|260:250,1,136,6|8,3:2|0:0,0:0:0:0:
333,343,38176,2,0,P|401:353|428:352,1,68,2|0,0:0|0:0,0:0:0:0:
219,381,38461,2,0,P|185:378|151:371,1,68,2|8,3:2|0:0,0:0:0:0:
16,174,38747,6,0,L|40:315,1,136,2|0,0:0|0:0,0:0:0:0:
219,262,39176,1,8,0:0:0:0:
237,150,39318,1,0,0:0:0:0:
137,93,39461,1,0,1:0:0:0:
222,287,39604,1,0,3:0:0:0:
120,105,39747,2,0,L|52:97,1,68,8|0,0:0|0:0,0:0:0:0:
300,211,40033,6,0,B|345:206|345:206|385:245|454:228,1,136,2|8,3:0|0:0,0:0:0:0:
462,105,40461,1,0,0:0:0:0:
462,105,40604,2,0,P|429:121|411:155,1,68,2|0,0:0|3:0,0:0:0:0:
498,271,40890,1,8,0:0:0:0:
498,271,41033,2,0,P|510:236|498:199,1,68,2|0,3:0|3:0,3:0:0:0:
300,211,41318,1,0,0:0:0:0:
300,211,41461,6,0,L|311:366,1,136,8|0,0:0|3:0,0:0:0:0:
178,352,41890,1,0,3:0:0:0:
215,189,42033,1,8,1:2:0:0:
83,262,42176,1,0,3:0:0:0:
63,273,42247,1,0,3:0:0:0:
47,284,42318,6,0,L|40:365,1,68,6|0,3:2|0:0,0:0:0:0:
5,163,42604,1,8,0:0:0:0:
5,163,42747,2,0,L|0:96,1,68,2|0,0:0|0:0,0:0:0:0:
176,134,43033,2,0,P|145:158|114:168,1,68,2|8,3:2|1:2,0:0:0:0:
216,5,43318,2,0,L|358:24,1,136,2|0,0:0|0:0,0:0:0:0:
469,133,43747,5,8,0:0:0:0:
497,126,43890,1,0,3:0:0:0:
350,231,44033,5,8,0:0:0:0:
343,258,44176,1,0,3:0:0:0:
304,105,44318,5,8,0:0:0:0:
290,86,44461,1,0,3:0:0:0:
105,200,44604,6,0,L|113:347,1,136,2|8,3:2|0:0,0:0:0:0:
333,361,45033,2,0,L|399:373,1,68,2|0,0:0|3:0,0:0:0:0:
471,299,45318,2,0,L|404:286,1,68,2|8,3:0|0:0,0:0:0:0:
179,361,45604,1,0,3:0:0:0:
179,361,45676,1,8,0:0:0:0:
179,361,45747,6,0,L|112:373,1,68,2|0,3:2|3:0,0:0:0:0:
41,299,46033,2,0,L|107:286,1,68,8|8,0:0|0:0,0:0:0:0:
173,232,46248,1,8,0:0:0:0:
173,232,46319,2,0,L|239:244,1,68,8|8,3:0|3:0,0:0:0:0:
343,116,46604,2,0,L|276:103,1,68,12|8,0:0|0:0,0:0:0:0:
399,268,46890,6,0,P|449:265|486:231,1,102,2|0,3:2|3:2,3:2:0:0:
472,153,47176,2,0,P|441:166|419:192,1,68,0|0,3:2|3:2,3:2:0:0:
312,360,47461,2,0,P|262:356|225:322,1,102,2|0,3:2|3:2,3:2:0:0:
239,244,47747,2,0,P|270:256|292:282,1,68,0|0,3:2|3:2,3:2:0:0:
88,227,48033,6,0,B|72:165|72:165|84:137|125:140,1,102,2|0,3:2|3:2,3:2:0:0:
161,95,48318,2,0,P|177:131|173:169,1,68,0|0,3:2|3:2,3:2:0:0:
352,155,48604,2,0,B|368:93|368:93|356:65|315:68,1,102,2|0,3:2|3:2,3:2:0:0:
279,23,48890,2,0,P|263:59|267:97,1,68,0|0,3:2|3:2,3:2:0:0:
319,281,49176,6,0,B|370:263|370:263|432:272,1,102,2|0,3:2|3:2,3:2:0:0:
414,350,49461,2,0,B|377:342|377:342|345:357,1,68,0|0,3:2|3:2,3:2:0:0:
193,281,49747,2,0,B|142:263|142:263|80:272,1,102,2|0,3:2|3:2,3:2:0:0:
98,350,50033,2,0,B|135:342|135:342|167:357,1,68,0|0,3:2|3:2,3:2:0:0:
256,208,50318,6,0,L|256:80,1,102,2|0,3:2|3:2,3:2:0:0:
220,42,50604,2,0,P|252:30|286:37,1,68,0|0,3:0|0:0,0:0:0:0:
346,98,50818,1,0,3:0:0:0:
346,98,50890,6,0,L|348:171,2,45.3333333333333,0|0|0,3:0|3:0|3:0,3:0:0:0:
435,233,51176,5,8,0:0:0:0:
372,284,51271,5,8,0:0:0:0:
290,275,51366,5,8,0:0:0:0:
230,214,51461,6,0,P|186:202|126:215,1,102,6|0,3:2|0:0,0:0:0:0:
63,249,51747,5,8,0:0:0:0:
120,173,51890,1,2,0:0:0:0:
48,273,52033,5,0,3:0:0:0:
25,128,52176,1,2,0:0:0:0:
173,314,52318,5,8,0:0:0:0:
258,227,52461,1,2,0:0:0:0:
160,340,52604,5,0,3:0:0:0:
150,161,52747,1,2,0:0:0:0:
292,356,52890,5,8,0:0:0:0:
392,221,53033,1,2,0:0:0:0:
283,381,53176,5,0,3:0:0:0:
276,141,53318,1,2,3:2:0:0:
413,384,53461,5,8,0:0:0:0:
512,230,53604,1,0,3:0:0:0:
512,230,53676,1,0,3:0:0:0:
512,230,53747,6,0,P|451:202|414:207,1,102,6|0,3:2|0:0,0:0:0:0:
351,288,54033,1,8,0:0:0:0:
181,121,54176,6,0,L|188:212,1,68,2|8,3:2|0:0,0:0:0:0:
405,66,54461,2,0,L|398:157,1,68,2|8,3:2|0:0,0:0:0:0:
378,154,54676,1,8,0:0:0:0:
371,113,54747,1,8,0:0:0:0:
364,73,54818,1,8,0:0:0:0:
357,33,54890,1,14,0:0:0:0:
97,51,55461,6,0,L|110:94,1,34,2|0,0:0|0:0,0:0:0:0:
255,190,55604,2,0,L|265:158,1,34,2|0,0:0|0:0,0:0:0:0:
77,172,55747,5,2,0:0:0:0:
132,351,55890,1,2,0:0:0:0:
442,258,56033,6,0,B|402:230|343:236|343:236|371:244|400:278,1,152.999995330811,6|0,3:2|0:0,0:0:0:0:
324,313,56318,2,0,L|215:305,1,101.999996887207,8|2,0:2|0:0,0:0:0:0:
34,296,56604,1,0,3:0:0:0:
267,227,56747,1,0,3:0:0:0:
104,107,56890,1,8,0:2:0:0:
132,351,57033,2,0,L|139:296,1,50.9999984436036
343,166,57176,6,0,B|324:200|324:200|208:193,1,152.999995330811,2|0,3:2|0:0,0:0:0:0:
133,152,57461,2,0,P|176:114|226:111,1,101.999996887207,8|2,0:2|0:0,0:0:0:0:
455,187,57747,1,0,3:0:0:0:
314,25,57890,1,0,3:0:0:0:
267,227,58033,1,8,0:2:0:0:
410,27,58176,6,0,L|398:136,1,101.999996887207,2|0,0:0|3:0,0:0:0:0:
354,332,58461,1,0,0:0:0:0:
266,146,58604,1,8,0:0:0:0:
364,357,58747,1,0,0:0:0:0:
255,125,58890,6,0,L|267:234,1,101.999996887207,2|0,3:2|0:0,0:0:0:0:
480,305,59176,1,8,0:0:0:0:
227,356,59318,2,0,B|142:384|86:336|86:336|118:328|146:283,1,203.999993774414,2|0,0:0|0:0,0:0:0:0:
41,148,59747,2,0,L|59:249,1,101.999996887207,8|0,0:0|0:0,0:0:0:0:
186,79,60033,2,0,P|125:55|82:59,1,101.999996887207,2|0,3:2|0:0,0:0:0:0:
219,260,60318,2,0,P|269:259|315:238,1,101.999996887207,10|0,0:0|0:0,0:0:0:0:
367,174,60533,1,8,0:0:0:0:
367,174,60604,6,0,L|367:60,1,101.999996887207,2|0,3:2|0:0,0:0:0:0:
414,261,60890,1,8,0:0:0:0:
233,163,61033,2,0,L|121:175,1,101.999996887207,2|0,0:0|3:0,0:0:0:0:
9,59,61318,2,0,L|110:48,1,101.999996887207,2|8,0:0|0:0,0:0:0:0:
90,285,61604,6,0,P|47:258|19:215,1,101.999996887207,2|0,0:0|3:0,0:0:0:0:
117,141,61890,1,0,0:0:0:0:
210,363,62033,2,0,P|259:374|308:363,1,101.999996887207,10|0,0:0|0:0,0:0:0:0:
452,182,62318,2,0,L|464:72,1,101.999996887207,2|0,3:0|0:0,0:0:0:0:
247,182,62604,2,0,L|259:292,1,101.999996887207,10|0,0:0|3:0,0:0:0:0:
379,71,62890,5,0,3:0:0:0:
361,262,63033,1,0,3:0:0:0:
371,50,63176,5,8,0:0:0:0:
373,283,63318,2,0,L|317:275,1,50.9999984436036,0|8,3:0|0:0,0:0:0:0:
147,250,63461,5,8,0:0:0:0:
338,165,63604,1,0,3:0:0:0:
129,246,63747,5,8,0:0:0:0:
348,149,63890,1,0,3:0:0:0:
107,39,64033,6,0,B|78:73|99:102|99:102|196:91,1,152.999995330811,14|0,0:2|0:0,0:0:0:0:
233,176,64318,2,0,L|108:189,1,101.999996887207,10|0,0:0|0:0,0:0:0:0:
139,194,64533,1,8,0:0:0:0:
139,194,64604,2,0,L|135:249,1,50.9999984436036,0|0,3:0|3:0,0:0:0:0:
144,336,64747,1,8,0:0:0:0:
189,358,64818,1,0,3:0:0:0:
239,357,64889,1,8,0:0:0:0:
283,332,64961,1,8,0:0:0:0:
308,299,65033,2,8,L|316:239,1,50.9999984436036
399,263,65176,6,0,B|415:143|415:143|373:177,1,152.999995330811,6|0,3:2|0:0,0:0:0:0:
488,238,65461,2,0,L|500:135,1,101.999996887207,8|0,0:2|0:0,0:0:0:0:
263,48,65747,1,0,3:0:0:0:
458,53,65890,1,0,3:0:0:0:
316,201,66033,1,8,0:2:0:0:
478,41,66176,1,0,0:0:0:0:
295,221,66318,6,0,B|252:225|252:225|205:253|205:253|147:242,1,152.999995330811,2|0,3:2|0:0,0:0:0:0:
77,207,66604,2,0,P|127:164|181:168,1,101.999996887207,8|2,0:2|0:0,0:0:0:0:
351,302,66890,1,0,3:0:0:0:
139,326,67033,1,0,3:0:0:0:
243,124,67176,1,8,0:2:0:0:
123,345,67318,6,0,P|61:343|22:307,1,101.999996887207,2|0,0:0|3:0,0:0:0:0:
129,107,67604,1,0,0:0:0:0:
174,224,67747,1,8,0:0:0:0:
241,28,67890,1,0,0:0:0:0:
321,191,68033,2,0,P|386:183|422:147,1,101.999996887207,2|0,3:2|0:0,0:0:0:0:
492,50,68318,2,8,L|482:0,1,50.9999984436036
489,207,68461,6,0,L|465:341,1,101.999996887207,2|6,0:0|3:2,0:0:0:0:
379,365,68747,1,0,3:0:0:0:
299,287,68890,1,0,3:0:0:0:
321,191,69033,1,8,0:0:0:0:
415,135,69176,1,0,3:0:0:0:
400,257,69318,1,8,0:0:0:0:
232,146,69461,1,8,0:0:0:0:
361,47,69604,1,8,0:0:0:0:
381,40,69676,1,8,0:0:0:0:
404,33,69747,6,0,L|416:144,1,101.999996887207,6|0,3:2|0:0,0:0:0:0:
241,254,70033,2,0,L|327:183,1,101.999996887207,0|0,3:0|0:0,0:0:0:0:
326,384,70318,6,0,L|338:273,1,101.999996887207,0|0,3:0|0:0,0:0:0:0:
131,288,70604,2,0,L|217:358,1,101.999996887207,0|0,3:0|0:0,0:0:0:0:
156,94,70890,6,0,L|168:205,1,101.999996887207,0|0,3:0|0:0,0:0:0:0:
0,271,71176,2,0,L|86:200,1,101.999996887207,0|0,3:0|0:0,0:0:0:0:
254,133,71461,6,0,L|266:22,1,101.999996887207,0|0,3:0|0:0,0:0:0:0:
0,65,71747,2,0,L|86:135,1,101.999996887207,2|0,3:2|0:0,0:0:0:0:
324,234,72033,6,0,P|241:207|184:221,1,101.999996887207,6|0,3:2|0:0,0:0:0:0:
103,330,72318,5,8,0:0:0:0:
249,286,72461,1,0,3:0:0:0:
64,245,72604,5,0,3:0:0:0:
119,153,72747,1,0,3:0:0:0:
324,234,72890,5,0,3:0:0:0:
157,249,73033,1,8,0:0:0:0:
298,37,73176,5,2,3:2:0:0:
361,137,74318,6,0,L|421:152,1,50.9999984436036,2|0,0:2|0:2,0:2:0:0:
324,206,74604,2,0,L|384:221,1,50.9999984436036,0|0,0:2|0:2,0:2:0:0:
238,62,74890,2,0,L|178:77,1,50.9999984436036,0|0,0:2|0:2,0:2:0:0:
275,131,75176,2,0,L|215:146,1,50.9999984436036,0|2,0:0|0:2,0:0:0:0:
96,194,75461,6,0,L|138:237,1,50.9999984436036,0|0,0:0|0:2,0:0:0:0:
205,328,75747,2,0,L|216:269,1,50.9999984436036,0|0,0:2|0:2,0:2:0:0:
29,283,76033,1,0,0:2:0:0:
44,313,76176,1,0,0:2:0:0:
62,342,76318,2,0,L|124:325,1,50.9999984436036,0|0,0:2|0:2,0:2:0:0:
275,199,76604,6,0,B|303:246|303:246|291:304,1,101.999996887207,2|0,0:2|0:2,0:2:0:0:
312,84,77033,1,0,0:2:0:0:
312,84,77176,2,0,L|373:190,1,101.999996887207,2|0,0:2|0:2,0:2:0:0:
219,127,77604,1,0,2:2:0:0:
219,127,77747,6,0,B|191:80|191:80|203:22,1,101.999996887207,2|2,0:2|0:2,0:2:0:0:
275,199,78176,1,0,0:0:0:0:
140,176,78318,1,0,0:2:0:0:
312,84,78461,1,8,0:0:0:0:
200,33,78604,2,0,L|134:22,1,50.9999984436036,8|0,0:0|0:0,0:0:0:0:
26,116,78890,6,0,L|89:109,1,50.9999984436036,2|0,0:2|0:0,0:2:0:0:
157,263,79176,1,0,0:2:0:0:
157,263,79318,2,0,L|106:268,1,50.9999984436036,2|0,0:2|0:2,0:2:0:0:
0,197,79604,2,0,L|57:210,1,50.9999984436036,2|0,0:2|0:2,0:2:0:0:
136,345,79890,6,0,L|241:328,1,101.999996887207,2|0,0:2|0:2,0:2:0:0:
330,254,80318,2,0,P|360:211|368:199,1,50.9999984436036,0|0,0:2|0:2,0:2:0:0:
426,100,80604,5,0,0:0:0:0:
267,154,80747,1,8,0:0:0:0:
333,85,80890,1,8,0:0:0:0:
453,202,81033,1,8,0:0:0:0:
330,254,81176,6,0,L|214:236,1,101.999996887207,2|0,0:2|0:2,0:2:0:0:
334,280,81747,2,0,L|218:262,1,101.999996887207,2|0,0:2|0:2,0:2:0:0:
159,331,82176,2,0,L|259:346,1,101.999996887207,2|0,0:2|0:2,0:2:0:0:
425,296,82604,1,0,0:0:0:0:
396,207,82747,1,8,0:0:0:0:
118,182,83033,6,0,L|104:122,2,34,8|0|8,0:0|0:0|2:2,0:0:0:0:
418,364,83461,6,0,L|426:295,1,68,6|0,3:2|0:0,0:0:0:0:
484,218,83747,1,8,0:0:0:0:
313,249,83890,1,2,0:0:0:0:
265,115,84033,1,0,0:0:0:0:
347,163,84176,1,2,3:2:0:0:
194,217,84318,1,8,0:0:0:0:
283,337,84461,6,0,B|227:327|181:345|181:345|143:322,1,136,2|0,0:0|0:0,0:0:0:0:
77,206,84890,2,0,L|63:283,1,68,8|0,0:0|0:0,0:0:0:0:
181,150,85176,2,0,L|195:227,2,68,0|0|8,1:0|3:0|0:0,0:0:0:0:
120,55,85604,1,0,0:0:0:0:
267,105,85747,6,0,P|315:120|382:66,1,136,2|8,3:0|0:0,0:0:0:0:
329,0,86176,1,0,0:0:0:0:
272,121,86318,2,0,P|320:136|387:82,1,136,2|8,0:0|0:0,0:0:0:0:
181,35,86747,6,0,P|133:20|66:74,1,136,2|0,3:0|0:0,3:0:0:0:
127,173,87176,2,0,L|141:104,1,68,8|0,0:0|0:0,0:0:0:0:
53,217,87461,2,0,L|67:286,1,68,0|0,3:0|3:0,0:0:0:0:
123,353,87747,1,8,1:2:0:0:
258,283,87890,1,0,3:0:0:0:
275,289,87961,1,0,3:0:0:0:
289,294,88033,6,0,B|344:308|344:308|369:291|363:262,1,102,6|0,3:2|0:0,0:0:0:0:
335,189,88318,1,8,0:0:0:0:
438,139,88461,2,0,P|462:162|475:194,1,68,2|0,0:0|0:0,0:0:0:0:
485,70,88747,2,0,P|454:56|420:57,1,68,2|8,3:2|1:2,0:0:0:0:
249,165,89033,6,0,P|192:178|130:103,1,136,2|8,0:0|0:0,0:0:0:0:
137,47,89461,1,8,0:0:0:0:
203,100,89604,1,0,3:0:0:0:
71,193,89747,2,0,P|101:228|132:244,1,68,8|0,0:0|3:0,0:0:0:0:
231,318,90033,2,0,P|185:321|151:310,1,68,8|0,0:0|3:0,0:0:0:0:
333,205,90318,6,0,B|382:210|382:210|422:239|422:239|470:245,1,136,2|8,3:2|0:0,0:0:0:0:
355,118,90747,2,0,L|280:122,1,68,2|0,0:0|3:0,0:0:0:0:
256,140,90961,1,0,3:0:0:0:
256,140,91033,2,0,L|188:136,1,68,2|8,3:0|0:0,0:0:0:0:
71,16,91318,1,0,3:0:0:0:
71,16,91390,1,8,0:0:0:0:
71,16,91461,6,0,P|97:49|115:79,1,68,2|0,3:2|3:0,0:0:0:0:
154,317,91747,1,8,0:0:0:0:
65,229,91890,1,8,0:0:0:0:
65,229,91961,1,8,0:0:0:0:
65,229,92033,1,8,3:0:0:0:
256,140,92176,1,8,3:0:0:0:
256,268,92318,1,12,0:0:0:0:
358,317,92461,1,8,0:0:0:0:
447,229,92604,6,0,P|439:188|357:130,1,136,2|0,3:2|0:2,0:2:0:0:
356,225,93033,1,0,0:2:0:0:
356,225,93176,2,0,L|376:381,1,136,2|0,3:2|3:2,0:2:0:0:
65,229,93747,6,0,P|73:188|155:130,1,136,2|0,3:2|0:2,0:2:0:0:
156,225,94176,1,0,0:2:0:0:
156,225,94319,2,0,L|136:381,1,136,2|0,3:2|3:2,0:2:0:0:
247,338,94747,1,2,0:2:0:0:
247,338,94818,1,2,0:2:0:0:
247,338,94890,6,0,P|289:316|390:318,1,136,2|0,3:2|0:2,0:2:0:0:
446,372,95318,1,0,0:2:0:0:
446,372,95461,2,0,B|421:340|416:312|416:312|450:276|438:224,1,136,2|0,3:2|3:2,0:2:0:0:
307,99,96033,6,0,P|265:121|164:119,1,136,2|0,3:0|3:0,0:0:0:0:
104,35,96461,1,0,0:0:0:0:
104,35,96604,2,0,L|118:117,2,45.3333333333333,8|0|0,3:0|3:0|3:0,3:0:0:0:
38,111,96890,5,8,0:0:0:0:
25,191,96985,5,8,0:0:0:0:
16,272,97080,5,8,0:0:0:0:
4,350,97176,6,0,B|50:353|50:353|107:329,1,85,6|0,3:2|0:0,0:0:0:0:
234,265,97461,2,0,B|198:249|198:249|152:252,1,85,8|2,0:0|0:0,0:0:0:0:
334,331,97747,5,0,3:0:0:0:
336,240,97890,1,2,0:0:0:0:
330,359,98033,5,8,0:0:0:0:
266,178,98176,1,2,0:0:0:0:
417,288,98318,5,0,3:0:0:0:
419,179,98461,1,2,0:0:0:0:
412,321,98604,5,8,0:0:0:0:
335,105,98747,1,2,0:0:0:0:
501,235,98890,5,0,3:0:0:0:
503,104,99033,1,2,3:2:0:0:
495,274,99176,5,8,0:0:0:0:
418,10,99318,2,0,L|407:59,1,42.5,0|0,3:0|3:0,0:0:0:0:
345,197,99461,6,0,B|293:205|252:155|252:155|221:157|186:184,1,170,6|8,3:2|0:0,0:0:0:0:
280,299,99890,1,2,3:2:0:0:
335,105,100033,2,0,L|329:19,1,85,8|2,0:0|3:2,0:0:0:0:
75,93,100318,1,8,0:0:0:0:
113,109,100389,1,8,0:0:0:0:
156,110,100460,1,8,0:0:0:0:
195,95,100532,1,8,0:0:0:0:
227,67,100603,1,14,0:0:0:0:
451,295,101176,6,0,L|442:211,1,85,2|0,0:0|0:0,0:0:0:0:
335,105,101461,2,0,L|325:189,1,85,2|0,0:0|0:0,0:0:0:0:
30,307,101747,6,0,B|36:295|59:286|59:286|72:302|95:310|95:310|131:285|195:294,1,152.999995330811,6|0,3:2|0:0,0:0:0:0:
238,346,102033,2,0,P|253:265|238:232,1,101.999996887207,8|2,0:2|0:0,0:0:0:0:
208,62,102318,1,0,3:0:0:0:
34,203,102461,1,0,3:0:0:0:
288,251,102604,1,8,0:2:0:0:
103,103,102747,2,0,L|137:167,1,50.9999984436036,0|0,3:0|3:0,0:0:0:0:
342,146,102890,6,0,B|290:120|228:149|228:149|254:161|269:181,1,152.999995330811,2|0,3:2|0:0,0:0:0:0:
199,228,103176,1,8,0:2:0:0:
382,69,103318,2,0,P|322:50|181:82,1,203.999993774414,2|0,0:0|3:0,0:0:0:0:
34,203,103747,1,8,0:2:0:0:
303,357,103890,5,2,0:0:0:0:
184,342,104032,1,0,3:0:0:0:
351,234,104175,5,0,0:0:0:0:
242,276,104318,1,8,0:0:0:0:
372,106,104461,5,0,0:0:0:0:
261,188,104604,2,0,P|204:193|161:167,1,101.999996887207,2|0,3:2|0:0,0:0:0:0:
99,87,104890,1,8,0:0:0:0:
334,23,105033,6,0,B|389:3|437:38|437:38|465:94|534:99,1,203.999993774414,2|0,0:0|0:0,0:0:0:0:
360,200,105461,2,0,P|295:185|249:190,1,101.999996887207,8|0,0:0|0:0,0:0:0:0:
137,378,105747,2,0,P|210:322|186:233,1,152.999995330811,2|0,3:2|0:0,0:0:0:0:
139,195,106033,2,0,L|134:296,1,101.999996887207,10|0,0:0|0:0,0:0:0:0:
53,339,106247,1,8,0:0:0:0:
53,339,106318,2,0,L|48:237,1,101.999996887207,2|0,3:2|0:0,0:0:0:0:
5,124,106604,1,8,0:0:0:0:
216,152,106747,6,0,P|278:156|316:141,1,101.999996887207,2|0,0:0|3:0,0:0:0:0:
350,328,107033,2,0,P|322:272|290:246,1,101.999996887207,2|8,0:0|0:0,0:0:0:0:
425,120,107318,2,0,P|390:171|384:212,2,101.999996887207,2|0|0,0:0|3:0|0:0,0:0:0:0:
476,242,107747,5,10,0:0:0:0:
350,328,107890,1,0,3:0:0:0:
353,215,108033,5,2,3:0:0:0:
247,340,108176,1,0,3:0:0:0:
238,241,108318,5,10,0:0:0:0:
147,136,108461,1,0,3:0:0:0:
36,328,108604,6,0,P|122:324|156:296,1,101.999996887207,0|0,3:0|3:0,0:0:0:0:
252,148,108890,1,8,0:0:0:0:
61,123,109033,1,0,3:0:0:0:
61,123,109104,1,8,0:0:0:0:
61,123,109176,1,8,0:0:0:0:
238,241,109318,1,0,3:0:0:0:
41,240,109461,1,8,0:0:0:0:
186,96,109604,1,0,3:0:0:0:
186,96,109676,1,0,3:0:0:0:
186,96,109747,6,0,P|240:63|345:86,1,152.999995330811,14|0,0:2|0:0,0:0:0:0:
416,127,110033,6,0,P|330:108|252:148,1,178.499994552612,10|8,0:0|0:0,0:0:0:0:
197,230,110318,6,0,L|213:303,1,68,0|0,3:0|3:0,0:0:0:0:
300,363,110461,2,0,L|316:290,1,68,8|0,0:0|3:0,0:0:0:0:
138,160,110604,1,8,0:0:0:0:
59,378,110747,1,8,0:0:0:0:
59,378,110818,1,8,0:0:0:0:
59,378,110890,6,0,B|38:282|38:282|89:255|90:206,1,178.499994552612,6|0,3:2|0:0,0:0:0:0:
0,198,111176,2,0,L|17:80,1,118.999996368408,8|2,0:2|0:0,0:0:0:0:
205,1,111461,1,0,3:0:0:0:
210,220,111604,1,0,3:0:0:0:
131,98,111747,2,0,L|261:124,1,118.999996368408,8|0,0:2|0:0,0:0:0:0:
455,62,112033,6,0,B|360:42|360:42|327:73|346:118,1,178.499994552612,2|0,3:2|0:0,0:0:0:0:
404,176,112318,2,0,L|549:206,1,118.999996368408,8|2,0:2|0:0,0:0:0:0:
268,314,112604,1,0,3:0:0:0:
345,116,112747,1,0,3:0:0:0:
435,283,112890,1,8,0:2:0:0:
210,202,113033,6,0,L|88:216,1,118.999996368408,2|0,0:0|3:0,0:0:0:0:
218,73,113318,1,0,0:0:0:0:
320,260,113461,2,0,P|354:322|362:370,1,118.999996368408,8|0,0:0|0:0,0:0:0:0:
451,172,113747,2,0,P|417:110|409:62,1,118.999996368408,2|0,3:2|0:0,0:0:0:0:
464,272,114033,1,8,0:0:0:0:
323,162,114176,1,2,0:0:0:0:
323,162,114247,1,2,0:0:0:0:
323,162,114318,6,0,B|268:148|207:165|207:165|211:116|252:74,1,178.499994552612,6|0,3:2|0:0,0:0:0:0:
285,56,114604,1,0,3:0:0:0:
363,280,114746,1,8,0:0:0:0:
374,19,114889,1,0,3:0:0:0:
192,271,115032,1,8,0:0:0:0:
100,104,115176,1,8,0:0:0:0:
129,117,115247,1,8,0:0:0:0:
156,130,115318,1,8,0:0:0:0:
183,142,115390,1,8,0:0:0:0:
210,155,115461,6,0,P|282:157|314:137,1,101.999996887207,6|0,3:2|0:0,0:0:0:0:
460,293,115747,2,0,P|388:294|356:274,1,101.999996887207,0|0,3:0|0:0,0:0:0:0:
186,375,116033,6,0,L|219:274,1,101.999996887207,0|0,3:0|0:0,0:0:0:0:
393,114,116318,2,0,L|426:215,1,101.999996887207,0|0,3:0|0:0,0:0:0:0:
64,315,116604,6,0,B|120:269|120:269|118:216,1,101.999996887207,0|0,3:0|0:0,0:0:0:0:
379,373,116890,2,0,B|323:327|323:327|325:274,1,101.999996887207,0|0,3:0|0:0,0:0:0:0:
176,78,117176,6,0,P|220:155|231:207,1,101.999996887207,0|0,3:0|0:0,0:0:0:0:
440,126,117461,2,0,P|484:49|495:-3,1,101.999996887207,2|0,3:2|0:0,0:0:0:0:
341,190,117747,5,6,3:2:0:0:
368,223,118033,5,8,0:0:0:0:
390,257,118318,5,8,0:0:0:0:
326,56,118461,1,8,0:0:0:0:
179,333,118604,1,8,0:0:0:0:
116,133,118746,1,8,0:0:0:0:
256,191,118890,5,10,0:2:0:0:
463,325,120033,6,0,B|436:299|429:273|429:273|416:322|401:371|401:371|394:337|371:326|371:326|360:357|344:369|344:369|334:351|310:348|310:348|291:363|281:384|281:384|256:353|205:350,1,441.999979766847,6|0,3:2|3:0,0:0:0:0:
86,356,120747,1,0,0:0:0:0:
72,215,120890,2,0,B|103:205|116:231|116:231|135:230|135:230|146:259|172:279,1,110.499994941712,8|0,0:0|0:0,0:0:0:0:
233,107,121176,2,0,B|212:131|203:158|203:158|218:172|218:172|204:199|209:232,1,110.499994941712,2|0,3:2|0:0,0:0:0:0:
310,323,121461,2,0,B|326:290|326:290|310:274|309:250|309:250|280:182,1,110.499994941712,10|0,0:0|0:0,0:0:0:0:
125,126,121747,1,2,3:0:0:0:
356,106,121890,1,2,3:0:0:0:
241,0,122033,6,0,L|232:110,1,110.499994941712,10|0,0:0|0:0,0:0:0:0:
93,250,122318,5,2,3:2:0:0:
0,67,122461,1,2,0:0:0:0:
79,270,122604,5,8,0:0:0:0:
16,51,122747,1,8,0:0:0:0:
227,352,122890,5,2,3:2:0:0:
274,131,123033,1,2,0:0:0:0:
240,376,123176,5,8,0:0:0:0:
248,116,123318,1,8,0:0:0:0:
372,327,123461,6,0,B|421:336|421:336|463:300|440:217,1,165.749992412568,6|0,3:2|0:0,0:0:0:0:
426,144,123747,1,8,0:0:0:0:
296,243,123890,6,0,B|276:248|246:209|246:209|197:234|185:276|185:276|132:295|88:257|101:204|101:204|126:233|156:236,1,331.499984825135,6|8,0:2|0:0,0:0:0:0:
4,230,124461,1,8,0:0:0:0:
4,230,124533,1,8,0:0:0:0:
4,230,124604,6,0,P|12:175|36:126,1,110.499994941712,2|0,3:2|0:0,0:0:0:0:
164,37,124890,1,8,0:0:0:0:
221,167,125033,1,8,0:0:0:0:
379,62,125176,2,0,P|312:62|267:79,1,110.499994941712,2|2,3:0|3:0,0:0:0:0:
465,164,125461,1,8,0:0:0:0:
298,308,125604,6,0,P|235:321|226:196,1,220.999989883423,6|0,0:0|0:0,0:0:0:0:
381,177,126033,1,8,0:0:0:0:
286,339,126176,6,0,B|194:377|122:279|161:192|236:167|236:167|276:169|300:148|300:148|271:113|226:132,1,441.999979766847,6|0,3:2|0:0,0:0:0:0:
33,48,126890,6,0,P|23:113|56:183,1,110.499994941712,6|2,3:2|0:2,0:2:0:0:
202,27,127176,2,0,P|155:55|125:101,1,110.499994941712,10|8,0:0|0:0,0:0:0:0:
231,129,127390,1,8,0:0:0:0:
231,129,127461,6,0,P|278:157|309:203,1,110.499994941712,8|8,0:0|0:0,0:0:0:0:
203,337,127747,2,0,P|216:283|205:230,1,110.499994941712,8|8,0:0|0:0,0:0:0:0:
28,278,128033,6,8,L|42:349,2,55.2499974708558,12|8|8,0:0|0:0|0:0,0:0:0:0:
123,155,128318,1,8,0:0:0:0:
191,238,128461,2,8,L|177:309,2,55.2499974708558,8|8|8,0:0|0:0|0:0,0:0:0:0:
302,99,128747,1,8,0:0:0:0:
463,291,128890,2,8,L|469:356,3,55.2499974708558,14|8|8|8,0:0|0:0|0:0|0:0,0:0:0:0:
495,198,129176,5,6,3:2:0:0:
468,155,129247,1,2,2:0:0:0:
427,127,129318,1,2,2:0:0:0:
378,118,129390,1,2,2:0:0:0:
330,132,129461,1,10,2:0:0:0:
292,165,129533,1,2,2:0:0:0:
271,210,129604,1,2,2:0:0:0:
272,260,129676,1,2,2:0:0:0:
281,308,129747,5,6,3:2:0:0:
224,285,129818,1,2,0:0:0:0:
192,237,129889,1,2,0:0:0:0:
167,181,129961,1,2,0:0:0:0:
158,126,130033,6,8,L|176:58,3,55.2499974708558,8|10|10|10,0:0|0:0|0:0|0:0,0:0:0:0:
105,28,130318,5,6,3:2:0:0:
69,74,130389,1,2,0:0:0:0:
49,126,130460,1,2,0:0:0:0:
47,183,130532,1,2,0:0:0:0:
50,239,130604,6,8,L|-23:214,3,55.2499974708558,8|10|10|10,0:0|0:0|0:0|0:0,0:0:0:0:
138,338,130890,2,0,L|59:359,3,55.2499974708558,2|2|2|2,3:2|0:0|0:0|0:0,0:0:0:0:
275,272,131176,2,0,L|196:251,3,55.2499974708558,2|2|2|2,3:2|0:0|0:0|0:0,0:0:0:0:
363,362,131461,6,0,P|416:336|394:220,1,165.749992412568,6|0,3:2|0:0,0:0:0:0:
338,154,131747,2,0,P|347:99|378:55,1,110.499994941712,8|2,0:0|0:0,0:0:0:0:
465,217,132033,5,2,3:2:0:0:
416,248,132104,1,2,0:0:0:0:
360,265,132175,1,2,0:0:0:0:
302,264,132247,1,2,0:0:0:0:
253,233,132318,1,10,0:0:0:0:
206,201,132389,1,2,0:0:0:0:
149,197,132460,1,2,0:0:0:0:
100,228,132532,1,2,0:0:0:0:
79,282,132604,6,0,L|65:188,1,55.2499974708558,14|0,0:0|0:0,0:0:0:0:
46,40,132747,1,2,3:2:0:0:
190,309,132890,1,8,0:0:0:0:
279,48,133033,6,0,B|314:23|367:44|367:44|413:64|465:22,1,165.749992412568,6|0,0:0|0:0,0:0:0:0:
441,44,133318,2,8,L|431:117,2,55.2499974708558
355,308,133604,1,8,0:0:0:0:
355,308,133676,1,8,0:0:0:0:
355,308,133747,6,0,B|323:258|263:263|263:263|245:333|192:347,1,220.999989883423,6|0,3:2|3:2,0:2:0:0:
58,76,134176,1,2,0:0:0:0:
78,52,134247,1,2,0:0:0:0:
104,28,134318,6,0,B|132:53|188:35|188:35|189:97|137:137|137:137|184:182|176:254,1,331.499984825135,6|0,3:2|0:0,0:0:0:0:
468,75,134890,6,0,B|421:55|385:88|385:88|460:117|467:197|467:197|433:176|402:184|402:184|368:210|336:207,1,331.499984825135,6|0,3:2|0:0,0:0:0:0:
15,129,135461,6,0,B|90:100|141:181|141:181|115:265|174:305|174:305|162:274|177:225|177:225,1,331.499984825135,6|0,3:2|0:0,0:0:0:0:
436,384,136033,6,0,B|352:363|352:363|330:326,1,110.499994941712,6|0,3:2|3:0,3:0:0:0:
242,90,136318,1,8,0:0:0:0:
430,239,136461,1,8,0:0:0:0:
430,239,136533,1,8,0:0:0:0:
430,239,136604,5,10,0:0:0:0:
139,354,136747,1,8,0:0:0:0:
104,63,136890,1,8,0:0:0:0:
291,161,137033,1,8,0:0:0:0:
282,206,137104,1,8,0:0:0:0:
272,250,137176,6,0,L|242:193,1,55.2499974708558,14|0,0:0|0:0,0:0:0:0:
343,74,137318,2,0,L|368:122,1,55.2499974708558,14|0,0:0|0:0,0:0:0:0:
220,337,137461,6,0,L|190:280,1,55.2499974708558,14|0,0:0|0:0,0:0:0:0:
404,4,137604,2,0,L|429:52,1,55.2499974708558,14|0,0:0|0:0,0:0:0:0:
512,323,138318,6,0,B|464:348|420:315|420:315|378:319|349:348,1,170,6|8,3:2|0:0,0:0:0:0:
355,193,138747,1,0,0:0:0:0:
354,193,138890,2,0,B|378:217|420:221|420:221|464:188|512:213,1,170,2|8,3:2|0:0,0:0:0:0:
157,342,139461,6,0,B|134:319|92:315|92:315|48:348|0:323,1,170,6|8,3:2|0:0,0:0:0:0:
0,212,139890,1,0,0:0:0:0:
0,211,140033,2,0,B|46:186|90:219|90:219|132:215|156:192,1,170,2|8,3:2|0:0,0:0:0:0:
208,101,140461,1,0,3:0:0:0:
208,101,140533,1,0,3:0:0:0:
208,101,140604,6,0,B|187:220|187:220|216:280,1,170,2|8,3:2|0:0,0:0:0:0:
304,101,141176,2,0,B|325:220|325:220|296:280,1,170,2|8,3:2|0:0,0:0:0:0:
186,374,141747,6,0,P|256:337|337:382,1,170,2|8,3:2|0:0,0:0:0:0:
426,330,142176,1,0,3:0:0:0:
426,330,142247,1,8,3:0:0:0:
426,330,142318,6,0,L|416:239,2,56.6666666666667,0|0|0,3:0|3:0|3:0,3:0:0:0:
360,206,142604,5,8,0:0:0:0:
369,154,142676,5,8,0:0:0:0:
377,103,142747,5,8,0:0:0:0:
389,52,142818,5,8,0:0:0:0:
400,0,142890,6,0,P|349:-1|305:29,1,85,6|0,3:2|0:0,0:0:0:0:
203,119,143176,2,0,P|152:120|108:90,1,85,8|0,0:0|0:0,0:0:0:0:
12,19,143461,6,0,L|29:128,1,85,2|0,3:2|3:0,0:0:0:0:
123,197,143747,2,0,L|106:306,1,85,8|0,0:0|3:0,0:0:0:0:
41,315,143961,1,8,0:0:0:0:
41,315,144033,6,8,L|26:256,2,42.5
184,379,144318,6,8,L|169:320,2,42.5
286,271,144604,6,8,L|276:230,2,42.5
429,335,144890,6,8,L|419:294,2,42.5,8|8|8,0:0|0:0|0:0,0:0:0:0:
455,181,145176,5,8,0:0:0:0:
414,196,145247,1,8,0:0:0:0:
377,210,145318,1,8,0:0:0:0:
362,90,145461,5,8,0:0:0:0:
321,75,145532,1,8,0:0:0:0:
284,61,145603,1,8,0:0:0:0:
247,194,145747,5,8,0:0:0:0:
206,209,145818,1,8,0:0:0:0:
169,223,145889,1,8,0:0:0:0:
129,94,146033,5,8,0:0:0:0:
88,79,146104,1,8,0:0:0:0:
51,65,146175,1,8,0:0:0:0:
0,196,146318,5,14,0:0:0:0:
319,340,147461,6,0,P|332:298|310:235,1,102,2|2,0:0|0:0,0:0:0:0:
193,340,148604,2,0,P|180:298|202:235,1,102,2|2,0:0|0:0,0:0:0:0:
309,151,149604,6,0,L|346:154,1,34,2|0,0:0|0:0,0:0:0:0:
417,115,149890,2,0,L|451:113,2,34,2|0|0,0:0|0:0|0:0,0:0:0:0:
355,67,150318,1,2,0:0:0:0:
251,211,150604,1,0,0:0:0:0:
251,211,150747,6,0,L|135:198,1,102,2|0,0:0|0:0,0:0:0:0:
156,52,151461,2,0,P|173:77|179:91,1,34,2|0,0:0|0:0,0:0:0:0:
284,22,151747,2,0,P|278:51|272:66,1,34,2|0,0:0|0:0,0:0:0:0:
367,110,152033,6,0,P|382:102|396:92,1,34,2|0,0:0|0:0,0:0:0:0:
456,37,152318,1,0,0:0:0:0:
486,127,152461,2,0,L|484:167,1,34,2|0,0:0|0:0,0:0:0:0:
413,233,152747,2,0,L|415:273,1,34,2|0,0:0|0:0,0:0:0:0:
491,364,153033,6,0,P|445:351|399:357,1,85,2|0,0:0|0:0,0:0:0:0:
381,365,153461,6,0,P|348:372|289:354,1,76.4999976654053,2|0,0:0|0:0,0:0:0:0:
278,354,153747,6,0,P|232:334|149:369,1,127.5,2|0,0:0|0:0,0:0:0:0:
137,359,154033,6,0,L|130:320,1,34,2|0,0:0|0:0,0:0:0:0:
276,142,154890,6,0,P|300:160|311:178,1,38.2499988327027,2|0,0:0|0:0,0:0:0:0:
242,298,155176,6,0,P|246:259|240:221,1,55.2499974708558,2|0,0:0|0:0,0:0:0:0:
87,186,155461,6,0,P|140:226|164:265,1,108.375002067089,2|0,0:0|0:0,0:0:0:0:
128,339,155747,1,6,3:2:0:0:
16,104,155890,6,0,B|61:73|61:73|126:109|126:109|151:83|151:83|241:81,1,220.999989883423,2|0,0:0|0:0,0:0:0:0:
430,157,156318,1,8,0:2:0:0:
196,177,156461,1,0,0:0:0:0:
295,22,156604,6,0,B|350:53|353:122|353:122|338:108|312:98,1,165.749992412568,2|0,3:2|0:0,0:0:0:0:
289,188,156890,1,8,0:2:0:0:
463,312,157033,6,0,P|411:281|241:322,1,220.999989883423,2|0,0:0|0:0,0:0:0:0:
148,371,157461,1,8,0:2:0:0:
29,257,157604,6,0,P|10:205|1:150,1,110.499994941712,2|0,0:0|3:0,0:0:0:0:
170,49,157890,5,0,0:0:0:0:
110,171,158033,1,8,0:2:0:0:
288,49,158176,5,0,0:0:0:0:
212,162,158318,2,0,P|228:232|255:274,1,110.499994941712,2|0,3:2|0:0,0:0:0:0:
381,336,158604,1,8,0:0:0:0:
455,154,158747,6,0,B|381:127|329:206|329:206|292:164|322:113,1,220.999989883423,2|0,0:0|0:0,0:0:0:0:
418,239,159176,2,0,P|427:307|419:350,1,110.499994941712,8|0,0:0|0:0,0:0:0:0:
108,304,159461,6,0,B|237:267|237:267|274:282,1,165.749992412568,2|0,3:2|0:0,0:0:0:0:
232,348,159747,2,0,L|124:380,1,110.499994941712,10|0,0:0|0:0,0:0:0:0:
33,357,159961,1,8,0:0:0:0:
33,357,160033,6,0,P|14:294|40:235,1,110.499994941712,2|0,3:2|0:0,0:0:0:0:
180,158,160318,1,8,0:0:0:0:
50,51,160461,2,0,L|76:172,1,110.499994941712,2|0,0:0|3:0,0:0:0:0:
203,266,160747,2,0,L|179:157,1,110.499994941712,2|8,0:0|0:0,0:0:0:0:
432,251,161033,6,0,L|406:372,1,110.499994941712,2|0,0:0|3:0,0:0:0:0:
256,87,161318,1,0,0:0:0:0:
307,270,161461,2,0,L|330:161,1,110.499994941712,10|0,0:0|0:0,0:0:0:0:
499,67,161747,6,0,P|449:98|394:100,1,110.499994941712,2|0,3:0|0:0,0:0:0:0:
255,0,162033,1,10,0:0:0:0:
13,67,162176,6,0,P|63:98|118:100,1,110.499994941712,0|0,3:0|3:0,0:0:0:0:
89,10,162461,1,0,3:0:0:0:
39,195,162604,6,0,L|53:314,1,110.499994941712,8|0,0:0|3:0,0:0:0:0:
118,366,162818,1,8,0:0:0:0:
118,366,162890,2,0,P|181:333|239:337,1,110.499994941712,8|0,0:0|3:0,0:0:0:0:
399,376,163176,2,0,P|453:371|500:342,1,110.499994941712,8|0,0:0|3:0,0:0:0:0:
376,174,163461,6,0,P|350:234|415:203,1,165.749992412568,14|0,0:2|0:0,0:0:0:0:
332,106,163747,6,0,P|288:139|463:286,1,318.75,10|8,0:0|0:0,0:0:0:0:
503,228,164033,5,0,3:0:0:0:
405,51,164176,1,8,0:0:0:0:
231,198,164318,1,8,0:0:0:0:
178,206,164389,1,8,0:0:0:0:
127,187,164460,1,8,0:0:0:0:
89,148,164532,1,8,0:0:0:0:
73,95,164604,6,0,B|51:216|51:216|81:275,1,165.749992412568,6|0,3:2|0:0,0:0:0:0:
139,299,164890,2,0,L|204:284,1,55.2499974708558,8|0,0:2|3:0,0:0:0:0:
340,209,165033,2,0,L|225:197,1,110.499994941712,2|0,0:0|3:0,0:0:0:0:
430,104,165318,1,0,3:0:0:0:
399,331,165461,1,8,0:2:0:0:
139,299,165604,1,0,3:0:0:0:
163,75,165747,6,0,L|272:86,1,110.499994941712,2|0,3:2|0:0,0:0:0:0:
398,209,166033,1,8,0:2:0:0:
467,11,166176,2,0,P|389:15|349:61,1,110.499994941712,2|0,0:0|3:0,0:0:0:0:
230,197,166461,1,0,3:0:0:0:
472,328,166604,1,8,0:2:0:0:
430,104,166747,6,0,L|391:233,1,110.499994941712,2|0,0:0|3:0,0:0:0:0:
207,90,167033,1,0,0:0:0:0:
143,328,167176,1,8,0:0:0:0:
16,162,167318,1,0,0:0:0:0:
236,302,167461,6,0,P|299:266|326:167,1,165.749992412568,2|0,3:2|0:0,0:0:0:0:
306,95,167747,1,8,0:0:0:0:
143,328,167890,6,0,P|90:380|79:226,1,331.499984825135,6|0,0:0|3:0,0:0:0:0:
226,218,168461,1,8,0:0:0:0:
383,245,168604,1,0,3:0:0:0:
420,84,168747,1,8,0:0:0:0:
263,57,168890,1,8,0:0:0:0:
246,60,168961,1,8,0:0:0:0:
230,64,169032,1,8,0:0:0:0:
214,68,169104,1,8,0:0:0:0:
198,72,169176,6,0,L|182:189,1,110.499994941712,6|0,3:2|0:0,0:0:0:0:
397,354,169461,2,0,L|382:244,1,110.499994941712,0|0,3:0|0:0,0:0:0:0:
169,310,169747,6,0,P|250:297|292:302,1,110.499994941712,0|0,3:0|0:0,0:0:0:0:
497,166,170033,2,0,P|416:153|374:158,1,110.499994941712,0|0,3:0|0:0,0:0:0:0:
76,30,170318,6,0,B|113:112|113:112|160:135,1,110.499994941712,0|0,3:0|0:0,0:0:0:0:
63,326,170604,2,0,B|100:243|100:243|118:234,1,110.499994941712,0|0,3:0|0:0,0:0:0:0:
456,325,170890,6,0,P|390:298|349:277,1,110.499994941712,0|0,3:0|0:0,0:0:0:0:
209,173,171176,2,0,P|261:155|311:132,1,110.499994941712,2|0,3:2|0:0,0:0:0:0:
59,55,171461,5,6,3:2:0:0:
56,94,171747,5,8,0:0:0:0:
51,139,172033,5,0,3:0:0:0:
309,248,172176,1,8,0:0:0:0:
209,173,172318,1,0,3:0:0:0:
133,382,172461,1,8,0:0:0:0:
417,347,172604,5,2,3:2:0:0:
417,347,173747,6,0,L|432:250,1,85,6|0,3:2|0:0,0:0:0:0:
512,120,174033,1,8,0:0:0:0:
413,142,174176,1,0,3:0:0:0:
294,290,174318,2,0,P|244:334|139:299,1,170,2|8,0:0|0:0,0:0:0:0:
211,115,174890,6,0,B|237:86|237:86|222:196,1,127.5,2|0,3:2|0:0,0:0:0:0:
160,228,175176,2,0,L|149:312,1,85,8|0,0:0|3:0,0:0:0:0:
386,370,175462,2,0,L|369:286,1,85,2|0,0:0|3:0,0:0:0:0:
451,35,175747,2,0,L|468:119,1,85,10|0,0:0|0:0,0:0:0:0:
205,116,176033,6,0,P|233:85|274:73,1,85,2|0,3:2|0:0,0:0:0:0:
159,227,176319,1,10,0:0:0:0:
26,206,176462,1,2,3:2:0:0:
208,325,176604,2,0,P|236:355|277:367,1,85,2|0,0:0|3:0,0:0:0:0:
453,205,176890,2,0,L|368:216,1,85,8|0,0:0|0:0,0:0:0:0:
487,322,177176,6,0,B|503:282|503:282|399:299,1,127.5,2|0,3:2|0:0,0:0:0:0:
346,326,177461,2,0,P|370:360|410:375,1,85,8|0,0:0|3:0,0:0:0:0:
301,189,177747,2,0,B|285:229|285:229|389:212,1,127.5,2|0,0:0|0:0,0:0:0:0:
454,177,178033,1,8,0:0:0:0:
454,177,178105,1,8,0:0:0:0:
454,177,178176,1,8,0:0:0:0:
454,177,178247,1,8,0:0:0:0:
454,177,178319,6,0,P|454:122|437:89,1,85,6|0,3:2|0:0,0:0:0:0:
366,14,178605,1,8,0:0:0:0:
261,27,178747,1,2,3:2:0:0:
207,177,178890,2,0,P|165:184|121:171,1,85,2|0,0:0|3:0,0:0:0:0:
74,82,179176,6,0,B|171:65|171:65|219:91,1,127.5,8|0,0:0|0:0,0:0:0:0:
269,108,179462,2,0,P|276:66|261:27,1,85,2|0,3:2|0:0,0:0:0:0:
207,177,179747,1,8,0:0:0:0:
357,230,179890,1,2,3:2:0:0:
212,302,180033,2,0,P|204:343|218:382,1,85,2|0,0:0|3:0,0:0:0:0:
392,336,180319,2,0,L|297:328,1,85,8|0,0:0|0:0,0:0:0:0:
22,257,180605,6,0,P|76:266|156:222,1,127.5,2|0,3:2|0:0,0:0:0:0:
207,177,180890,1,8,0:0:0:0:
218,382,181033,1,2,3:2:0:0:
27,171,181176,2,0,P|70:152|130:171,1,85,2|0,0:0|3:0,0:0:0:0:
283,257,181461,2,0,P|326:276|386:257,1,85,8|0,0:0|0:0,0:0:0:0:
198,44,181747,6,0,B|189:58|189:58|200:65|200:65|187:75|187:75|199:83|199:83|185:92|185:92|195:99|195:99|182:142|216:193,1,170,6|8,3:2|0:0,0:0:0:0:
329,139,182176,1,8,0:0:0:0:
313,134,182247,1,8,0:0:0:0:
297,129,182319,1,6,3:0:0:0:
108,127,182462,1,8,0:0:0:0:
239,279,182605,1,8,0:0:0:0:
244,295,182677,1,8,0:0:0:0:
249,311,182748,1,8,0:0:0:0:
254,327,182819,1,8,0:0:0:0:
260,343,182890,6,0,B|315:339|315:339|354:283|424:304,1,170,6|8,3:2|0:0,0:0:0:0:
493,359,183319,1,0,3:0:0:0:
462,173,183461,2,0,B|407:177|407:177|368:233|298:212,1,170,2|8,0:2|0:0,0:0:0:0:
330,126,183890,1,0,0:0:0:0:
206,64,184033,6,0,L|218:168,1,85,2|0,3:2|0:0,0:0:0:0:
48,105,184319,2,0,L|57:20,1,85,8|0,0:0|3:0,0:0:0:0:
16,224,184605,2,0,P|68:225|121:187,1,85,2|0,0:0|3:0,0:0:0:0:
297,272,184890,2,0,P|254:268|215:284,1,85,8|0,0:0|0:0,0:0:0:0:
458,352,185176,6,0,L|452:258,1,85,2|0,3:2|0:0,0:0:0:0:
422,91,185462,1,10,0:0:0:0:
371,176,185605,1,2,3:2:0:0:
268,14,185747,2,0,L|274:99,1,85,2|0,0:0|3:0,0:0:0:0:
195,192,186033,2,0,L|190:108,1,85,10|0,0:0|0:0,0:0:0:0:
322,258,186319,6,0,B|301:281|301:281|270:275|270:275|212:321|146:281,1,170,2|8,3:2|0:0,0:0:0:0:
45,239,186747,1,0,3:0:0:0:
142,65,186890,2,0,B|164:114|136:165|136:165|174:166|195:192,1,170,2|8,3:2|0:0,0:0:0:0:
389,88,187319,1,8,0:0:0:0:
389,88,187390,1,8,0:0:0:0:
389,88,187462,6,0,B|347:68|272:89|272:89|328:139,1,170,6|8,3:2|0:0,0:0:0:0:
390,216,187890,1,0,3:0:0:0:
246,343,188033,2,0,P|199:326|177:247,1,127.5,2|0,0:0|0:0,0:0:0:0:
235,179,188318,2,0,L|258:276,1,85,8|0,0:0|0:0,0:0:0:0:
512,139,188605,6,0,B|465:148|465:148|402:114|402:114|352:124,1,170,6|8,3:2|0:0,0:0:0:0:
295,44,189033,1,0,3:0:0:0:
235,179,189176,2,0,P|182:197|105:165,1,127.5,2|0,3:2|0:0,0:0:0:0:
38,211,189462,2,0,P|33:161|48:126,1,85,10|0,0:0|0:0,0:0:0:0:
152,270,189747,6,0,B|160:312|160:312|148:336|148:336|168:356|168:356|176:393,1,127.5,2|0,3:2|0:0,0:0:0:0:
242,320,190033,2,0,L|356:304,1,85,8|0,0:0|3:0,0:0:0:0:
407,356,190247,1,0,3:0:0:0:
407,356,190318,1,2,3:2:0:0:
486,156,190461,1,8,0:0:0:0:
286,75,190604,1,8,0:0:0:0:
293,119,190676,1,8,0:0:0:0:
299,160,190747,1,8,0:0:0:0:
