osu file format v14

[General]
AudioFilename: audio.mp3
AudioLeadIn: 0
PreviewTime: 154735
Countdown: 0
SampleSet: Soft
StackLeniency: 0.5
Mode: 0
LetterboxInBreaks: 0
WidescreenStoryboard: 1

[Editor]
Bookmarks: 119973,133687,137687,143116
DistanceSpacing: 1.2
BeatDivisor: 4
GridSize: 4
TimelineZoom: 1.8

[Metadata]
Title:Mushikui Psychedelism
TitleUnicode:ムシクイサイケデリズム
Artist:Zips
ArtistUnicode:じっぷす
Creator:Nevo
Version:Agatsu's Hard
Source:ヘイセイプロジェクト
Tags:vocaloid vocaloid2 kagamine rin len 鏡音リン jippusu heisei project japanese novelty Saikede Rhythm agatsu cycopton smokelind synderes frostwich Bug-Eaten wanpachi
BeatmapID:2228813
BeatmapSetID:1055498

[Difficulty]
HPDrainRate:4.5
CircleSize:3.6
OverallDifficulty:6
ApproachRate:8
SliderMultiplier:1.5
SliderTickRate:1

[Events]
//Background and Video events
0,0,"zips.png",0,0
//Break Periods
2,147451,154880
//Storyboard Layer 0 (Background)
//Storyboard Layer 1 (Fail)
//Storyboard Layer 2 (Pass)
//Storyboard Layer 3 (Foreground)
//Storyboard Layer 4 (Overlay)
//Storyboard Sound Samples

[TimingPoints]
1176,285.714285714286,4,2,1,30,1,0
10318,-100,4,2,1,70,0,0
28604,-125,4,3,1,40,0,0
37747,-111.111111111111,4,2,1,60,0,0
46890,-125,4,2,1,50,0,0
51461,-111.111111111111,4,2,1,70,0,0
56033,-100,4,2,1,90,0,1
74318,-125,4,3,1,40,0,0
83033,-111.111111111111,4,3,1,60,0,0
83461,-111.111111111111,4,2,1,60,0,0
92604,-125,4,2,1,50,0,0
97176,-111.111111111111,4,2,1,70,0,0
101747,-100,4,2,1,90,0,1
110033,-100,4,2,1,90,0,1
110318,-100,4,2,1,90,0,1
110604,-100,4,2,1,90,0,1
115461,-100,4,2,1,90,0,1
118890,-100,4,2,1,90,0,0
120033,-100,4,2,1,90,0,1
137604,-100,4,2,1,90,0,0
138318,-125,4,2,1,50,0,0
142890,-111.111111111111,4,2,1,70,0,0
147461,-250,4,2,1,30,0,0
153390,-250,4,2,1,5,0,0
153461,-166.666666666667,4,2,1,40,0,0
153675,-166.666666666667,4,2,1,5,0,0
153747,-100,4,2,1,42,0,0
153961,-100,4,2,1,5,0,0
154033,-100,4,2,1,45,0,0
154318,-100,4,2,1,5,0,0
154890,-100,4,2,1,60,0,0
155176,-100,4,2,1,70,0,0
155461,-100,4,2,1,80,0,0
155747,-100,4,2,1,90,0,1
155890,-100,4,2,1,90,0,1
163747,-100,4,2,1,90,0,1
164033,-100,4,2,1,90,0,1
173747,-100,4,2,1,70,0,0

[Colours]
Combo1 : 205,99,63
Combo2 : 183,0,0
Combo3 : 68,112,147

[HitObjects]
35,41,9747,6,0,L|120:33,1,75,2|2,0:0|0:0,0:0:0:0:
109,33,10318,6,0,L|101:193,1,150,6|8,3:2|0:0,0:0:0:0:
38,248,10747,1,0,3:0:0:0:
88,322,10890,2,0,B|164:313|150:351|240:328,1,150,2|8,0:0|0:0,0:0:0:0:
411,369,11461,6,0,L|419:209,1,150,2|8,3:2|0:0,0:0:0:0:
482,154,11890,1,0,3:0:0:0:
432,80,12033,2,0,B|383:76|339:57,1,75,2|0,0:0|3:0,0:0:0:0:
279,21,12318,2,0,B|230:25|186:44,1,75,10|0,0:0|0:0,0:0:0:0:
115,45,12604,6,0,P|189:83|185:142,1,150,2|10,3:2|0:0,0:0:0:0:
239,213,13033,1,2,3:2:0:0:
321,176,13176,2,0,L|412:171,1,75,2|0,0:0|3:0,0:0:0:0:
464,229,13461,2,0,L|471:317,1,75,8|0,0:0|0:0,0:0:0:0:
407,369,13747,6,0,B|318:373|246:333,1,150,2|8,3:2|0:0,0:0:0:0:
118,231,14318,2,0,L|113:155,1,75,2|0,0:0|0:0,0:0:0:0:
72,75,14604,2,0,L|76:31,3,37.5,8|8|8|8,0:0|0:0|0:0|0:0,0:0:0:0:
119,23,14890,6,0,B|205:8|188:41|273:18,1,150,6|8,3:2|0:0,0:0:0:0:
348,59,15318,1,2,3:2:0:0:
430,22,15461,2,0,P|495:65|487:133,1,150,2|8,0:0|0:0,0:0:0:0:
342,235,16033,6,0,L|175:218,1,150,2|8,3:2|0:0,0:0:0:0:
135,150,16461,1,2,3:2:0:0:
54,190,16604,2,0,L|45:274,1,75,2|0,0:0|3:0,0:0:0:0:
90,343,16890,2,0,L|183:353,1,75,8|0,0:0|0:0,0:0:0:0:
250,322,17176,6,0,P|311:317|406:331,1,150,2|8,3:2|0:0,0:0:0:0:
480,365,17604,1,2,3:2:0:0:
500,277,17747,2,0,L|508:185,1,75,2|0,0:0|3:0,0:0:0:0:
453,128,18033,2,0,L|369:120,1,75,8|0,0:0|0:0,0:0:0:0:
309,62,18318,6,0,L|143:82,1,150,6|8,3:2|0:0,0:0:0:0:
76,45,18747,2,0,L|71:-3,2,37.5,8|8|6,0:0|0:0|3:0,0:0:0:0:
49,131,19033,1,8,0:0:0:0:
133,178,19176,2,0,L|136:215,3,37.5,8|8|8|8,0:0|0:0|0:0|0:0,0:0:0:0:
176,235,19461,6,0,B|251:219|249:255|339:231,1,150,6|8,3:2|0:0,0:0:0:0:
396,179,19890,1,0,3:0:0:0:
485,185,20033,2,0,L|474:358,1,150,2|8,0:2|0:0,0:0:0:0:
298,369,20604,6,0,P|217:381|166:334,1,150,2|8,3:2|0:0,0:0:0:0:
161,249,21033,1,0,3:0:0:0:
234,197,21176,2,0,L|327:195,1,75,2|0,0:0|3:0,0:0:0:0:
382,143,21461,2,0,L|379:60,1,75,8|0,0:0|0:0,0:0:0:0:
316,3,21747,6,0,L|165:7,1,150,2|10,3:2|0:0,0:0:0:0:
90,57,22176,1,2,3:2:0:0:
147,125,22318,2,0,L|141:200,1,75,2|0,0:0|3:0,0:0:0:0:
203,265,22604,2,0,L|288:271,1,75,10|0,0:0|0:0,0:0:0:0:
355,223,22890,6,0,P|445:217|490:262,1,150,2|8,3:2|0:0,0:0:0:0:
490,343,23318,1,0,3:0:0:0:
403,368,23461,2,0,L|314:359,1,75,2|0,3:2|0:0,0:0:0:0:
238,371,23747,1,8,0:0:0:0:
156,333,23890,1,8,0:0:0:0:
156,333,23961,1,8,0:0:0:0:
156,333,24033,6,0,P|146:264|157:174,1,150,6|8,3:2|0:0,0:0:0:0:
229,134,24461,1,0,3:0:0:0:
313,165,24604,2,0,P|383:161|425:86,1,150,2|8,0:0|0:0,0:0:0:0:
266,10,25176,6,0,L|117:18,1,150,6|8,3:2|0:0,0:0:0:0:
45,74,25604,1,0,3:0:0:0:
83,155,25747,2,0,L|76:241,1,75,2|0,3:2|0:0,0:0:0:0:
6,286,26033,2,0,L|13:372,1,75,10|0,0:0|0:0,0:0:0:0:
101,369,26318,6,0,B|171:353|252:362,1,150,2|8,3:2|0:0,0:0:0:0:
328,315,26747,1,0,3:0:0:0:
267,248,26890,2,0,P|263:206|267:162,1,75,2|8,3:2|0:0,0:0:0:0:
336,116,27176,1,8,0:0:0:0:
421,141,27318,1,2,0:0:0:0:
231,373,28604,6,0,L|243:231,1,120,2|0,0:2|0:2,0:2:0:0:
303,205,29033,2,0,L|298:136,1,60,0|0,0:2|0:2,0:0:0:0:
236,97,29318,2,0,L|172:95,1,60,0|0,0:2|0:0,0:0:0:0:
109,136,29604,1,2,0:2:0:0:
43,94,29747,6,0,P|23:146|28:219,2,120,0|0|0,0:0|0:2|0:2,0:0:0:0:
52,16,30461,1,0,0:2:0:0:
52,16,30604,2,0,L|137:7,1,60,0|0,0:2|0:2,0:2:0:0:
180,48,30890,6,0,L|321:69,1,120,2|0,0:2|0:2,0:2:0:0:
448,21,31461,2,0,P|471:84|462:150,1,120,2|0,0:2|0:2,0:2:0:0:
401,180,31890,6,0,L|330:170,1,60,8|2,2:2|0:2,0:0:0:0:
270,204,32176,1,0,0:2:0:0:
204,162,32318,2,0,P|156:146|66:152,1,120,2|0,0:2|0:2,0:2:0:0:
28,198,32747,1,8,0:0:0:0:
28,198,32890,1,8,0:0:0:0:
64,349,33176,6,0,L|199:344,1,120,2|0,0:2|0:2,0:2:0:0:
253,309,33604,2,0,L|325:316,1,60,2|0,0:2|0:2,0:2:0:0:
375,362,33890,2,0,L|434:356,1,60,2|0,0:2|0:2,0:2:0:0:
500,313,34176,1,2,0:2:0:0:
453,250,34318,6,0,L|472:120,2,120,0|0|0,0:0|0:2|0:0,0:0:0:0:
376,232,35033,2,0,L|380:282,2,30,8|8|8,0:0|0:0|0:0,0:0:0:0:
298,241,35318,1,8,0:0:0:0:
232,198,35461,6,0,P|218:139|234:76,1,120,2|0,0:2|0:2,0:2:0:0:
102,172,36033,2,0,P|116:231|100:294,1,120,2|0,0:2|0:2,0:2:0:0:
44,339,36461,1,2,0:2:0:0:
116,368,36604,6,0,L|255:357,1,120,0|0,0:2|0:0,0:0:0:0:
307,326,37033,2,0,B|367:308|369:338|426:318,1,120,8|8,0:0|0:0,0:0:0:0:
493,355,37461,1,8,2:2:0:0:
426,191,37747,6,0,L|279:180,1,134.999995880127,6|8,3:2|0:0,0:0:0:0:
232,125,38176,2,0,L|158:130,1,67.4999979400635,2|0,0:0|0:0,0:0:0:0:
102,181,38461,2,0,L|97:255,1,67.4999979400635,2|8,3:2|0:0,0:0:0:0:
152,308,38747,1,2,0:0:0:0:
224,343,38890,6,0,P|160:347|85:371,1,134.999995880127,0|8,3:0|0:0,0:0:0:0:
16,340,39318,2,0,P|8:264|-7:198,1,134.999995880127,0|0,0:0|3:0,0:0:0:0:
43,140,39747,2,0,P|48:99|60:61,1,67.4999979400635,8|0,0:0|0:0,0:0:0:0:
121,26,40033,6,0,B|193:9|185:50|258:26,1,134.999995880127,2|8,3:0|0:0,0:0:0:0:
328,58,40461,1,0,0:0:0:0:
286,127,40604,2,0,L|292:263,1,134.999995880127,2|8,0:0|0:0,0:0:0:0:
232,317,41033,6,0,L|158:310,1,67.4999979400635,2|0,3:0|3:0,3:0:0:0:
102,258,41318,1,0,0:0:0:0:
139,186,41461,1,8,0:0:0:0:
139,186,41604,2,0,P|138:148|133:106,1,67.4999979400635,0|0,0:0|3:0,0:0:0:0:
194,62,41890,1,0,3:0:0:0:
130,11,42033,2,0,L|49:8,1,67.4999979400635,8|0,1:2|3:0,0:0:0:0:
31,35,42247,1,0,3:0:0:0:
31,35,42318,6,0,L|15:178,1,134.999995880127,6|8,3:2|0:0,0:0:0:0:
60,237,42747,2,0,L|70:308,1,67.4999979400635,2|0,0:0|0:0,0:0:0:0:
132,355,43033,2,0,L|217:362,1,67.4999979400635,2|8,3:2|1:2,0:0:0:0:
276,334,43318,1,2,0:0:0:0:
349,369,43461,6,0,P|421:367|465:325,1,134.999995880127,0|8,3:0|0:0,0:0:0:0:
457,244,43890,2,0,P|443:139|439:84,1,134.999995880127,0|0,3:0|3:0,0:0:0:0:
387,48,44318,2,0,L|312:42,1,67.4999979400635,8|0,0:0|3:0,0:0:0:0:
243,73,44604,6,0,P|219:131|237:208,1,134.999995880127,2|8,3:2|0:0,0:0:0:0:
310,224,45033,2,0,L|316:301,1,67.4999979400635,2|0,0:0|3:0,0:0:0:0:
308,372,45318,2,0,L|234:367,1,67.4999979400635,2|8,3:0|0:0,0:0:0:0:
167,331,45604,1,0,3:0:0:0:
167,331,45676,1,8,0:0:0:0:
167,331,45747,6,0,B|90:321|97:347|24:324,1,134.999995880127,2|8,3:2|0:0,0:0:0:0:
47,246,46176,2,0,L|13:238,2,33.7499989700318,8|8|8,0:0|0:0|3:0,0:0:0:0:
95,181,46461,1,8,3:0:0:0:
59,108,46604,1,12,0:0:0:0:
59,108,46747,1,8,0:0:0:0:
103,38,46890,6,0,P|165:31|226:46,1,120,2|0,3:2|3:2,3:2:0:0:
281,93,47318,1,0,3:2:0:0:
237,157,47461,2,0,L|222:288,1,120,2|0,3:2|3:2,3:2:0:0:
352,365,48033,6,0,P|432:360|472:333,1,120,2|0,3:2|3:2,3:2:0:0:
497,269,48461,1,0,3:2:0:0:
446,209,48604,2,0,L|458:77,1,120,2|0,3:2|3:2,3:2:0:0:
406,28,49033,1,0,3:2:0:0:
332,52,49176,6,0,B|266:33|276:63|212:39,1,120,2|0,3:2|3:2,3:2:0:0:
138,19,49604,1,0,3:2:0:0:
63,43,49747,2,0,L|64:184,1,120,2|0,3:2|3:2,3:2:0:0:
18,312,50318,6,0,P|86:303|156:320,1,120,2|0,3:2|3:0,3:2:0:0:
207,280,50747,1,0,0:0:0:0:
277,312,50890,2,0,L|280:351,2,40,0|0|0,3:0|3:0|3:0,3:0:0:0:
325,291,51176,2,0,L|328:251,2,40,8|8|8,0:0|0:0|0:0,0:0:0:0:
368,322,51461,6,0,P|428:331|490:273,1,134.999995880127,6|8,3:2|0:0,0:0:0:0:
493,206,51890,1,2,0:0:0:0:
428,157,52033,2,0,L|348:151,1,67.4999979400635,0|2,3:0|0:0,0:0:0:0:
295,104,52318,2,0,L|215:110,1,67.4999979400635,8|2,0:0|0:0,0:0:0:0:
171,167,52604,6,0,L|166:246,2,67.4999979400635,0|2|8,3:0|0:0|0:0,0:0:0:0:
101,123,53033,1,2,0:0:0:0:
30,162,53176,2,0,L|35:241,2,67.4999979400635,0|2|8,3:0|3:2|0:0,0:0:0:0:
3,85,53604,1,0,3:0:0:0:
53,21,53747,6,0,P|124:15|208:38,1,134.999995880127,6|8,3:2|0:0,0:0:0:0:
256,69,54176,2,0,P|306:79|354:74,1,67.4999979400635,2|8,3:2|0:0,0:0:0:0:
388,32,54461,2,0,P|438:22|486:27,1,67.4999979400635,2|8,3:2|0:0,0:0:0:0:
454,22,54676,1,8,0:0:0:0:
454,22,54747,1,8,0:0:0:0:
506,98,54890,5,14,0:0:0:0:
413,362,56033,6,0,L|241:347,1,150,6|8,3:2|0:2,0:0:0:0:
203,281,56461,2,0,P|195:217|221:125,1,150,2|0,0:0|3:0,0:0:0:0:
299,100,56890,2,0,P|296:50|278:6,1,75,8|0,0:2|0:0,0:0:0:0:
199,10,57176,6,0,B|120:0|121:42|43:25,1,150,2|8,3:2|0:2,0:0:0:0:
8,105,57604,2,0,L|26:199,1,75,2|0,0:0|3:0,0:0:0:0:
104,216,57890,1,0,3:0:0:0:
104,216,58033,1,8,0:2:0:0:
188,184,58176,6,0,P|255:194|335:240,1,150,2|0,0:0|0:0,0:0:0:0:
352,319,58604,2,0,P|388:342|430:350,1,75,8|0,0:0|0:0,0:0:0:0:
497,303,58890,2,0,B|476:249|520:210|483:141,1,150,2|8,3:2|0:0,0:0:0:0:
424,92,59318,1,2,0:0:0:0:
344,134,59461,6,0,P|286:145|179:149,1,150,2|8,3:0|0:0,0:0:0:0:
118,101,59890,1,0,0:0:0:0:
150,17,60033,2,0,P|204:5|257:3,1,75,2|0,3:2|0:0,0:0:0:0:
313,3,60318,2,0,P|367:15|420:17,1,75,10|0,0:0|0:0,0:0:0:0:
432,11,60533,1,8,0:0:0:0:
432,11,60604,6,0,P|471:72|475:160,1,150,2|8,3:2|0:0,0:0:0:0:
411,210,61033,2,0,P|401:248|395:304,1,75,2|0,0:0|3:0,0:0:0:0:
312,317,61318,2,0,L|217:311,1,75,2|8,0:0|0:0,0:0:0:0:
157,356,61604,6,0,P|204:290|194:211,1,150,2|0,0:0|0:0,0:0:0:0:
140,155,62033,2,0,L|46:160,1,75,10|0,0:0|0:0,0:0:0:0:
5,226,62318,2,0,P|10:265|12:318,1,75,2|0,3:0|0:0,0:0:0:0:
68,371,62604,1,10,0:0:0:0:
147,328,62747,6,0,B|230:314|224:347|298:325,1,150,0|0,3:0|3:0,0:0:0:0:
381,353,63176,2,0,L|467:360,1,75,8|0,0:0|3:0,0:0:0:0:
490,329,63390,1,8,0:0:0:0:
490,329,63461,2,0,P|492:282|499:228,1,75,8|0,0:0|3:0,0:0:0:0:
432,188,63747,2,0,P|430:141|423:87,1,75,8|0,0:0|3:0,0:0:0:0:
472,34,64033,6,0,P|443:23|380:20,1,75,14|0,0:2|0:0,0:0:0:0:
319,59,64318,2,0,P|290:70|227:73,1,75,10|0,0:0|0:0,0:0:0:0:
205,53,64533,1,8,0:0:0:0:
205,53,64604,1,0,3:0:0:0:
122,88,64747,1,8,0:0:0:0:
93,173,64890,2,0,L|95:227,3,37.5,8|8|0|0,0:0|0:0|0:0|0:0,0:0:0:0:
60,240,65176,6,0,P|127:248|194:307,1,150,6|8,3:2|0:2,0:0:0:0:
259,355,65604,2,0,P|326:347|393:288,1,150,2|0,0:0|3:0,0:0:0:0:
400,206,66033,2,0,L|408:123,1,75,8|0,0:2|0:0,0:0:0:0:
486,89,66318,6,0,L|502:249,1,150,2|8,3:2|0:2,0:0:0:0:
482,327,66747,2,0,P|435:352|338:339,1,150,2|0,0:0|3:0,0:0:0:0:
272,282,67176,1,8,0:2:0:0:
296,195,67318,6,0,B|265:136|314:104|272:37,1,150,2|0,0:0|0:0,0:0:0:0:
196,11,67747,2,0,L|96:16,1,75,8|0,0:0|0:0,0:0:0:0:
44,62,68033,2,0,P|16:128|26:210,1,150,2|8,3:2|0:0,0:0:0:0:
87,268,68461,1,2,0:0:0:0:
14,321,68604,6,0,P|85:313|183:319,1,150,6|0,3:2|3:0,0:0:0:0:
240,364,69033,1,8,0:0:0:0:
319,321,69176,1,0,3:0:0:0:
319,321,69318,1,8,0:0:0:0:
289,235,69461,2,0,L|285:197,3,37.5,8|0|8|8,0:0|0:0|0:0|0:0,0:0:0:0:
243,179,69747,6,0,L|255:11,1,150,6|0,3:2|3:0,0:0:0:0:
342,12,70176,1,0,0:0:0:0:
342,12,70318,2,0,L|434:17,1,75,0|0,3:0|0:0,0:0:0:0:
490,68,70604,2,0,P|486:113|486:156,1,75,0|0,3:0|0:0,0:0:0:0:
414,199,70890,6,0,P|332:217|310:294,1,150,0|0,3:0|3:0,0:0:0:0:
375,331,71318,1,0,0:0:0:0:
375,331,71461,2,0,P|418:326|460:325,1,75,0|0,3:0|0:0,0:0:0:0:
506,254,71747,2,0,L|503:171,1,75,2|0,3:2|0:0,0:0:0:0:
460,99,72033,6,0,P|416:80|343:85,1,112.5,6|0,3:2|0:0,0:0:0:0:
311,100,72318,2,0,P|271:105|214:100,1,75,8|0,0:0|3:0,0:0:0:0:
169,42,72604,1,0,3:0:0:0:
169,42,72747,1,0,3:0:0:0:
86,79,72890,1,0,3:0:0:0:
86,79,73033,1,8,0:0:0:0:
78,168,73176,5,2,3:2:0:0:
339,371,74318,6,0,L|356:233,1,120,2|0,0:2|0:2,0:2:0:0:
302,192,74747,2,0,L|230:184,1,60,0|0,0:2|0:2,0:0:0:0:
175,227,75033,2,0,L|103:235,1,60,0|0,0:2|0:0,0:0:0:0:
47,194,75318,1,2,0:2:0:0:
87,126,75461,6,0,P|80:59|20:46,2,120,0|0|0,0:0|0:2|0:2,0:0:0:0:
168,145,76176,1,0,0:2:0:0:
168,145,76318,2,0,L|249:137,1,60,0|0,0:2|0:2,0:2:0:0:
294,98,76604,6,0,L|430:108,1,120,2|0,0:2|0:2,0:2:0:0:
508,231,77176,2,0,P|494:284|491:367,1,120,2|0,0:2|0:2,0:2:0:0:
414,326,77604,1,0,2:2:0:0:
345,363,77747,6,0,P|305:359|265:344,1,60,2|0,0:2|0:0,0:2:0:0:
231,297,78033,2,0,P|230:226|256:160,2,120,2|0|8,0:2|0:2|0:0,0:0:0:0:
88,360,78890,6,0,P|45:334|26:261,1,120,2|0,0:2|0:2,0:2:0:0:
66,203,79318,2,0,P|74:155|75:121,1,60,2|0,0:2|0:2,0:2:0:0:
129,87,79604,2,0,L|212:78,1,60,2|0,0:2|0:2,0:2:0:0:
253,35,79890,1,2,0:2:0:0:
328,54,80033,6,0,P|385:72|407:142,1,120,0|0,0:0|0:2,0:0:0:0:
358,183,80461,2,0,P|286:173|210:170,1,120,0|8,0:2|0:0,0:0:0:0:
167,203,80890,2,0,P|134:211|81:214,1,60,8|8,0:0|0:0,0:0:0:0:
29,206,81176,6,0,P|78:244|82:316,1,120,2|0,0:2|0:2,0:2:0:0:
231,357,81747,2,0,B|302:343|287:377|350:362,1,120,2|0,0:2|0:2,0:2:0:0:
427,367,82176,1,2,0:2:0:0:
491,324,82318,6,0,L|504:198,1,120
454,143,82747,2,0,P|437:62|403:29,1,120,8|8,0:0|0:0,0:0:0:0:
373,36,83104,1,0,0:0:0:0:
373,36,83176,1,8,2:2:0:0:
250,141,83461,6,0,L|257:299,1,134.999995880127,6|8,3:2|0:0,0:0:0:0:
197,332,83890,2,0,P|158:327|116:324,1,67.4999979400635,2|0,0:0|0:0,0:0:0:0:
64,275,84176,2,0,L|73:203,1,67.4999979400635,2|8,3:2|0:0,0:0:0:0:
28,139,84461,1,2,0:0:0:0:
69,69,84604,6,0,B|145:49|141:86|219:60,1,134.999995880127,0|8,3:0|0:0,0:0:0:0:
269,17,85033,2,0,P|331:56|410:74,1,134.999995880127,0|0,0:0|3:0,0:0:0:0:
464,105,85461,2,0,P|476:150|492:180,1,67.4999979400635,8|0,0:0|0:0,0:0:0:0:
466,248,85747,6,0,P|411:264|347:210,1,134.999995880127,2|8,3:0|0:0,0:0:0:0:
333,141,86176,1,0,0:0:0:0:
271,89,86318,2,0,P|222:90|114:109,1,134.999995880127,2|8,0:0|0:0,0:0:0:0:
71,150,86747,6,0,L|44:225,1,67.4999979400635,2|0,3:0|3:0,3:0:0:0:
80,288,87033,1,0,0:0:0:0:
80,288,87176,1,8,0:0:0:0:
5,318,87318,2,0,P|75:329|147:358,1,134.999995880127,0|0,0:0|3:0,0:0:0:0:
214,336,87747,2,0,P|242:333|301:312,1,67.4999979400635,8|0,1:2|3:0,0:0:0:0:
320,327,87961,1,0,3:0:0:0:
320,327,88033,6,0,B|341:260|306:246|335:180,1,134.999995880127,6|8,3:2|0:0,0:0:0:0:
280,129,88461,2,0,P|276:93|263:43,1,67.4999979400635,2|0,0:0|0:0,0:0:0:0:
333,12,88747,2,0,L|415:25,1,67.4999979400635,2|8,3:2|1:2,0:0:0:0:
477,47,89033,1,2,0:0:0:0:
473,128,89176,6,0,P|482:154|498:283,1,134.999995880127,0|8,3:0|0:0,0:0:0:0:
459,331,89604,2,0,P|395:354|333:333,1,134.999995880127,0|0,3:0|3:0,0:0:0:0:
270,282,90033,2,0,P|247:278|181:259,1,67.4999979400635,8|0,0:0|3:0,0:0:0:0:
161,336,90318,6,0,P|160:272|79:257,1,134.999995880127,2|8,3:2|0:0,0:0:0:0:
28,209,90747,2,0,B|44:149|14:129|34:67,1,134.999995880127,2|2,0:0|3:0,0:0:0:0:
87,15,91176,2,0,P|120:17|170:44,1,67.4999979400635,8|0,0:0|3:0,0:0:0:0:
192,29,91390,1,8,0:0:0:0:
192,29,91461,6,0,P|216:75|220:117,1,67.4999979400635,2|0,3:2|3:0,0:0:0:0:
177,160,91747,2,0,P|153:206|149:248,1,67.4999979400635,8|8,0:0|0:0,0:0:0:0:
155,261,91961,1,8,0:0:0:0:
155,261,92033,2,0,P|189:290|207:321,1,67.4999979400635,8|8,3:0|3:0,0:0:0:0:
276,339,92318,1,12,0:0:0:0:
276,339,92461,1,8,0:0:0:0:
354,337,92604,6,0,P|360:300|367:193,1,120,2|0,3:2|0:2,0:2:0:0:
309,163,93033,1,0,0:2:0:0:
235,136,93176,2,0,P|229:99|222:-8,1,120,2|0,3:2|3:2,0:2:0:0:
378,24,93747,6,0,P|483:52|490:67,1,120,2|0,3:2|0:2,0:2:0:0:
429,109,94176,1,0,0:2:0:0:
484,163,94318,2,0,L|504:297,1,120,2|0,3:2|3:2,0:2:0:0:
484,358,94747,1,2,0:2:0:0:
406,369,94890,6,0,B|335:354|343:383|278:363,1,120,2|0,3:2|3:2,0:2:0:0:
164,362,95461,2,0,L|34:357,1,120,2|0,3:2|3:2,0:2:0:0:
13,203,96033,6,0,P|55:220|139:206,1,120,2|0,3:2|3:2,0:2:0:0:
187,161,96461,1,0,0:2:0:0:
249,207,96604,2,0,L|256:246,2,40,8|0|0,3:0|3:0|3:0,3:0:0:0:
293,178,96890,2,0,L|300:138,2,40,8|8|8,0:0|0:0|0:0,0:0:0:0:
331,216,97176,6,0,P|381:227|470:191,1,134.999995880127,6|8,3:2|0:0,0:0:0:0:
499,130,97604,1,2,0:0:0:0:
462,57,97747,2,0,L|311:47,1,134.999995880127,0|8,3:0|0:0,0:0:0:0:
259,93,98176,1,2,0:0:0:0:
196,42,98318,6,0,P|163:33|114:33,1,67.4999979400635,0|2,3:0|0:0,0:0:0:0:
78,94,98604,2,0,P|39:112|15:148,1,67.4999979400635,8|2,0:0|0:0,0:0:0:0:
38,210,98890,2,0,L|25:282,2,67.4999979400635,0|2|8,3:0|3:2|0:0,0:0:0:0:
124,207,99318,1,0,3:0:0:0:
124,207,99390,1,0,3:0:0:0:
124,207,99461,6,0,P|191:201|268:233,1,134.999995880127,6|8,3:2|0:0,0:0:0:0:
299,290,99890,2,0,L|281:366,1,67.4999979400635,2|8,3:2|0:0,0:0:0:0:
204,377,100176,2,0,L|188:311,1,67.4999979400635,2|8,3:2|0:0,0:0:0:0:
188,311,100390,1,8,0:0:0:0:
188,311,100461,1,8,0:0:0:0:
109,290,100604,5,14,0:0:0:0:
506,15,101747,6,0,L|483:173,1,150,6|8,3:2|0:2,0:0:0:0:
405,208,102176,2,0,P|326:205|272:149,1,150,2|0,0:0|3:0,0:0:0:0:
234,79,102604,2,0,P|190:63|131:59,1,75,8|0,0:2|3:0,0:0:0:0:
75,32,102890,6,0,P|113:57|113:159,1,150,2|8,3:2|0:2,0:0:0:0:
28,137,103318,2,0,L|45:302,1,150,2|0,0:0|3:0,0:0:0:0:
12,371,103747,1,8,0:2:0:0:
101,362,103890,6,0,B|188:335|179:376|267:351,1,150,2|0,0:0|0:0,0:0:0:0:
313,291,104318,1,8,0:0:0:0:
313,291,104461,1,0,0:0:0:0:
252,224,104604,2,0,P|214:215|156:209,1,75,2|0,3:2|0:0,0:0:0:0:
94,244,104890,1,8,0:0:0:0:
23,187,105033,6,0,P|21:147|120:84,1,150,2|0,0:0|0:0,0:0:0:0:
168,24,105461,2,0,P|223:38|269:48,1,75,8|0,0:0|0:0,0:0:0:0:
321,82,105747,2,0,P|376:68|422:58,1,75,2|0,3:2|0:0,0:0:0:0:
472,108,106033,2,0,P|489:158|488:202,1,75,10|0,0:0|0:0,0:0:0:0:
448,197,106247,1,8,0:0:0:0:
448,197,106318,6,0,P|391:222|385:316,1,150,2|8,3:2|0:0,0:0:0:0:
311,364,106747,2,0,P|257:358|225:335,1,75,2|0,0:0|3:0,0:0:0:0:
149,341,107033,2,0,P|130:299|128:237,1,75,2|8,0:0|0:0,0:0:0:0:
72,197,107318,6,0,P|134:152|218:145,1,150,2|0,0:0|0:0,0:0:0:0:
283,189,107747,2,0,P|324:211|367:217,1,75,10|0,0:0|0:0,0:0:0:0:
425,269,108033,2,0,P|466:217|463:106,1,150,2|10,3:0|0:0,0:0:0:0:
415,66,108461,6,0,P|364:54|250:35,1,150,0|0,3:0|3:0,0:0:0:0:
185,76,108890,2,0,P|118:82|83:78,1,75,8|0,0:0|3:0,0:0:0:0:
69,61,109104,1,8,0:0:0:0:
69,61,109176,2,0,P|28:94|10:134,1,75,8|0,0:0|3:0,0:0:0:0:
41,199,109461,2,0,P|82:232|100:272,1,75,8|0,0:0|3:0,0:0:0:0:
88,341,109747,6,0,P|127:345|189:352,1,75,14|0,0:2|0:0,0:0:0:0:
248,319,110033,2,0,P|285:314|322:311,1,75,10|0,0:0|0:0,0:0:0:0:
365,325,110247,1,8,0:0:0:0:
365,325,110318,1,0,3:0:0:0:
449,354,110461,1,8,0:0:0:0:
500,280,110604,1,8,0:0:0:0:
504,190,110747,2,0,L|453:184,1,37.5,8|8,0:0|0:0,0:0:0:0:
440,167,110890,6,0,B|357:148|365:182|276:155,1,150,6|8,3:2|0:2,0:0:0:0:
218,212,111318,2,0,P|258:174|226:89,1,150,2|0,0:0|3:0,0:0:0:0:
144,117,111747,2,0,P|92:132|50:150,1,75,8|0,0:2|0:0,0:0:0:0:
10,204,112033,6,0,P|28:147|43:47,1,150,2|8,3:2|0:2,0:0:0:0:
129,17,112461,2,0,B|200:6|210:44|287:24,1,150,2|0,0:0|3:0,0:0:0:0:
361,60,112890,1,8,0:2:0:0:
444,25,113033,6,0,P|498:42|519:71,1,75,2|0,0:0|3:0,0:0:0:0:
503,144,113318,1,0,0:0:0:0:
413,153,113461,2,0,P|359:170|338:199,1,75,8|0,0:0|0:0,0:0:0:0:
374,269,113747,2,0,P|438:277|486:363,1,150,2|8,3:2|0:0,0:0:0:0:
399,373,114176,1,2,0:0:0:0:
314,344,114318,6,0,P|263:330|152:314,1,150,6|0,3:2|3:0,0:0:0:0:
91,364,114747,1,8,0:0:0:0:
14,317,114890,1,0,3:0:0:0:
14,317,115033,1,8,0:0:0:0:
31,228,115176,2,0,L|26:174,3,37.5,8|8|8|8,0:0|0:0|0:0|0:0,0:0:0:0:
57,157,115461,6,0,P|52:92|105:3,1,150,6|0,3:2|3:0,0:0:0:0:
179,15,115890,1,0,0:0:0:0:
179,15,116033,2,0,P|232:18|264:20,1,75,0|0,3:0|0:0,0:0:0:0:
330,67,116318,2,0,P|367:64|404:62,1,75,0|0,3:0|0:0,0:0:0:0:
489,96,116604,6,0,P|499:53|497:14,2,75,0|0|0,3:0|0:0|3:0,0:0:0:0:
423,159,117033,1,0,0:0:0:0:
333,172,117176,2,0,P|332:209|342:245,1,75,0|0,3:0|0:0,0:0:0:0:
422,287,117461,2,0,P|422:324|412:360,1,75,2|0,3:2|0:0,0:0:0:0:
322,372,117747,6,0,B|254:350|251:378|201:358,1,112.5,6|0,3:2|0:0,0:0:0:0:
169,342,118033,2,0,P|167:300|158:260,1,75,8|8,0:0|0:0,0:0:0:0:
117,188,118318,1,8,0:0:0:0:
117,188,118461,1,8,0:0:0:0:
159,110,118604,1,8,0:0:0:0:
159,110,118747,1,8,0:0:0:0:
120,28,118890,5,10,0:2:0:0:
483,371,120033,6,0,B|512:293|512:293|459:243,1,150,6|8,3:2|0:0,0:0:0:0:
377,219,120461,1,0,0:0:0:0:
316,285,120604,2,0,B|254:278|217:323|217:323|146:314,1,150,0|8,3:0|0:0,0:0:0:0:
95,354,121033,1,0,0:0:0:0:
19,305,121176,6,0,B|31:205|71:257|85:160,1,150,2|10,3:0|0:0,0:0:0:0:
27,102,121604,1,0,0:0:0:0:
83,31,121747,2,0,P|156:25|188:34,1,75,2|2,3:0|0:0,0:0:0:0:
231,77,122033,2,0,P|304:83|336:74,1,75,10|0,0:0|0:0,0:0:0:0:
392,103,122318,6,0,L|408:18,2,75,2|2|8,3:2|0:0|0:0,0:0:0:0:
441,179,122747,1,8,0:0:0:0:
361,221,122890,2,0,B|297:210|297:210|234:258|276:290,1,150,2|8,3:2|0:0,0:0:0:0:
207,348,123318,6,0,P|274:323|382:340,1,150,8|0,0:0|0:0,0:0:0:0:
436,358,123747,1,8,0:0:0:0:
502,296,123890,2,0,B|485:249|485:249|505:192|505:192|503:168|462:154,1,150,2|0,0:2|0:0,0:0:0:0:
463,74,124318,2,0,P|417:49|383:43,1,75,8|8,0:0|0:0,0:0:0:0:
355,66,124533,1,8,0:0:0:0:
355,66,124604,6,0,B|264:50|277:88|188:68,1,150,2|8,3:2|0:0,0:0:0:0:
137,12,125033,1,8,0:0:0:0:
47,20,125176,2,0,P|21:69|12:115,1,75,2|2,0:0|0:0,0:0:0:0:
66,164,125461,1,8,0:0:0:0:
153,187,125604,6,0,P|89:209|52:303,1,150,2|0,0:0|0:0,0:0:0:0:
16,362,126033,1,8,0:0:0:0:
106,359,126176,2,0,B|170:344|170:344|206:367|206:367|232:358|273:362,1,150,2|0,0:0|0:0,0:0:0:0:
310,296,126604,2,0,P|303:249|298:195,1,75,8|0,0:0|0:0,0:0:0:0:
227,166,126890,6,0,P|236:113|254:66,1,75,2|2,3:2|0:2,0:2:0:0:
230,2,127176,1,10,0:0:0:0:
318,13,127318,1,8,0:0:0:0:
318,13,127390,1,8,0:0:0:0:
318,13,127461,2,0,P|370:24|433:83,1,112.5,8|0,0:0|0:0,0:0:0:0:
460,72,127747,2,0,P|468:117|461:180,1,75,8|8,0:0|0:0,0:0:0:0:
408,215,128033,6,8,P|393:242|387:273,2,37.5,12|8|8,0:0|0:0|0:0,0:0:0:0:
337,159,128318,1,8,0:0:0:0:
250,186,128461,2,8,P|243:168|232:152,2,37.5,8|8|8,0:0|0:0|0:0,0:0:0:0:
215,270,128747,1,8,0:0:0:0:
147,330,128890,2,8,P|127:333|97:323,3,37.5,12|8|8|8,0:0|0:0|0:0|0:0,0:0:0:0:
72,354,129176,6,0,P|52:297|60:193,1,150,6|10,3:2|0:0,3:0:0:0:
33,121,129604,1,2,2:0:0:0:
33,121,129676,1,2,2:0:0:0:
33,121,129747,2,0,P|43:95|72:68,3,37.5,2|2|2|2,3:2|0:0|0:0|0:0,0:0:0:0:
54,42,130033,2,8,P|78:28|117:26,3,37.5,8|10|10|10,0:0|0:0|0:0|0:0,0:0:0:0:
124,1,130318,6,0,P|161:12|183:29,3,37.5,2|2|2|2,3:2|0:0|0:0|0:0,0:0:0:0:
204,4,130604,2,8,P|225:36|231:63,3,37.5,8|10|10|10,0:0|0:0|0:0|0:0,0:0:0:0:
262,59,130890,2,0,P|257:97|244:121,3,37.5,2|2|2|2,3:2|0:0|0:0|0:0,0:0:0:0:
273,137,131176,2,8,P|244:163|219:174,3,37.5,8|10|10|10,0:0|0:0|0:0|0:0,0:0:0:0:
224,201,131461,6,0,P|176:253|182:346,1,150,2|8,3:2|0:0,0:0:0:0:
254,370,131890,2,0,P|288:352|352:342,1,75,2|2,0:2|3:2,0:2:0:0:
412,359,132176,1,2,0:0:0:0:
491,317,132318,2,0,P|487:267|458:234,1,75,10|2,0:0|0:0,0:0:0:0:
395,201,132604,5,14,0:0:0:0:
305,211,132747,2,0,P|304:173|322:141,1,75,2|8,3:2|0:0,0:0:0:0:
399,93,133033,2,0,P|369:48|265:37,1,150,6|0,0:0|0:0,0:0:0:0:
237,47,133390,1,8,0:0:0:0:
237,47,133461,2,8,P|205:28|176:27,3,37.5
164,7,133747,6,0,B|91:19|100:60|21:74,1,150,6|0,3:2|3:2,0:2:0:0:
50,160,134176,1,2,0:0:0:0:
50,160,134247,1,2,0:0:0:0:
50,160,134318,2,0,P|46:219|26:316,1,150,6|0,3:2|0:0,0:0:0:0:
98,365,134747,1,0,0:0:0:0:
175,319,134890,6,0,B|232:302|265:326|265:326|280:362|319:365,1,150,6|0,3:2|0:0,0:0:0:0:
373,305,135318,1,0,0:0:0:0:
335,225,135461,2,0,B|337:206|357:145|368:133,1,75,6|0,3:2|0:0,0:0:0:0:
445,177,135747,1,6,3:2:0:0:
512,344,136033,6,0,B|432:362|364:297,1,150,6|8,3:2|0:0,3:0:0:0:
287,332,136461,2,0,P|249:358|239:376,2,37.5,8|8|10,0:0|0:0|0:0,0:0:0:0:
244,251,136747,1,8,0:0:0:0:
165,294,136890,2,0,P|124:287|96:261,1,75,8|8,0:0|0:0,0:0:0:0:
106,175,137176,5,14,0:0:0:0:
160,104,137318,2,0,L|209:104,2,37.5,14|0|14,0:0|0:0|0:0,0:0:0:0:
102,33,137604,1,14,0:0:0:0:
23,351,138318,6,0,P|86:350|154:338,1,120,6|8,3:2|0:0,0:0:0:0:
216,366,138747,1,0,0:0:0:0:
281,323,138890,2,0,P|340:313|359:313,1,60,2|0,3:2|0:0,0:0:0:0:
410,348,139176,2,0,P|469:357|488:358,1,60,8|0,0:0|0:0,0:0:0:0:
507,289,139461,6,0,P|508:239|429:212,1,120,6|8,3:2|0:0,0:0:0:0:
389,158,139890,1,0,0:0:0:0:
313,177,140033,2,0,B|299:127|334:105|308:48,1,120,2|8,3:2|0:0,0:0:0:0:
245,19,140461,1,0,3:0:0:0:
167,31,140604,6,0,P|114:22|26:14,1,120,2|8,3:2|0:0,0:0:0:0:
27,91,141033,1,0,0:0:0:0:
65,158,141176,2,0,P|80:193|89:240,1,60,2|0,3:2|0:0,0:0:0:0:
34,273,141461,1,8,0:0:0:0:
154,371,141747,6,0,P|203:341|273:347,1,120,2|8,3:2|0:0,0:0:0:0:
337,369,142176,1,0,3:0:0:0:
393,316,142318,2,0,L|459:320,2,40,0|0|0,3:0|3:0|3:0,3:0:0:0:
362,273,142604,2,0,L|308:280,3,30,8|8|8|8,0:0|0:0|0:0|0:0,0:0:0:0:
399,234,142890,6,0,P|415:173|395:84,1,134.999995880127,6|8,3:2|0:0,0:0:0:0:
331,138,143318,1,0,0:0:0:0:
258,102,143461,2,0,P|252:67|256:27,1,67.4999979400635,2|0,3:2|3:0,0:0:0:0:
329,3,143747,2,0,L|421:9,1,67.4999979400635,8|0,0:0|3:0,0:0:0:0:
437,5,143961,1,8,0:0:0:0:
437,5,144033,6,8,P|479:31|486:41,2,33.7499989700318
414,82,144318,2,8,P|372:108|365:118,2,33.7499989700318
450,155,144604,2,8,P|492:181|499:191,2,33.7499989700318
427,232,144890,2,8,P|385:258|378:268,2,33.7499989700318
486,301,145176,5,8,0:0:0:0:
486,301,145247,1,8,0:0:0:0:
486,301,145318,1,8,0:0:0:0:
407,338,145461,2,0,L|400:382,2,33.7499989700318,8|8|8,0:0|0:0|0:0,0:0:0:0:
325,343,145747,2,0,L|319:309,2,33.7499989700318,8|8|8,0:0|0:0|0:0,0:0:0:0:
243,343,146033,2,0,L|236:387,2,33.7499989700318,8|8|8,0:0|0:0|0:0,0:0:0:0:
164,321,146318,5,14,0:0:0:0:
0,5,155747,5,6,3:2:0:0:
69,62,155890,2,0,P|135:77|219:117,1,150,2|0,0:0|0:0,0:0:0:0:
299,104,156318,2,0,P|318:130|337:192,1,75,8|0,0:2|0:0,0:0:0:0:
413,212,156604,6,0,P|354:202|301:268,1,150,2|8,3:2|0:2,0:0:0:0:
251,341,157033,2,0,P|328:369|410:367,1,150,2|0,0:0|0:0,0:0:0:0:
479,338,157461,1,8,0:2:0:0:
499,250,157604,6,0,B|476:181|516:155|487:85,1,150,2|0,0:0|0:0,0:0:0:0:
432,34,158033,2,0,P|407:25|333:17,1,75,8|0,0:2|0:0,0:0:0:0:
283,65,158318,2,0,P|230:73|190:96,1,75,2|0,3:2|0:0,0:0:0:0:
183,168,158604,1,8,0:0:0:0:
261,212,158747,6,0,P|185:218|168:289,1,150,2|0,0:0|0:0,0:0:0:0:
202,362,159176,2,0,P|138:375|99:372,1,75,8|0,0:0|0:0,0:0:0:0:
43,345,159461,2,0,P|27:312|21:260,1,75,2|0,3:2|0:0,0:0:0:0:
70,198,159747,2,0,P|86:165|92:113,1,75,10|0,0:0|0:0,0:0:0:0:
56,99,159961,1,8,0:0:0:0:
56,99,160033,6,0,B|83:66|103:31|103:31|137:53|185:80,1,150,2|8,3:2|0:0,0:0:0:0:
219,133,160461,2,0,P|285:137|321:151,1,75,2|0,0:0|3:0,0:0:0:0:
327,223,160747,2,0,P|363:215|401:216,1,75,2|8,0:0|0:0,0:0:0:0:
480,260,161033,6,0,P|497:188|495:93,1,150,2|0,0:0|0:0,0:0:0:0:
464,28,161461,2,0,P|414:36|372:38,1,75,10|0,0:0|0:0,0:0:0:0:
309,80,161747,2,0,P|263:60|150:88,1,150,2|10,3:0|0:0,0:0:0:0:
81,45,162176,6,0,B|42:57|42:57|27:109,1,75,0|0,3:0|3:0,0:0:0:0:
89,159,162461,1,0,3:0:0:0:
178,168,162604,2,0,B|217:180|217:180|232:232,1,75,8|0,0:0|3:0,0:0:0:0:
216,257,162818,1,8,0:0:0:0:
216,257,162890,2,0,P|165:251|114:252,1,75,8|0,0:0|3:0,0:0:0:0:
50,246,163176,2,0,P|27:297|20:328,1,75,8|0,0:0|3:0,0:0:0:0:
88,376,163461,6,0,L|168:370,1,75,14|0,0:2|0:0,0:0:0:0:
248,341,163747,2,0,L|322:346,1,75,10|0,0:0|0:0,0:0:0:0:
364,365,163961,1,8,0:0:0:0:
364,365,164033,1,0,3:0:0:0:
452,348,164176,1,8,0:0:0:0:
497,271,164318,2,0,L|487:210,3,37.5,8|8|8|8,0:0|0:0|0:0|0:0,0:0:0:0:
460,200,164604,6,0,P|484:112|468:34,1,150,6|8,3:2|0:2,0:0:0:0:
395,12,165033,2,0,P|343:19|307:37,1,75,2|0,0:0|3:0,0:0:0:0:
266,98,165318,1,0,3:0:0:0:
301,180,165461,2,0,P|292:260|279:280,1,75,8|0,0:2|3:0,0:0:0:0:
306,343,165747,6,0,P|274:281|181:282,1,150,2|8,3:2|0:2,0:0:0:0:
140,339,166176,2,0,B|42:337|88:289|3:278,1,150,2|0,0:0|3:0,0:0:0:0:
35,192,166604,1,8,0:2:0:0:
19,103,166747,6,0,P|156:58|182:64,1,150,2|0,0:0|0:0,0:0:0:0:
234,103,167176,2,0,P|250:148|241:187,1,75,8|0,0:0|0:0,0:0:0:0:
165,214,167461,2,0,P|218:213|276:304,1,150,2|8,3:2|0:0,0:0:0:0:
330,355,167890,6,0,P|398:368|465:291,1,150,2|0,0:0|0:0,0:0:0:0:
465,230,168318,1,0,3:0:0:0:
419,151,168461,1,8,0:0:0:0:
328,154,168604,2,0,P|293:148|232:124,1,75,0|8,3:0|0:0,0:0:0:0:
190,72,168890,2,0,L|187:13,3,37.5,8|8|8|8,0:0|0:0|0:0|0:0,0:0:0:0:
145,17,169176,6,0,P|60:8|10:60,1,150,6|0,3:2|3:0,0:0:0:0:
38,134,169604,1,0,0:0:0:0:
38,134,169747,2,0,L|28:224,1,75,0|0,3:0|0:0,0:0:0:0:
76,286,170033,2,0,L|86:376,1,75,0|0,3:0|0:0,0:0:0:0:
173,369,170318,6,0,P|232:369|265:352,1,75,0|0,3:0|0:0,0:0:0:0:
295,287,170604,2,0,P|331:277|368:281,1,75,0|0,3:0|0:0,0:0:0:0:
458,281,170890,2,0,L|448:371,2,75,0|0|2,3:0|0:0|3:2,0:0:0:0:
504,203,171318,1,0,0:0:0:0:
476,117,171461,6,0,P|416:84|358:86,1,112.5,6|0,3:2|0:0,0:0:0:0:
330,98,171747,2,0,P|324:155|328:197,1,75,8|0,0:0|0:0,0:0:0:0:
301,260,172033,1,0,3:0:0:0:
301,260,172176,1,8,0:0:0:0:
231,315,172318,1,0,3:0:0:0:
231,315,172461,1,8,0:0:0:0:
141,304,172604,5,2,3:2:0:0:
0,35,173747,6,0,P|49:21|175:46,1,150,6|8,3:2|0:0,0:0:0:0:
214,91,174176,1,0,3:0:0:0:
142,144,174318,2,0,P|133:214|175:280,1,150,2|8,0:0|0:0,0:0:0:0:
338,352,174890,6,0,B|426:334|415:371|510:348,1,150,2|8,3:2|0:0,0:0:0:0:
478,263,175318,1,0,3:0:0:0:
417,196,175461,2,0,L|327:186,1,75,2|0,0:0|3:0,0:0:0:0:
281,120,175747,2,0,L|191:130,1,75,10|0,0:0|0:0,0:0:0:0:
166,209,176033,6,0,P|187:270|161:360,1,150,2|10,3:2|0:0,0:0:0:0:
78,367,176461,1,2,3:2:0:0:
6,312,176604,2,0,L|17:224,1,75,2|0,0:0|3:0,0:0:0:0:
57,157,176890,2,0,L|46:69,1,75,8|0,0:0|0:0,0:0:0:0:
114,20,177176,6,0,P|189:6|261:48,1,150,2|8,3:2|0:0,0:0:0:0:
300,114,177604,1,0,3:0:0:0:
236,177,177747,2,0,L|224:268,1,75,2|0,0:0|0:0,0:0:0:0:
274,328,178033,2,0,L|332:337,3,37.5,8|8|8|8,0:0|0:0|0:0|0:0,0:0:0:0:
334,372,178318,6,0,P|409:370|483:305,1,150,6|8,3:2|0:0,0:0:0:0:
482,238,178747,1,2,3:2:0:0:
439,158,178890,2,0,L|483:-10,1,150,2|8,0:0|0:0,0:0:0:0:
312,85,179461,6,0,B|239:58|236:109|136:75,1,150,2|8,3:2|0:0,0:0:0:0:
85,37,179890,1,2,3:2:0:0:
15,94,180033,2,0,L|19:181,1,75,2|0,0:0|3:0,0:0:0:0:
56,250,180318,2,0,P|96:254|141:251,1,75,8|0,0:0|0:0,0:0:0:0:
201,195,180604,6,0,P|288:194|348:235,1,150,2|8,3:2|0:0,0:0:0:0:
415,175,181033,1,2,3:2:0:0:
490,223,181176,2,0,P|497:284|492:326,1,75,2|0,0:0|3:0,0:0:0:0:
434,363,181461,2,0,L|339:357,1,75,8|0,0:0|0:0,0:0:0:0:
326,325,181676,1,8,0:0:0:0:
326,325,181747,6,0,B|241:314|247:357|156:353,1,150,6|8,3:2|0:0,0:0:0:0:
93,329,182176,2,0,L|76:386,2,37.5,8|8|6,0:0|0:0|3:0,0:0:0:0:
23,271,182461,1,8,0:0:0:0:
41,182,182604,2,0,L|32:115,3,37.5,8|8|8|8,0:0|0:0|0:0|0:0,0:0:0:0:
62,108,182890,6,0,L|232:82,1,150,6|8,3:2|0:0,0:0:0:0:
273,20,183318,1,0,3:0:0:0:
332,87,183461,2,0,L|480:109,1,150,2|8,0:2|0:0,0:0:0:0:
327,206,184033,6,0,P|245:197|178:228,1,150,2|8,3:2|0:0,0:0:0:0:
120,286,184461,1,0,3:0:0:0:
173,358,184604,2,0,P|235:374|270:369,1,75,2|0,0:0|3:0,0:0:0:0:
335,363,184890,2,0,P|350:325|358:273,1,75,8|0,0:0|0:0,0:0:0:0:
327,206,185176,6,0,B|307:135|337:124|313:51,1,150,2|10,3:2|0:0,0:0:0:0:
393,14,185604,1,2,3:2:0:0:
481,32,185747,2,0,P|486:86|484:124,1,75,2|0,0:0|3:0,0:0:0:0:
425,175,186033,1,10,0:0:0:0:
251,127,186318,6,0,L|92:106,1,150,2|8,3:2|0:0,0:0:0:0:
25,156,186747,1,0,3:0:0:0:
77,228,186890,2,0,L|80:310,1,75,2|0,3:2|0:0,0:0:0:0:
148,362,187176,2,0,L|207:359,3,37.5,8|0|8|8,0:0|0:0|0:0|0:0,0:0:0:0:
222,334,187461,6,0,L|235:158,1,150,6|8,3:2|0:0,0:0:0:0:
169,119,187890,1,0,3:0:0:0:
224,47,188033,2,0,P|320:34|372:62,1,150,2|8,0:0|0:0,0:0:0:0:
468,203,188604,6,0,L|477:360,1,150,6|8,3:2|0:0,0:0:0:0:
387,368,189033,1,0,3:0:0:0:
315,313,189176,2,0,P|253:307|150:329,1,150,2|10,3:2|0:0,0:0:0:0:
20,218,189747,6,0,L|37:63,1,150,2|8,3:2|0:0,0:0:0:0:
114,22,190176,1,0,3:0:0:0:
193,62,190318,1,2,3:2:0:0:
193,62,190461,1,8,0:0:0:0:
276,27,190604,1,8,0:0:0:0:
276,27,190747,1,8,0:0:0:0:
