osu file format v14

[General]
AudioFilename: audio.mp3
AudioLeadIn: 0
PreviewTime: 154818
Countdown: 0
SampleSet: Normal
StackLeniency: 0.7
Mode: 1
LetterboxInBreaks: 0
WidescreenStoryboard: 1

[Editor]
Bookmarks: 10318,28604,37747,46890,51461,56033,63247,74318,83461,92604,97176,101747
DistanceSpacing: 1.2
BeatDivisor: 4
GridSize: 4
TimelineZoom: 2.1

[Metadata]
Title:Mushikui Psychedelism
TitleUnicode:ムシクイサイケデリズム
Artist:Zips
ArtistUnicode:じっぷす
Creator:[-E S I A-]
Version:Gomen ne
Source:ヘイセイプロジェクト
Tags:bug-eaten saikederizumu vocaloid vocaloid2 kagamine rin len 鏡音リン・レン jippusu pusu かいりきベア kairiki bear heisei project japanese rock j-rock jrock Saikede Rhythm E_S_I_A [-E_S_I_A-] ESIA [-ESIA-]
BeatmapID:4486712
BeatmapSetID:2132863

[Difficulty]
HPDrainRate:6
CircleSize:2
OverallDifficulty:6.5
ApproachRate:10
SliderMultiplier:1.4
SliderTickRate:1

[Events]
//Background and Video events
0,0,"zips.png",0,70
//Break Periods
2,147461,154890
//Storyboard Layer 0 (Background)
//Storyboard Layer 1 (Fail)
//Storyboard Layer 2 (Pass)
//Storyboard Layer 3 (Foreground)
//Storyboard Layer 4 (Overlay)
//Storyboard Sound Samples

[TimingPoints]
1176,285.714285714286,4,1,0,50,1,0
1176,-142.857142857143,4,1,0,50,0,0
10247,-100,4,1,0,90,0,0
28533,-125,4,1,0,70,0,0
37676,-100,4,1,0,80,0,0
45885,-101.010101010101,4,1,0,80,0,0
46028,-103.860494583675,4,1,0,80,0,0
46171,-106.876429472244,4,1,0,80,0,0
46242,-108.439875511023,4,1,0,80,0,0
46313,-110.049742483603,4,1,0,80,0,0
46456,-113.441707978355,4,1,0,80,0,0
46599,-117.049418264391,4,1,0,80,0,0
46742,-120.894133007725,4,1,0,80,0,0
46885,-125,4,1,0,80,0,0
47033,-125,4,1,0,70,0,0
50885,-121.951219512195,4,1,0,70,0,0
50980,-117.654331162944,4,1,0,70,0,0
51075,-113.649934317901,4,1,0,70,0,0
51171,-109.871079468924,4,1,0,70,0,0
51266,-106.371087928465,4,1,0,70,0,0
51361,-103.08719985557,4,1,0,70,0,0
51414,-100,4,1,0,80,0,0
53676,-100,4,1,0,90,0,0
56033,-100,4,1,0,100,0,1
63961,-90.9090909090909,4,1,0,100,0,1
64313,-92.5925925925926,4,1,0,100,0,1
64528,-94.3437719915552,4,1,0,100,0,1
64599,-94.9367088607595,4,1,0,100,0,1
64742,-96.1538461538461,4,1,0,100,0,1
64885,-97.4025974025974,4,1,0,100,0,1
64956,-98.0347349177331,4,1,0,100,0,1
65028,-98.6842105263158,4,1,0,100,0,1
65171,-100,4,1,0,100,0,1
68533,-90.9090909090909,4,1,0,100,0,1
68747,-100,4,1,0,100,0,1
69104,-83.3333333333333,4,1,0,100,0,1
69247,-100,4,1,0,100,0,1
69426,-101.010101010101,4,1,0,100,0,1
69497,-102.040816326531,4,1,0,100,0,1
69568,-103.092783505155,4,1,0,100,0,1
69640,-104.166666666667,4,1,0,100,0,1
69711,-105.263157894737,4,1,0,100,0,1
71676,-95.2380952380952,4,1,0,100,0,1
71961,-86.9565217391304,4,1,0,100,0,1
72247,-98.0392156862745,4,1,0,100,0,1
72599,-95.2380952380952,4,1,0,100,0,1
72742,-93.0232558139535,4,1,0,100,0,1
72885,-90.9090909090909,4,1,0,100,0,1
73028,-88.8888888888889,4,1,0,100,0,1
73176,-86.9565217391304,4,1,0,100,0,0
74176,-125,4,1,0,70,0,0
83390,-100,4,1,0,80,0,0
91599,-101.010101010101,4,1,0,80,0,0
91742,-103.860494583675,4,1,0,80,0,0
91885,-106.876429472244,4,1,0,80,0,0
91956,-108.439875511023,4,1,0,80,0,0
92028,-110.0727580931,4,1,0,80,0,0
92171,-113.466164389779,4,1,0,80,0,0
92313,-117.049418264391,4,1,0,80,0,0
92456,-120.894133007725,4,1,0,80,0,0
92599,-125,4,1,0,80,0,0
92747,-125,4,1,0,70,0,0
96599,-121.951219512195,4,1,0,70,0,0
96694,-117.661578969021,4,1,0,70,0,0
96790,-113.622819911803,4,1,0,70,0,0
96885,-109.89010989011,4,1,0,70,0,0
96980,-106.394851382017,4,1,0,70,0,0
97075,-103.115085087972,4,1,0,70,0,0
97128,-100,4,1,0,80,0,0
99390,-100,4,1,0,90,0,0
101747,-100,4,1,0,100,0,1
109676,-90.9090909090909,4,1,0,100,0,1
110028,-92.5925925925926,4,1,0,100,0,1
110242,-94.3375456827088,4,1,0,100,0,1
110313,-94.9311001816651,4,1,0,100,0,1
110456,-96.1495310326258,4,1,0,100,0,1
110599,-97.3996454061918,4,1,0,100,0,1
110671,-98.0414588386034,4,1,0,100,0,1
110742,-98.6826954078578,4,1,0,100,0,1
110885,-100,4,1,0,100,0,1
114247,-90.9090909090909,4,1,0,100,0,1
114461,-100,4,1,0,100,0,1
114818,-83.3333333333333,4,1,0,100,0,1
114961,-100,4,1,0,100,0,1
115171,-101.010101010101,4,1,0,100,0,1
115242,-102.037163008843,4,1,0,100,0,1
115313,-103.085325713459,4,1,0,100,0,1
115385,-104.170474067035,4,1,0,100,0,1
115456,-105.263157894737,4,1,0,100,0,1
117390,-95.2380952380954,4,1,0,100,0,1
117676,-86.9565217391304,4,1,0,100,0,1
117961,-98.0392156862745,4,1,0,100,0,1
118313,-95.2380952380952,4,1,0,100,0,1
118456,-93.0232558139535,4,1,0,100,0,1
118599,-90.9090909090909,4,1,0,100,0,1
118742,-88.8888888888889,4,1,0,100,0,1
118890,-86.9565217391304,4,1,0,100,0,0
120033,-100,4,1,0,100,0,1
128028,-90.9090909090909,4,1,0,100,0,1
128171,-91.9549477071601,4,1,0,100,0,1
128313,-93.017578125,4,1,0,100,0,1
128385,-93.565815324165,4,1,0,100,0,1
128456,-94.1128036228901,4,1,0,100,0,1
128528,-94.6740660979044,4,1,0,100,0,1
128599,-95.2341276453924,4,1,0,100,0,1
128671,-95.8088851634535,4,1,0,100,0,1
128742,-96.3824943081204,4,1,0,100,0,1
128813,-96.9630132337971,4,1,0,100,0,1
128885,-97.5588938204165,4,1,0,100,0,1
128956,-98.1537140403607,4,1,0,100,0,1
129028,-98.7643653331029,4,1,0,100,0,1
129171,-100,4,1,0,100,0,1
132533,-90.9090909090909,4,1,0,100,0,1
132676,-100,4,1,0,100,0,1
132961,-83.3333333333333,4,1,0,100,0,1
133176,-100,4,1,0,100,0,1
133313,-95.2380952380952,4,1,0,100,0,1
133385,-96.0053709298422,4,1,0,100,0,1
133456,-96.7741935483871,4,1,0,100,0,1
133599,-98.3606557377049,4,1,0,100,0,1
133742,-100,4,1,0,100,0,1
135676,-90.9090909090909,4,1,0,100,0,1
135961,-83.3333333333333,4,1,0,100,0,1
136176,-100,4,1,0,100,0,1
137104,-90.9090909090909,4,1,0,100,0,1
137247,-100,4,1,0,100,0,1
137604,-83.3333333333333,4,1,0,100,0,0
138176,-111.111111111111,4,1,0,80,0,0
142601,-108.695652173913,4,1,0,80,0,0
142673,-106.367152633145,4,1,0,80,0,0
142744,-104.166666666667,4,1,0,80,0,0
142887,-100,4,1,0,80,0,0
145104,-100,4,1,0,90,0,0
145171,-98.0392156862745,4,1,0,90,0,0
145313,-97.0923312361843,4,1,0,90,0,0
145456,-96.1570846384426,4,1,0,90,0,0
145599,-95.2396837575475,4,1,0,90,0,0
145671,-94.784369708841,4,1,0,90,0,0
145742,-94.3396226415094,4,1,0,90,0,0
145885,-93.4564142852466,4,1,0,90,0,0
146028,-92.5895897519053,4,1,0,90,0,0
146099,-92.1651547922652,4,1,0,90,0,0
146171,-91.7386973426304,4,1,0,90,0,0
146313,-90.9090909090909,4,1,0,90,0,0
147461,-142.857142857143,4,1,0,20,0,0
154890,-100,4,1,0,90,0,0
155747,-100,4,1,0,100,0,1
163390,-90.9090909090909,4,1,0,100,0,1
163742,-92.5925925925926,4,1,0,100,0,1
163956,-94.3375456827088,4,1,0,100,0,1
164028,-94.9395134488412,4,1,0,100,0,1
164171,-96.1581616624029,4,1,0,100,0,1
164313,-97.3996454061918,4,1,0,100,0,1
164385,-98.0414588386034,4,1,0,100,0,1
164456,-98.6826954078578,4,1,0,100,0,1
164599,-100,4,1,0,100,0,1
167961,-90.9090909090909,4,1,0,100,0,1
168176,-100,4,1,0,100,0,1
168533,-83.3333333333333,4,1,0,100,0,1
168676,-100,4,1,0,100,0,1
168885,-101.010101010101,4,1,0,100,0,1
168956,-102.033535497681,4,1,0,100,0,1
169028,-103.092783505155,4,1,0,100,0,1
169099,-104.159079321145,4,1,0,100,0,1
169171,-105.263157894737,4,1,0,100,0,1
171104,-95.2380952380954,4,1,0,100,0,1
171390,-86.9565217391304,4,1,0,100,0,1
171676,-98.0392156862745,4,1,0,100,0,1
172028,-95.2380952380952,4,1,0,100,0,1
172171,-93.0194672965708,4,1,0,100,0,1
172313,-90.9163283178091,4,1,0,100,0,1
172456,-88.8923484081887,4,1,0,100,0,1
172604,-86.9565217391304,4,1,0,100,0,0
173604,-100,4,1,0,90,0,0

[HitObjects]
104,200,10318,5,4,0:0:0:0:
282,248,10604,1,8,0:0:0:0:
210,238,10747,1,0,0:0:0:0:
255,233,10818,1,0,0:0:0:0:
177,226,10890,1,8,0:0:0:0:
332,203,10961,1,0,0:0:0:0:
220,262,11033,1,0,0:0:0:0:
177,226,11176,1,8,0:0:0:0:
215,262,11318,1,8,0:0:0:0:
185,223,11390,1,8,0:0:0:0:
198,243,11461,1,0,0:0:0:0:
198,243,11604,1,0,0:0:0:0:
180,241,11747,1,8,0:0:0:0:
161,231,11890,1,0,0:0:0:0:
321,195,11961,1,0,0:0:0:0:
266,220,12033,1,8,0:0:0:0:
266,220,12104,1,8,0:0:0:0:
252,199,12176,1,0,0:0:0:0:
254,199,12318,1,8,0:0:0:0:
194,221,12461,1,0,0:0:0:0:
321,195,12533,1,0,0:0:0:0:
139,193,12604,1,8,0:0:0:0:
259,209,12747,1,0,0:0:0:0:
282,230,12890,1,8,0:0:0:0:
324,205,12961,1,0,0:0:0:0:
282,230,13033,1,8,0:0:0:0:
137,264,13104,1,8,0:0:0:0:
214,193,13176,1,0,0:0:0:0:
137,264,13318,1,0,0:0:0:0:
330,209,13461,1,8,0:0:0:0:
137,264,13533,1,8,0:0:0:0:
222,246,13604,1,0,0:0:0:0:
150,222,13747,1,8,0:0:0:0:
150,222,13818,1,0,0:0:0:0:
194,246,13890,1,0,0:0:0:0:
194,246,13961,1,0,0:0:0:0:
188,229,14033,1,8,0:0:0:0:
490,115,14176,1,0,0:0:0:0:
229,187,14318,1,8,0:0:0:0:
302,150,14390,1,8,0:0:0:0:
208,186,14461,1,0,0:0:0:0:
261,278,14604,1,12,0:0:0:0:
294,193,14890,1,4,0:0:0:0:
282,248,15176,1,8,0:0:0:0:
210,238,15318,1,0,0:0:0:0:
185,223,15390,1,0,0:0:0:0:
177,226,15461,1,8,0:0:0:0:
323,240,15533,1,0,0:0:0:0:
220,262,15604,1,0,0:0:0:0:
177,226,15747,1,8,0:0:0:0:
215,262,15890,1,8,0:0:0:0:
198,243,15961,1,8,0:0:0:0:
198,243,16033,1,0,0:0:0:0:
198,243,16176,1,0,0:0:0:0:
180,241,16318,1,8,0:0:0:0:
161,231,16461,1,0,0:0:0:0:
161,231,16533,1,0,0:0:0:0:
266,220,16604,1,8,0:0:0:0:
266,220,16676,1,8,0:0:0:0:
161,231,16747,1,0,0:0:0:0:
139,193,16890,1,8,0:0:0:0:
317,165,17033,1,0,0:0:0:0:
316,193,17104,1,0,0:0:0:0:
326,157,17176,1,8,0:0:0:0:
222,189,17318,1,0,0:0:0:0:
246,173,17461,1,8,0:0:0:0:
249,176,17533,1,0,0:0:0:0:
246,173,17604,1,8,0:0:0:0:
292,229,17676,1,0,0:0:0:0:
244,200,17747,1,8,0:0:0:0:
183,247,17890,1,0,0:0:0:0:
292,229,18033,1,8,0:0:0:0:
253,199,18104,1,0,0:0:0:0:
197,263,18176,1,0,0:0:0:0:
178,259,18318,1,8,0:0:0:0:
229,213,18390,1,8,0:0:0:0:
178,259,18461,1,0,0:0:0:0:
294,236,18533,1,0,0:0:0:0:
207,204,18604,1,8,0:0:0:0:
212,259,18747,1,0,0:0:0:0:
213,164,18818,1,8,0:0:0:0:
178,259,18890,1,0,0:0:0:0:
218,255,19033,1,0,0:0:0:0:
227,198,19104,1,0,0:0:0:0:
227,198,19176,1,8,0:0:0:0:
315,242,19247,1,0,0:0:0:0:
227,198,19318,1,8,0:0:0:0:
317,195,19461,1,4,0:0:0:0:
282,248,19747,1,8,0:0:0:0:
210,238,19890,1,0,0:0:0:0:
185,223,19961,1,0,0:0:0:0:
177,226,20033,1,8,0:0:0:0:
191,184,20104,1,0,0:0:0:0:
220,262,20176,1,0,0:0:0:0:
177,226,20318,1,8,0:0:0:0:
215,262,20461,1,8,0:0:0:0:
198,243,20533,1,8,0:0:0:0:
198,243,20604,1,0,0:0:0:0:
198,243,20747,1,0,0:0:0:0:
180,241,20890,1,8,0:0:0:0:
161,231,21033,1,0,0:0:0:0:
161,231,21104,1,0,0:0:0:0:
266,220,21176,1,8,0:0:0:0:
264,200,21247,1,8,0:0:0:0:
161,231,21318,1,0,0:0:0:0:
139,193,21461,1,8,0:0:0:0:
194,221,21604,1,0,0:0:0:0:
313,148,21676,1,0,0:0:0:0:
139,193,21747,1,8,0:0:0:0:
313,148,21890,1,0,0:0:0:0:
282,230,22033,1,8,0:0:0:0:
137,264,22104,1,0,0:0:0:0:
282,230,22176,1,8,0:0:0:0:
358,205,22247,1,8,0:0:0:0:
322,232,22318,1,0,0:0:0:0:
137,264,22461,1,0,0:0:0:0:
330,209,22604,1,8,0:0:0:0:
307,189,22676,1,8,0:0:0:0:
222,246,22747,1,0,0:0:0:0:
150,222,22890,1,8,0:0:0:0:
150,222,22961,1,0,0:0:0:0:
194,246,23033,1,0,0:0:0:0:
194,246,23104,1,0,0:0:0:0:
188,229,23176,1,8,0:0:0:0:
229,187,23318,1,0,0:0:0:0:
490,115,23461,1,8,0:0:0:0:
302,150,23533,1,8,0:0:0:0:
214,187,23604,1,0,0:0:0:0:
261,278,23747,1,12,0:0:0:0:
294,193,24033,1,4,0:0:0:0:
282,248,24318,1,8,0:0:0:0:
210,238,24461,1,0,0:0:0:0:
185,223,24533,1,0,0:0:0:0:
177,226,24604,1,8,0:0:0:0:
248,213,24676,1,0,0:0:0:0:
220,262,24747,1,0,0:0:0:0:
177,226,24890,1,8,0:0:0:0:
215,262,25033,1,8,0:0:0:0:
198,243,25104,1,8,0:0:0:0:
198,243,25176,1,0,0:0:0:0:
198,243,25318,1,0,0:0:0:0:
180,241,25461,1,8,0:0:0:0:
161,231,25604,1,0,0:0:0:0:
161,231,25676,1,0,0:0:0:0:
266,220,25747,1,8,0:0:0:0:
268,186,25818,1,8,0:0:0:0:
161,231,25890,1,0,0:0:0:0:
139,193,26033,1,8,0:0:0:0:
363,204,26176,1,0,0:0:0:0:
363,204,26247,1,0,0:0:0:0:
338,189,26318,1,8,0:0:0:0:
316,213,26461,1,0,0:0:0:0:
249,215,26604,1,8,0:0:0:0:
272,178,26676,1,0,0:0:0:0:
249,215,26747,1,8,0:0:0:0:
331,208,26818,1,8,0:0:0:0:
202,198,26890,1,0,0:0:0:0:
249,215,27033,1,8,0:0:0:0:
249,215,27176,1,8,0:0:0:0:
272,229,27318,1,0,0:0:0:0:
306,164,28604,1,0,0:0:0:0:
306,164,28890,1,8,0:0:0:0:
306,164,29176,1,0,0:0:0:0:
306,164,29461,1,8,0:0:0:0:
306,164,29747,1,0,0:0:0:0:
306,164,30033,1,0,0:0:0:0:
306,164,30318,1,0,0:0:0:0:
306,164,30604,1,0,0:0:0:0:
306,164,30890,1,8,0:0:0:0:
306,164,31176,1,0,0:0:0:0:
306,164,31461,1,8,0:0:0:0:
306,164,31747,1,0,0:0:0:0:
297,155,31890,1,8,0:0:0:0:
306,164,32033,1,0,0:0:0:0:
306,164,32318,1,8,0:0:0:0:
343,246,32604,1,0,0:0:0:0:
263,220,32747,1,0,0:0:0:0:
343,246,32890,1,8,0:0:0:0:
343,246,33176,1,0,0:0:0:0:
343,246,33461,1,8,0:0:0:0:
343,246,33747,1,0,0:0:0:0:
343,246,34033,1,8,0:0:0:0:
343,246,34318,1,0,0:0:0:0:
343,246,34604,1,0,0:0:0:0:
249,255,34890,1,0,0:0:0:0:
314,204,35033,1,8,0:0:0:0:
314,204,35104,1,8,0:0:0:0:
151,191,35176,1,0,0:0:0:0:
151,191,35318,1,8,0:0:0:0:
340,182,35461,1,0,0:0:0:0:
343,246,35747,1,0,0:0:0:0:
343,246,36033,1,8,0:0:0:0:
389,246,36318,1,0,0:0:0:0:
329,212,36461,1,8,0:0:0:0:
343,246,36604,1,0,0:0:0:0:
315,180,36890,1,8,0:0:0:0:
186,130,37033,1,0,0:0:0:0:
343,246,37318,1,0,0:0:0:0:
343,246,37461,1,8,0:0:0:0:
266,217,37747,1,4,0:0:0:0:
246,163,38033,1,8,0:0:0:0:
230,192,38176,1,0,0:0:0:0:
246,163,38247,1,0,0:0:0:0:
371,204,38318,1,0,0:0:0:0:
279,215,38461,1,0,0:0:0:0:
256,163,38604,1,8,0:0:0:0:
150,199,38747,1,8,0:0:0:0:
246,163,38818,1,8,0:0:0:0:
174,198,38890,1,0,0:0:0:0:
162,211,39033,1,0,0:0:0:0:
205,218,39176,1,8,0:0:0:0:
179,205,39318,1,0,0:0:0:0:
238,182,39461,1,8,0:0:0:0:
247,198,39533,1,0,0:0:0:0:
267,158,39604,1,8,0:0:0:0:
234,211,39676,1,8,0:0:0:0:
355,226,39747,1,0,0:0:0:0:
186,205,39890,1,8,0:0:0:0:
309,193,40033,1,0,0:0:0:0:
256,209,40104,1,0,0:0:0:0:
256,209,40176,1,0,0:0:0:0:
263,263,40318,1,8,0:0:0:0:
300,150,40461,1,0,0:0:0:0:
351,170,40604,1,8,0:0:0:0:
215,252,40676,1,8,0:0:0:0:
288,168,40747,1,0,0:0:0:0:
277,193,40818,1,0,0:0:0:0:
248,220,40890,1,8,0:0:0:0:
324,170,41033,1,8,0:0:0:0:
364,150,41104,1,8,0:0:0:0:
165,198,41176,1,0,0:0:0:0:
356,250,41318,1,0,0:0:0:0:
351,170,41461,1,8,0:0:0:0:
254,201,41604,1,0,0:0:0:0:
240,220,41676,1,8,0:0:0:0:
284,192,41747,1,0,0:0:0:0:
282,225,41890,1,0,0:0:0:0:
229,269,42033,1,8,0:0:0:0:
273,222,42104,1,8,0:0:0:0:
273,222,42176,1,8,0:0:0:0:
184,189,42318,1,4,0:0:0:0:
212,185,42604,1,8,0:0:0:0:
243,196,42747,1,0,0:0:0:0:
309,167,42818,1,0,0:0:0:0:
309,167,42890,1,0,0:0:0:0:
262,199,43033,1,0,0:0:0:0:
284,205,43176,1,8,0:0:0:0:
274,183,43318,1,8,0:0:0:0:
284,205,43390,1,8,0:0:0:0:
249,150,43461,1,0,0:0:0:0:
214,196,43604,1,0,0:0:0:0:
243,196,43747,1,8,0:0:0:0:
238,191,43890,1,0,0:0:0:0:
228,204,44033,1,8,0:0:0:0:
228,204,44104,1,8,0:0:0:0:
242,185,44176,1,0,0:0:0:0:
242,185,44247,1,0,0:0:0:0:
228,204,44318,1,8,0:0:0:0:
284,133,44461,1,0,0:0:0:0:
323,180,44604,1,8,0:0:0:0:
323,180,44676,1,8,0:0:0:0:
289,174,44747,1,0,0:0:0:0:
278,214,44890,1,8,0:0:0:0:
214,269,45033,1,0,0:0:0:0:
214,269,45104,1,0,0:0:0:0:
425,177,45176,1,8,0:0:0:0:
349,181,45247,1,0,0:0:0:0:
250,251,45318,1,0,0:0:0:0:
272,232,45461,1,8,0:0:0:0:
260,208,45604,1,0,0:0:0:0:
260,208,45676,1,0,0:0:0:0:
307,213,45747,1,8,0:0:0:0:
239,187,45890,1,0,0:0:0:0:
301,218,46033,1,8,0:0:0:0:
274,179,46176,1,0,0:0:0:0:
224,240,46247,1,8,0:0:0:0:
351,190,46318,1,0,0:0:0:0:
258,243,46461,1,8,0:0:0:0:
258,243,46604,1,8,0:0:0:0:
258,243,46747,1,8,0:0:0:0:
199,222,46890,5,4,0:0:0:0:
91,264,47176,1,8,0:0:0:0:
91,264,47461,1,0,0:0:0:0:
183,185,47604,1,8,0:0:0:0:
91,264,47747,1,0,0:0:0:0:
243,203,47890,1,0,0:0:0:0:
243,203,48033,1,8,0:0:0:0:
243,203,48318,1,0,0:0:0:0:
238,177,48604,1,8,0:0:0:0:
243,203,48747,1,8,0:0:0:0:
243,203,48890,1,0,0:0:0:0:
243,203,49033,1,0,0:0:0:0:
243,203,49176,1,8,0:0:0:0:
243,203,49461,1,0,0:0:0:0:
243,203,49747,1,8,0:0:0:0:
243,203,49890,1,0,0:0:0:0:
165,190,50033,1,0,0:0:0:0:
243,203,50176,1,0,0:0:0:0:
243,203,50318,1,8,0:0:0:0:
243,203,50604,1,0,0:0:0:0:
223,158,50890,1,8,0:0:0:0:
301,174,50985,1,8,0:0:0:0:
88,196,51080,1,0,0:0:0:0:
187,195,51176,1,8,0:0:0:0:
284,161,51271,1,0,0:0:0:0:
284,161,51366,1,0,0:0:0:0:
243,203,51461,1,12,0:0:0:0:
327,184,51747,1,8,0:0:0:0:
252,169,51890,1,0,0:0:0:0:
395,208,51961,1,0,0:0:0:0:
395,208,52033,1,8,0:0:0:0:
395,208,52176,1,0,0:0:0:0:
268,188,52318,1,8,0:0:0:0:
266,189,52461,1,8,0:0:0:0:
279,178,52533,1,8,0:0:0:0:
230,205,52604,1,0,0:0:0:0:
268,185,52747,1,0,0:0:0:0:
250,263,52890,1,8,0:0:0:0:
177,247,53033,1,0,0:0:0:0:
298,229,53104,1,0,0:0:0:0:
298,229,53176,1,0,0:0:0:0:
298,229,53318,1,0,0:0:0:0:
277,169,53461,5,8,0:0:0:0:
238,191,53604,5,8,0:0:0:0:
279,126,53747,5,4,0:0:0:0:
341,156,54033,1,8,0:0:0:0:
336,185,54176,1,0,0:0:0:0:
267,221,54318,1,8,0:0:0:0:
312,189,54461,1,0,0:0:0:0:
312,189,54604,1,8,0:0:0:0:
284,201,54676,1,8,0:0:0:0:
271,226,54747,1,0,0:0:0:0:
296,246,54890,1,12,0:0:0:0:
365,179,56033,1,12,0:0:0:0:
247,228,56176,1,0,0:0:0:0:
335,158,56318,1,8,0:0:0:0:
219,201,56461,1,0,0:0:0:0:
335,158,56533,1,0,0:0:0:0:
219,201,56604,1,8,0:0:0:0:
251,192,56676,1,0,0:0:0:0:
279,187,56747,1,0,0:0:0:0:
328,176,56890,1,8,0:0:0:0:
267,170,57033,1,0,0:0:0:0:
150,174,57104,1,0,0:0:0:0:
267,170,57176,1,8,0:0:0:0:
256,192,57318,1,0,0:0:0:0:
175,173,57461,1,8,0:0:0:0:
224,210,57604,1,0,0:0:0:0:
224,210,57676,1,0,0:0:0:0:
224,210,57747,1,8,0:0:0:0:
249,214,57818,1,8,0:0:0:0:
224,210,57890,1,0,0:0:0:0:
314,191,58033,1,8,0:0:0:0:
193,149,58176,1,0,0:0:0:0:
270,189,58247,1,0,0:0:0:0:
284,191,58318,1,0,0:0:0:0:
279,230,58461,1,8,0:0:0:0:
248,179,58604,1,0,0:0:0:0:
281,174,58676,1,0,0:0:0:0:
226,163,58747,1,8,0:0:0:0:
392,192,58818,1,0,0:0:0:0:
267,203,58890,1,8,0:0:0:0:
254,204,58961,1,8,0:0:0:0:
225,210,59033,1,0,0:0:0:0:
484,173,59176,1,8,0:0:0:0:
212,203,59318,1,0,0:0:0:0:
269,198,59390,1,0,0:0:0:0:
301,206,59461,1,8,0:0:0:0:
351,213,59533,1,0,0:0:0:0:
237,200,59604,1,0,0:0:0:0:
255,185,59747,1,8,0:0:0:0:
284,233,59890,1,0,0:0:0:0:
293,189,60033,1,8,0:0:0:0:
284,233,60104,1,8,0:0:0:0:
408,186,60176,1,0,0:0:0:0:
281,251,60247,1,0,0:0:0:0:
216,190,60318,1,8,0:0:0:0:
279,206,60461,1,8,0:0:0:0:
349,185,60533,1,8,0:0:0:0:
255,210,60604,1,0,0:0:0:0:
246,187,60747,1,0,0:0:0:0:
351,174,60890,1,8,0:0:0:0:
244,187,61033,1,0,0:0:0:0:
244,187,61104,1,0,0:0:0:0:
244,187,61176,1,0,0:0:0:0:
345,174,61318,1,8,0:0:0:0:
167,133,61461,1,0,0:0:0:0:
351,174,61604,1,8,0:0:0:0:
351,174,61676,1,8,0:0:0:0:
186,131,61747,1,0,0:0:0:0:
222,199,61818,1,0,0:0:0:0:
167,133,61890,1,0,0:0:0:0:
188,174,62033,1,8,0:0:0:0:
160,197,62176,1,0,0:0:0:0:
194,192,62247,1,0,0:0:0:0:
188,174,62318,1,8,0:0:0:0:
188,174,62390,1,8,0:0:0:0:
160,197,62461,1,0,0:0:0:0:
284,215,62533,1,0,0:0:0:0:
245,206,62604,1,8,0:0:0:0:
160,196,62747,1,0,0:0:0:0:
296,208,62818,1,0,0:0:0:0:
160,196,62890,1,0,0:0:0:0:
160,196,63033,1,0,0:0:0:0:
245,206,63176,1,8,0:0:0:0:
225,201,63318,1,0,0:0:0:0:
296,208,63390,1,8,0:0:0:0:
335,180,63461,1,0,0:0:0:0:
288,206,63604,1,0,0:0:0:0:
373,206,63747,1,8,0:0:0:0:
259,176,64033,1,12,0:0:0:0:
293,201,64318,1,8,0:0:0:0:
331,199,64533,1,8,0:0:0:0:
317,308,64604,1,0,0:0:0:0:
282,186,64747,1,8,0:0:0:0:
201,200,64890,1,0,0:0:0:0:
282,186,64961,1,0,0:0:0:0:
283,186,65033,1,0,0:0:0:0:
316,155,65176,1,12,0:0:0:0:
283,158,65318,1,0,0:0:0:0:
335,158,65461,1,8,0:0:0:0:
328,176,65604,1,8,0:0:0:0:
335,158,65676,1,8,0:0:0:0:
335,158,65747,1,0,0:0:0:0:
293,158,65818,1,0,0:0:0:0:
279,187,65890,1,0,0:0:0:0:
328,176,66033,1,8,0:0:0:0:
219,234,66176,1,0,0:0:0:0:
267,170,66318,1,8,0:0:0:0:
237,179,66390,1,8,0:0:0:0:
256,192,66461,1,0,0:0:0:0:
175,173,66604,1,8,0:0:0:0:
293,158,66747,1,0,0:0:0:0:
293,158,66818,1,0,0:0:0:0:
331,159,66890,1,8,0:0:0:0:
322,159,66961,1,0,0:0:0:0:
224,210,67033,1,0,0:0:0:0:
314,191,67176,1,8,0:0:0:0:
203,189,67318,1,0,0:0:0:0:
193,149,67390,1,0,0:0:0:0:
241,170,67461,1,0,0:0:0:0:
231,174,67604,1,8,0:0:0:0:
281,174,67747,1,0,0:0:0:0:
286,163,67818,1,0,0:0:0:0:
226,163,67890,1,8,0:0:0:0:
314,163,67961,1,0,0:0:0:0:
231,174,68033,1,8,0:0:0:0:
263,179,68104,1,8,0:0:0:0:
225,210,68176,1,0,0:0:0:0:
484,173,68318,1,8,0:0:0:0:
255,185,68461,1,8,0:0:0:0:
212,203,68604,1,4,0:0:0:0:
237,200,68890,1,8,0:0:0:0:
252,161,69033,1,0,0:0:0:0:
232,189,69176,1,12,0:0:0:0:
252,161,69318,1,0,0:0:0:0:
332,168,69461,1,8,0:0:0:0:
332,168,69533,1,8,0:0:0:0:
332,168,69604,1,0,0:0:0:0:
332,168,69676,1,0,0:0:0:0:
406,191,69747,1,8,0:0:0:0:
264,231,70033,1,0,0:0:0:0:
264,231,70176,1,0,0:0:0:0:
264,231,70318,1,8,0:0:0:0:
257,223,70461,1,0,0:0:0:0:
338,264,70533,1,0,0:0:0:0:
264,231,70604,1,0,0:0:0:0:
264,231,70747,1,8,0:0:0:0:
338,264,71033,1,0,0:0:0:0:
414,176,71176,1,8,0:0:0:0:
297,205,71318,1,0,0:0:0:0:
338,264,71390,1,0,0:0:0:0:
290,240,71461,1,8,0:0:0:0:
297,205,71604,1,8,0:0:0:0:
276,258,71747,1,4,0:0:0:0:
277,186,72033,1,12,0:0:0:0:
333,273,72318,1,0,0:0:0:0:
388,135,72604,1,0,0:0:0:0:
409,205,72747,1,0,0:0:0:0:
409,205,72890,1,8,0:0:0:0:
409,205,73033,1,8,0:0:0:0:
426,203,73176,1,8,0:0:0:0:
306,164,74318,1,0,0:0:0:0:
306,164,74604,1,0,0:0:0:0:
306,164,74890,1,8,0:0:0:0:
306,164,75176,1,8,0:0:0:0:
306,164,75461,1,0,0:0:0:0:
307,182,75747,1,8,0:0:0:0:
306,164,76033,1,0,0:0:0:0:
306,164,76318,1,0,0:0:0:0:
306,164,76604,1,8,0:0:0:0:
306,164,76890,1,8,0:0:0:0:
306,164,77176,1,0,0:0:0:0:
306,164,77461,1,0,0:0:0:0:
306,164,77747,1,8,0:0:0:0:
343,246,78033,1,0,0:0:0:0:
306,164,78318,1,8,0:0:0:0:
343,246,78604,1,8,0:0:0:0:
343,246,78890,1,0,0:0:0:0:
343,246,79176,1,0,0:0:0:0:
343,246,79461,1,8,0:0:0:0:
343,246,79747,1,8,0:0:0:0:
343,246,80033,1,0,0:0:0:0:
151,191,80318,1,8,0:0:0:0:
343,246,80604,1,0,0:0:0:0:
249,255,80890,1,0,0:0:0:0:
151,191,81176,1,8,0:0:0:0:
343,246,81461,1,0,0:0:0:0:
343,246,81747,1,8,0:0:0:0:
329,212,82033,1,8,0:0:0:0:
343,246,82318,1,0,0:0:0:0:
315,180,82604,1,8,0:0:0:0:
186,130,82747,1,0,0:0:0:0:
343,246,83033,1,0,0:0:0:0:
217,166,83104,1,0,0:0:0:0:
343,246,83176,1,8,0:0:0:0:
266,217,83461,1,4,0:0:0:0:
292,245,83747,1,8,0:0:0:0:
293,214,83890,1,0,0:0:0:0:
293,214,83961,1,0,0:0:0:0:
371,204,84033,1,0,0:0:0:0:
279,215,84176,1,0,0:0:0:0:
256,163,84318,1,8,0:0:0:0:
150,199,84461,1,8,0:0:0:0:
246,163,84533,1,8,0:0:0:0:
174,198,84604,1,0,0:0:0:0:
162,211,84747,1,0,0:0:0:0:
205,218,84890,1,8,0:0:0:0:
179,205,85033,1,0,0:0:0:0:
238,182,85176,1,8,0:0:0:0:
267,158,85247,1,0,0:0:0:0:
247,198,85318,1,0,0:0:0:0:
247,198,85390,1,0,0:0:0:0:
355,226,85461,1,8,0:0:0:0:
186,205,85604,1,0,0:0:0:0:
341,175,85747,1,8,0:0:0:0:
341,175,85818,1,8,0:0:0:0:
285,186,85890,1,0,0:0:0:0:
263,263,86033,1,8,0:0:0:0:
300,150,86176,1,0,0:0:0:0:
319,196,86318,1,8,0:0:0:0:
319,196,86390,1,8,0:0:0:0:
288,168,86461,1,0,0:0:0:0:
228,203,86533,1,0,0:0:0:0:
248,220,86604,1,8,0:0:0:0:
324,170,86747,1,8,0:0:0:0:
170,213,86818,1,8,0:0:0:0:
165,198,86890,1,0,0:0:0:0:
356,250,87033,1,0,0:0:0:0:
351,170,87176,1,8,0:0:0:0:
254,201,87318,1,0,0:0:0:0:
350,268,87390,1,8,0:0:0:0:
253,209,87461,1,0,0:0:0:0:
282,225,87604,1,0,0:0:0:0:
229,269,87747,1,8,0:0:0:0:
267,214,87818,1,8,0:0:0:0:
266,215,87890,1,8,0:0:0:0:
184,189,88033,1,4,0:0:0:0:
212,185,88318,1,8,0:0:0:0:
243,196,88461,1,0,0:0:0:0:
272,151,88533,1,0,0:0:0:0:
272,151,88604,1,0,0:0:0:0:
262,199,88747,1,0,0:0:0:0:
284,205,88890,1,8,0:0:0:0:
274,183,89033,1,8,0:0:0:0:
284,205,89104,1,8,0:0:0:0:
249,150,89176,1,0,0:0:0:0:
214,196,89318,1,0,0:0:0:0:
243,196,89461,1,8,0:0:0:0:
238,191,89604,1,0,0:0:0:0:
228,204,89747,1,8,0:0:0:0:
242,185,89818,1,0,0:0:0:0:
228,204,89890,1,8,0:0:0:0:
228,204,89961,1,8,0:0:0:0:
242,185,90033,1,0,0:0:0:0:
289,185,90176,1,8,0:0:0:0:
242,185,90318,1,0,0:0:0:0:
190,163,90390,1,0,0:0:0:0:
190,163,90461,1,0,0:0:0:0:
278,214,90604,1,8,0:0:0:0:
214,269,90747,1,0,0:0:0:0:
214,269,90818,1,0,0:0:0:0:
214,269,90890,1,8,0:0:0:0:
286,176,90961,1,0,0:0:0:0:
250,251,91033,1,0,0:0:0:0:
272,232,91176,1,8,0:0:0:0:
260,208,91318,1,0,0:0:0:0:
260,208,91390,1,0,0:0:0:0:
307,213,91461,1,8,0:0:0:0:
239,187,91604,1,0,0:0:0:0:
301,218,91747,1,8,0:0:0:0:
274,179,91890,1,0,0:0:0:0:
224,240,91961,1,8,0:0:0:0:
351,190,92033,1,0,0:0:0:0:
258,243,92176,1,8,0:0:0:0:
258,243,92318,1,8,0:0:0:0:
258,243,92461,1,8,0:0:0:0:
199,222,92604,5,4,0:0:0:0:
91,264,92890,1,8,0:0:0:0:
185,229,93033,1,8,0:0:0:0:
91,264,93176,1,0,0:0:0:0:
91,264,93461,1,0,0:0:0:0:
243,203,93747,1,8,0:0:0:0:
243,203,94033,1,0,0:0:0:0:
314,229,94176,1,0,0:0:0:0:
238,177,94318,1,8,0:0:0:0:
243,203,94604,1,0,0:0:0:0:
190,154,94747,1,8,0:0:0:0:
243,203,94890,1,8,0:0:0:0:
243,203,95176,1,8,0:0:0:0:
331,176,95318,1,0,0:0:0:0:
243,203,95461,1,8,0:0:0:0:
165,190,95747,1,0,0:0:0:0:
243,203,96033,1,8,0:0:0:0:
243,203,96318,1,0,0:0:0:0:
199,232,96461,1,0,0:0:0:0:
223,158,96604,1,8,0:0:0:0:
244,194,96699,1,8,0:0:0:0:
334,216,96795,1,0,0:0:0:0:
187,195,96890,1,8,0:0:0:0:
284,161,96985,1,0,0:0:0:0:
284,161,97080,1,0,0:0:0:0:
243,203,97176,1,12,0:0:0:0:
306,185,97461,1,8,0:0:0:0:
276,187,97604,1,0,0:0:0:0:
276,187,97676,1,0,0:0:0:0:
346,233,97747,1,8,0:0:0:0:
286,218,97890,1,0,0:0:0:0:
298,204,98033,1,8,0:0:0:0:
266,189,98176,1,8,0:0:0:0:
298,204,98247,1,8,0:0:0:0:
230,205,98318,1,0,0:0:0:0:
301,198,98461,1,0,0:0:0:0:
250,263,98604,1,8,0:0:0:0:
177,247,98747,1,0,0:0:0:0:
301,198,98818,1,0,0:0:0:0:
301,198,98890,1,0,0:0:0:0:
298,204,99033,1,0,0:0:0:0:
304,235,99176,1,8,0:0:0:0:
238,191,99318,5,8,0:0:0:0:
279,126,99461,5,4,0:0:0:0:
341,156,99747,1,8,0:0:0:0:
336,185,99890,1,0,0:0:0:0:
267,221,100033,1,8,0:0:0:0:
312,189,100176,1,0,0:0:0:0:
372,176,100318,1,8,0:0:0:0:
371,176,100390,1,8,0:0:0:0:
271,226,100461,1,0,0:0:0:0:
296,246,100604,1,12,0:0:0:0:
365,179,101747,1,12,0:0:0:0:
247,228,101890,1,0,0:0:0:0:
335,158,102033,1,8,0:0:0:0:
219,201,102176,1,0,0:0:0:0:
335,158,102247,1,0,0:0:0:0:
219,201,102318,1,8,0:0:0:0:
251,192,102390,1,0,0:0:0:0:
279,187,102461,1,0,0:0:0:0:
328,176,102604,1,8,0:0:0:0:
267,170,102747,1,0,0:0:0:0:
150,174,102818,1,0,0:0:0:0:
267,170,102890,1,8,0:0:0:0:
256,192,103033,1,0,0:0:0:0:
175,173,103176,1,8,0:0:0:0:
224,210,103318,1,0,0:0:0:0:
224,210,103390,1,0,0:0:0:0:
224,210,103461,1,8,0:0:0:0:
249,214,103533,1,8,0:0:0:0:
224,210,103604,1,0,0:0:0:0:
314,191,103747,1,8,0:0:0:0:
193,149,103890,1,0,0:0:0:0:
270,189,103961,1,0,0:0:0:0:
284,191,104033,1,0,0:0:0:0:
279,230,104176,1,8,0:0:0:0:
248,179,104318,1,0,0:0:0:0:
281,174,104390,1,0,0:0:0:0:
226,163,104461,1,8,0:0:0:0:
392,192,104533,1,0,0:0:0:0:
267,203,104604,1,8,0:0:0:0:
254,204,104676,1,8,0:0:0:0:
225,210,104747,1,0,0:0:0:0:
484,173,104890,1,8,0:0:0:0:
212,203,105033,1,0,0:0:0:0:
269,198,105104,1,0,0:0:0:0:
301,206,105176,1,8,0:0:0:0:
351,213,105247,1,0,0:0:0:0:
237,200,105318,1,0,0:0:0:0:
255,185,105461,1,8,0:0:0:0:
284,233,105604,1,0,0:0:0:0:
293,189,105747,1,8,0:0:0:0:
284,233,105818,1,8,0:0:0:0:
408,186,105890,1,0,0:0:0:0:
281,251,105961,1,0,0:0:0:0:
216,190,106033,1,8,0:0:0:0:
279,206,106176,1,8,0:0:0:0:
349,185,106247,1,8,0:0:0:0:
255,210,106318,1,0,0:0:0:0:
246,187,106461,1,0,0:0:0:0:
351,174,106604,1,8,0:0:0:0:
244,187,106747,1,0,0:0:0:0:
244,187,106818,1,0,0:0:0:0:
244,187,106890,1,0,0:0:0:0:
252,93,106961,1,0,0:0:0:0:
345,174,107033,1,8,0:0:0:0:
167,133,107176,1,0,0:0:0:0:
351,174,107318,1,8,0:0:0:0:
351,174,107390,1,8,0:0:0:0:
186,131,107461,1,0,0:0:0:0:
222,199,107533,1,0,0:0:0:0:
167,133,107604,1,0,0:0:0:0:
188,174,107747,1,8,0:0:0:0:
160,197,107890,1,0,0:0:0:0:
194,192,107961,1,0,0:0:0:0:
188,174,108033,1,8,0:0:0:0:
188,174,108104,1,8,0:0:0:0:
160,197,108176,1,0,0:0:0:0:
284,215,108247,1,0,0:0:0:0:
245,206,108318,1,8,0:0:0:0:
160,196,108461,1,0,0:0:0:0:
296,208,108533,1,0,0:0:0:0:
160,196,108604,1,0,0:0:0:0:
160,196,108747,1,0,0:0:0:0:
245,206,108890,1,8,0:0:0:0:
225,201,109033,1,0,0:0:0:0:
296,208,109104,1,8,0:0:0:0:
335,180,109176,1,0,0:0:0:0:
288,206,109318,1,0,0:0:0:0:
373,206,109461,1,8,0:0:0:0:
259,176,109747,1,12,0:0:0:0:
293,201,110033,1,8,0:0:0:0:
331,199,110247,1,8,0:0:0:0:
317,308,110318,1,0,0:0:0:0:
282,186,110461,1,8,0:0:0:0:
201,200,110604,1,0,0:0:0:0:
282,186,110676,1,0,0:0:0:0:
283,186,110747,1,0,0:0:0:0:
316,155,110890,1,12,0:0:0:0:
283,158,111033,1,0,0:0:0:0:
335,158,111176,1,8,0:0:0:0:
328,176,111318,1,8,0:0:0:0:
335,158,111390,1,8,0:0:0:0:
335,158,111461,1,0,0:0:0:0:
293,158,111533,1,0,0:0:0:0:
279,187,111604,1,0,0:0:0:0:
328,176,111747,1,8,0:0:0:0:
219,234,111890,1,0,0:0:0:0:
267,170,112033,1,8,0:0:0:0:
237,179,112104,1,8,0:0:0:0:
256,192,112176,1,0,0:0:0:0:
175,173,112318,1,8,0:0:0:0:
293,158,112461,1,0,0:0:0:0:
293,158,112533,1,0,0:0:0:0:
331,159,112604,1,8,0:0:0:0:
322,159,112676,1,0,0:0:0:0:
224,210,112747,1,0,0:0:0:0:
314,191,112890,1,8,0:0:0:0:
203,189,113033,1,0,0:0:0:0:
193,149,113104,1,0,0:0:0:0:
241,170,113176,1,0,0:0:0:0:
231,174,113318,1,8,0:0:0:0:
281,174,113461,1,0,0:0:0:0:
286,163,113533,1,0,0:0:0:0:
226,163,113604,1,8,0:0:0:0:
314,163,113676,1,0,0:0:0:0:
231,174,113747,1,8,0:0:0:0:
263,179,113818,1,8,0:0:0:0:
225,210,113890,1,0,0:0:0:0:
484,173,114033,1,8,0:0:0:0:
255,185,114176,1,8,0:0:0:0:
212,203,114318,1,4,0:0:0:0:
237,200,114604,1,8,0:0:0:0:
252,161,114747,1,0,0:0:0:0:
232,189,114890,1,12,0:0:0:0:
252,161,115033,1,0,0:0:0:0:
332,168,115176,1,8,0:0:0:0:
332,168,115247,1,8,0:0:0:0:
332,168,115318,1,0,0:0:0:0:
332,168,115390,1,0,0:0:0:0:
406,191,115461,1,8,0:0:0:0:
264,231,115747,1,0,0:0:0:0:
264,231,115890,1,0,0:0:0:0:
264,231,116033,1,8,0:0:0:0:
257,223,116176,1,0,0:0:0:0:
338,264,116247,1,0,0:0:0:0:
264,231,116318,1,0,0:0:0:0:
264,231,116461,1,8,0:0:0:0:
338,264,116747,1,0,0:0:0:0:
414,176,116890,1,8,0:0:0:0:
297,205,117033,1,0,0:0:0:0:
338,264,117104,1,0,0:0:0:0:
290,240,117176,1,8,0:0:0:0:
297,205,117318,1,8,0:0:0:0:
276,258,117461,1,4,0:0:0:0:
277,186,117747,1,12,0:0:0:0:
333,273,118033,1,0,0:0:0:0:
388,135,118318,1,0,0:0:0:0:
409,205,118461,1,0,0:0:0:0:
409,205,118604,1,8,0:0:0:0:
409,205,118747,1,8,0:0:0:0:
426,203,118890,1,8,0:0:0:0:
204,243,120033,1,4,0:0:0:0:
243,206,120318,1,8,0:0:0:0:
228,245,120461,1,0,0:0:0:0:
228,245,120533,1,0,0:0:0:0:
220,199,120604,1,8,0:0:0:0:
238,178,120747,1,0,0:0:0:0:
220,199,120890,1,8,0:0:0:0:
308,174,121033,1,8,0:0:0:0:
220,199,121176,1,0,0:0:0:0:
316,194,121247,1,0,0:0:0:0:
247,167,121318,1,0,0:0:0:0:
247,167,121390,1,0,0:0:0:0:
316,194,121461,1,8,0:0:0:0:
219,185,121533,1,0,0:0:0:0:
231,180,121604,1,8,0:0:0:0:
238,178,121676,1,8,0:0:0:0:
247,167,121747,1,0,0:0:0:0:
215,181,121890,1,8,0:0:0:0:
253,181,122033,1,0,0:0:0:0:
245,183,122104,1,0,0:0:0:0:
215,181,122176,1,8,0:0:0:0:
245,183,122247,1,0,0:0:0:0:
215,181,122318,1,8,0:0:0:0:
252,192,122461,1,0,0:0:0:0:
198,169,122604,1,8,0:0:0:0:
280,194,122676,1,8,0:0:0:0:
182,169,122747,1,0,0:0:0:0:
237,180,122818,1,0,0:0:0:0:
182,169,122890,1,8,0:0:0:0:
416,200,123033,1,0,0:0:0:0:
324,175,123176,1,8,0:0:0:0:
239,198,123318,1,0,0:0:0:0:
239,198,123390,1,0,0:0:0:0:
239,198,123461,1,0,0:0:0:0:
324,175,123604,1,0,0:0:0:0:
274,178,123747,1,8,0:0:0:0:
285,176,123890,1,0,0:0:0:0:
285,176,123961,1,0,0:0:0:0:
298,176,124033,1,8,0:0:0:0:
285,176,124104,1,0,0:0:0:0:
285,176,124176,1,0,0:0:0:0:
254,198,124318,1,8,0:0:0:0:
254,198,124461,1,8,0:0:0:0:
380,208,124533,1,8,0:0:0:0:
310,179,124604,1,0,0:0:0:0:
245,175,124890,1,8,0:0:0:0:
281,179,125033,1,0,0:0:0:0:
285,176,125104,1,0,0:0:0:0:
249,186,125176,1,8,0:0:0:0:
327,211,125318,1,0,0:0:0:0:
309,223,125461,1,8,0:0:0:0:
327,211,125604,1,0,0:0:0:0:
327,211,125676,1,0,0:0:0:0:
305,196,125747,1,8,0:0:0:0:
264,198,125818,1,0,0:0:0:0:
313,203,125890,1,8,0:0:0:0:
313,203,125961,1,8,0:0:0:0:
264,198,126033,1,0,0:0:0:0:
309,223,126176,1,8,0:0:0:0:
308,223,126247,1,8,0:0:0:0:
308,223,126318,1,8,0:0:0:0:
235,206,126390,1,0,0:0:0:0:
309,223,126461,1,8,0:0:0:0:
308,223,126533,1,8,0:0:0:0:
236,206,126604,1,0,0:0:0:0:
372,233,126676,1,0,0:0:0:0:
351,210,126747,1,8,0:0:0:0:
269,213,126890,1,0,0:0:0:0:
255,189,127033,1,0,0:0:0:0:
331,230,127176,1,8,0:0:0:0:
310,190,127318,1,0,0:0:0:0:
330,230,127390,1,8,0:0:0:0:
296,191,127461,1,0,0:0:0:0:
341,229,127604,1,0,0:0:0:0:
329,191,127747,1,8,0:0:0:0:
329,191,127818,1,8,0:0:0:0:
329,191,127890,1,8,0:0:0:0:
229,214,128033,1,4,0:0:0:0:
327,192,128176,1,8,0:0:0:0:
267,180,128318,1,0,0:0:0:0:
352,181,128390,1,8,0:0:0:0:
267,180,128461,1,0,0:0:0:0:
288,180,128533,1,0,0:0:0:0:
352,181,128604,1,8,0:0:0:0:
304,200,128676,1,0,0:0:0:0:
273,186,128747,1,8,0:0:0:0:
362,168,128818,1,8,0:0:0:0:
267,180,128890,1,0,0:0:0:0:
428,179,128961,1,0,0:0:0:0:
351,169,129033,1,8,0:0:0:0:
297,265,129176,1,4,0:0:0:0:
311,188,129461,1,8,0:0:0:0:
338,226,129533,1,0,0:0:0:0:
230,174,129604,1,0,0:0:0:0:
230,174,129676,1,0,0:0:0:0:
311,188,129747,1,8,0:0:0:0:
311,188,129818,1,8,0:0:0:0:
284,200,129890,1,8,0:0:0:0:
279,200,129961,1,8,0:0:0:0:
280,198,130033,1,0,0:0:0:0:
279,198,130104,1,0,0:0:0:0:
297,189,130176,1,8,0:0:0:0:
287,175,130247,1,0,0:0:0:0:
287,175,130318,1,8,0:0:0:0:
287,171,130390,1,8,0:0:0:0:
297,189,130461,1,8,0:0:0:0:
284,191,130533,1,8,0:0:0:0:
314,168,130604,1,0,0:0:0:0:
225,191,130676,1,0,0:0:0:0:
392,165,130747,1,8,0:0:0:0:
418,172,130818,1,0,0:0:0:0:
349,185,130890,1,8,0:0:0:0:
390,176,130961,1,8,0:0:0:0:
314,168,131033,1,8,0:0:0:0:
368,174,131104,1,0,0:0:0:0:
314,226,131176,1,8,0:0:0:0:
381,255,131247,1,8,0:0:0:0:
362,203,131318,1,0,0:0:0:0:
192,169,131390,1,0,0:0:0:0:
277,166,131461,1,8,0:0:0:0:
304,164,131604,1,0,0:0:0:0:
328,205,131676,1,0,0:0:0:0:
326,180,131747,1,8,0:0:0:0:
361,207,131818,1,0,0:0:0:0:
192,169,131890,1,8,0:0:0:0:
239,159,132033,1,0,0:0:0:0:
237,169,132176,1,8,0:0:0:0:
314,184,132247,1,8,0:0:0:0:
381,192,132318,1,0,0:0:0:0:
221,171,132461,1,0,0:0:0:0:
321,168,132604,1,12,0:0:0:0:
293,194,132747,1,0,0:0:0:0:
341,186,132818,1,0,0:0:0:0:
292,187,132890,1,8,0:0:0:0:
243,174,133033,1,4,0:0:0:0:
253,186,133318,1,8,0:0:0:0:
253,186,133390,1,8,0:0:0:0:
253,186,133461,1,8,0:0:0:0:
266,214,133604,1,0,0:0:0:0:
249,196,133747,1,12,0:0:0:0:
301,188,134033,1,0,0:0:0:0:
202,224,134176,1,8,0:0:0:0:
234,178,134318,1,0,0:0:0:0:
202,224,134390,1,8,0:0:0:0:
219,178,134461,1,0,0:0:0:0:
219,178,134533,1,0,0:0:0:0:
312,190,134604,1,8,0:0:0:0:
274,186,134747,1,0,0:0:0:0:
417,176,134890,1,8,0:0:0:0:
297,181,134961,1,8,0:0:0:0:
297,177,135033,1,0,0:0:0:0:
296,172,135104,1,0,0:0:0:0:
312,179,135176,1,8,0:0:0:0:
194,179,135318,1,0,0:0:0:0:
219,178,135461,1,8,0:0:0:0:
219,178,135533,1,8,0:0:0:0:
218,177,135604,1,8,0:0:0:0:
390,179,135747,1,4,0:0:0:0:
260,139,136033,1,12,0:0:0:0:
340,189,136318,1,8,0:0:0:0:
340,169,136461,1,0,0:0:0:0:
338,216,136533,1,8,0:0:0:0:
223,170,136604,1,0,0:0:0:0:
252,116,136747,1,0,0:0:0:0:
331,184,136890,1,8,0:0:0:0:
263,194,137033,1,0,0:0:0:0:
265,201,137176,1,12,0:0:0:0:
169,163,137318,1,0,0:0:0:0:
169,163,137390,1,0,0:0:0:0:
169,163,137461,1,0,0:0:0:0:
198,155,137604,1,12,0:0:0:0:
273,155,138318,1,4,0:0:0:0:
268,235,138604,1,8,0:0:0:0:
249,188,138747,1,0,0:0:0:0:
272,166,138890,1,8,0:0:0:0:
283,179,139033,1,0,0:0:0:0:
276,179,139104,1,0,0:0:0:0:
276,179,139176,1,0,0:0:0:0:
276,179,139318,1,0,0:0:0:0:
255,214,139461,1,8,0:0:0:0:
321,175,139747,1,0,0:0:0:0:
312,171,139890,1,0,0:0:0:0:
334,184,140033,1,8,0:0:0:0:
369,179,140176,1,0,0:0:0:0:
276,179,140247,1,8,0:0:0:0:
351,181,140318,1,0,0:0:0:0:
321,175,140461,1,0,0:0:0:0:
254,186,140604,1,8,0:0:0:0:
323,180,140890,1,0,0:0:0:0:
302,223,141033,1,8,0:0:0:0:
369,168,141176,1,0,0:0:0:0:
366,153,141318,1,8,0:0:0:0:
362,153,141390,1,8,0:0:0:0:
362,153,141461,1,8,0:0:0:0:
254,186,141604,1,0,0:0:0:0:
282,193,141747,1,8,0:0:0:0:
285,180,142033,1,8,0:0:0:0:
315,181,142176,1,0,0:0:0:0:
315,181,142247,1,0,0:0:0:0:
329,155,142318,1,8,0:0:0:0:
412,157,142604,1,8,0:0:0:0:
412,157,142676,1,8,0:0:0:0:
412,157,142747,1,8,0:0:0:0:
313,170,142890,1,4,0:0:0:0:
238,181,143176,1,8,0:0:0:0:
275,189,143318,1,0,0:0:0:0:
275,189,143390,1,0,0:0:0:0:
275,189,143461,1,8,0:0:0:0:
238,181,143604,1,0,0:0:0:0:
237,195,143747,1,8,0:0:0:0:
237,195,143890,1,8,0:0:0:0:
237,195,143961,1,8,0:0:0:0:
273,181,144033,1,0,0:0:0:0:
238,181,144176,1,0,0:0:0:0:
311,216,144318,1,8,0:0:0:0:
232,190,144461,1,0,0:0:0:0:
232,190,144533,1,0,0:0:0:0:
232,190,144604,1,0,0:0:0:0:
232,190,144747,1,0,0:0:0:0:
311,216,144890,1,8,0:0:0:0:
346,195,144961,1,0,0:0:0:0:
311,216,145033,1,8,0:0:0:0:
344,169,145176,1,4,0:0:0:0:
311,216,145318,1,8,0:0:0:0:
311,216,145461,1,0,0:0:0:0:
332,235,145604,1,0,0:0:0:0:
373,231,145676,1,0,0:0:0:0:
286,201,145747,1,8,0:0:0:0:
332,235,145890,1,0,0:0:0:0:
317,172,146033,1,8,0:0:0:0:
344,169,146104,1,8,0:0:0:0:
324,164,146176,1,0,0:0:0:0:
351,186,146318,1,12,0:0:0:0:
365,179,155747,5,12,0:0:0:0:
219,201,155890,1,0,0:0:0:0:
335,158,155961,1,0,0:0:0:0:
219,201,156033,1,8,0:0:0:0:
251,192,156104,1,0,0:0:0:0:
279,187,156176,1,0,0:0:0:0:
328,176,156318,1,8,0:0:0:0:
267,170,156461,1,0,0:0:0:0:
150,174,156533,1,0,0:0:0:0:
267,170,156604,1,8,0:0:0:0:
256,192,156747,1,0,0:0:0:0:
175,173,156890,1,8,0:0:0:0:
224,210,157033,1,0,0:0:0:0:
224,210,157104,1,0,0:0:0:0:
224,210,157176,1,8,0:0:0:0:
249,214,157247,1,8,0:0:0:0:
224,210,157318,1,0,0:0:0:0:
314,191,157461,1,8,0:0:0:0:
193,149,157604,1,0,0:0:0:0:
270,189,157676,1,0,0:0:0:0:
284,191,157747,1,0,0:0:0:0:
279,230,157890,1,8,0:0:0:0:
389,204,157961,1,8,0:0:0:0:
248,179,158033,1,0,0:0:0:0:
281,174,158104,1,0,0:0:0:0:
226,163,158176,1,8,0:0:0:0:
392,192,158247,1,0,0:0:0:0:
267,203,158318,1,8,0:0:0:0:
254,204,158390,1,8,0:0:0:0:
225,210,158461,1,0,0:0:0:0:
484,173,158604,1,8,0:0:0:0:
212,203,158747,1,0,0:0:0:0:
269,198,158818,1,0,0:0:0:0:
301,206,158890,1,8,0:0:0:0:
351,213,158961,1,0,0:0:0:0:
237,200,159033,1,0,0:0:0:0:
252,193,159104,1,0,0:0:0:0:
255,185,159176,1,8,0:0:0:0:
284,233,159318,1,0,0:0:0:0:
293,189,159461,1,8,0:0:0:0:
284,233,159533,1,8,0:0:0:0:
408,186,159604,1,0,0:0:0:0:
281,251,159676,1,0,0:0:0:0:
216,190,159747,1,8,0:0:0:0:
372,215,159818,1,0,0:0:0:0:
279,206,159890,1,0,0:0:0:0:
255,210,159961,1,0,0:0:0:0:
349,185,160033,1,8,0:0:0:0:
246,187,160176,1,0,0:0:0:0:
351,174,160318,1,8,0:0:0:0:
244,187,160461,1,0,0:0:0:0:
244,187,160533,1,0,0:0:0:0:
244,187,160604,1,0,0:0:0:0:
252,193,160676,1,0,0:0:0:0:
345,174,160747,1,8,0:0:0:0:
167,133,160890,1,0,0:0:0:0:
351,174,161033,1,8,0:0:0:0:
351,174,161104,1,8,0:0:0:0:
186,131,161176,1,0,0:0:0:0:
222,199,161247,1,0,0:0:0:0:
167,133,161318,1,0,0:0:0:0:
188,174,161461,1,8,0:0:0:0:
160,197,161604,1,0,0:0:0:0:
194,192,161676,1,0,0:0:0:0:
188,174,161747,1,8,0:0:0:0:
188,174,161818,1,8,0:0:0:0:
160,197,161890,1,0,0:0:0:0:
284,215,161961,1,0,0:0:0:0:
245,206,162033,1,8,0:0:0:0:
160,196,162176,1,0,0:0:0:0:
296,208,162247,1,0,0:0:0:0:
160,196,162318,1,0,0:0:0:0:
160,196,162461,1,0,0:0:0:0:
245,206,162604,1,8,0:0:0:0:
225,201,162747,1,0,0:0:0:0:
296,208,162818,1,8,0:0:0:0:
335,180,162890,1,0,0:0:0:0:
288,206,163033,1,0,0:0:0:0:
373,206,163176,1,8,0:0:0:0:
259,176,163461,1,12,0:0:0:0:
293,201,163747,1,8,0:0:0:0:
331,199,163961,1,8,0:0:0:0:
317,308,164033,1,0,0:0:0:0:
282,186,164176,1,8,0:0:0:0:
201,200,164318,1,0,0:0:0:0:
282,186,164390,1,0,0:0:0:0:
283,186,164461,1,0,0:0:0:0:
316,155,164604,1,12,0:0:0:0:
283,158,164747,1,0,0:0:0:0:
335,158,164890,1,8,0:0:0:0:
328,176,165033,1,8,0:0:0:0:
335,158,165104,1,8,0:0:0:0:
335,158,165176,1,0,0:0:0:0:
293,158,165247,1,0,0:0:0:0:
279,187,165318,1,0,0:0:0:0:
328,176,165461,1,8,0:0:0:0:
219,234,165604,1,0,0:0:0:0:
267,170,165747,1,8,0:0:0:0:
237,179,165818,1,8,0:0:0:0:
256,192,165890,1,0,0:0:0:0:
296,186,165961,1,0,0:0:0:0:
175,173,166033,1,8,0:0:0:0:
293,158,166176,1,0,0:0:0:0:
293,158,166247,1,0,0:0:0:0:
297,189,166318,1,0,0:0:0:0:
297,189,166390,1,0,0:0:0:0:
349,229,166461,1,8,0:0:0:0:
203,189,166604,1,0,0:0:0:0:
314,191,166747,1,8,0:0:0:0:
193,149,166818,1,8,0:0:0:0:
241,170,166890,1,0,0:0:0:0:
231,174,167033,1,8,0:0:0:0:
281,174,167176,1,0,0:0:0:0:
286,163,167247,1,0,0:0:0:0:
226,163,167318,1,8,0:0:0:0:
314,163,167390,1,0,0:0:0:0:
231,174,167461,1,8,0:0:0:0:
263,179,167533,1,8,0:0:0:0:
225,210,167604,1,0,0:0:0:0:
484,173,167747,1,8,0:0:0:0:
255,185,167890,1,8,0:0:0:0:
212,203,168033,1,4,0:0:0:0:
237,200,168318,1,8,0:0:0:0:
252,161,168461,1,0,0:0:0:0:
232,189,168604,1,12,0:0:0:0:
252,161,168747,1,0,0:0:0:0:
332,168,168890,1,8,0:0:0:0:
332,168,168961,1,8,0:0:0:0:
332,168,169033,1,0,0:0:0:0:
332,168,169104,1,0,0:0:0:0:
406,191,169176,1,8,0:0:0:0:
264,231,169461,1,0,0:0:0:0:
264,231,169604,1,0,0:0:0:0:
264,231,169747,1,8,0:0:0:0:
257,223,169890,1,0,0:0:0:0:
338,264,169961,1,0,0:0:0:0:
264,231,170033,1,0,0:0:0:0:
264,231,170176,1,8,0:0:0:0:
338,264,170461,1,0,0:0:0:0:
414,176,170604,1,8,0:0:0:0:
297,205,170747,1,0,0:0:0:0:
338,264,170818,1,0,0:0:0:0:
290,240,170890,1,8,0:0:0:0:
297,205,171033,1,8,0:0:0:0:
276,258,171176,1,4,0:0:0:0:
277,186,171461,1,12,0:0:0:0:
333,273,171747,1,0,0:0:0:0:
388,135,172033,1,0,0:0:0:0:
409,205,172176,1,0,0:0:0:0:
409,205,172318,1,8,0:0:0:0:
409,205,172461,1,8,0:0:0:0:
426,203,172604,1,8,0:0:0:0:
104,200,173747,1,4,0:0:0:0:
282,248,174033,1,8,0:0:0:0:
210,238,174176,1,0,0:0:0:0:
255,233,174247,1,0,0:0:0:0:
177,226,174318,1,8,0:0:0:0:
332,271,174390,1,0,0:0:0:0:
220,262,174461,1,0,0:0:0:0:
177,226,174604,1,8,0:0:0:0:
215,262,174747,1,8,0:0:0:0:
185,223,174818,1,8,0:0:0:0:
198,243,174890,1,0,0:0:0:0:
198,243,175033,1,0,0:0:0:0:
180,241,175176,1,8,0:0:0:0:
161,231,175318,1,0,0:0:0:0:
321,195,175390,1,0,0:0:0:0:
266,220,175461,1,8,0:0:0:0:
239,230,175533,1,8,0:0:0:0:
252,199,175604,1,0,0:0:0:0:
254,199,175747,1,8,0:0:0:0:
194,221,175890,1,0,0:0:0:0:
321,195,175961,1,0,0:0:0:0:
139,193,176033,1,8,0:0:0:0:
259,209,176176,1,0,0:0:0:0:
282,230,176318,1,8,0:0:0:0:
324,205,176390,1,0,0:0:0:0:
282,230,176461,1,8,0:0:0:0:
137,264,176533,1,8,0:0:0:0:
214,193,176604,1,0,0:0:0:0:
137,264,176747,1,0,0:0:0:0:
330,209,176890,1,8,0:0:0:0:
137,264,176961,1,8,0:0:0:0:
222,246,177033,1,0,0:0:0:0:
150,222,177176,1,8,0:0:0:0:
150,222,177247,1,0,0:0:0:0:
194,246,177318,1,0,0:0:0:0:
194,246,177390,1,0,0:0:0:0:
188,229,177461,1,8,0:0:0:0:
490,115,177604,1,0,0:0:0:0:
229,187,177747,1,8,0:0:0:0:
302,150,177818,1,8,0:0:0:0:
208,186,177890,1,0,0:0:0:0:
261,278,178033,1,12,0:0:0:0:
294,193,178318,1,4,0:0:0:0:
282,248,178604,1,8,0:0:0:0:
210,238,178747,1,0,0:0:0:0:
185,223,178818,1,0,0:0:0:0:
177,226,178890,1,8,0:0:0:0:
271,215,178961,1,0,0:0:0:0:
220,262,179033,1,0,0:0:0:0:
177,226,179176,1,8,0:0:0:0:
215,262,179318,1,8,0:0:0:0:
198,243,179390,1,8,0:0:0:0:
198,243,179461,1,0,0:0:0:0:
198,243,179604,1,0,0:0:0:0:
180,241,179747,1,8,0:0:0:0:
161,231,179890,1,0,0:0:0:0:
161,231,179961,1,0,0:0:0:0:
266,220,180033,1,8,0:0:0:0:
227,201,180104,1,8,0:0:0:0:
161,231,180176,1,0,0:0:0:0:
139,193,180318,1,8,0:0:0:0:
317,165,180461,1,0,0:0:0:0:
316,193,180533,1,0,0:0:0:0:
326,157,180604,1,8,0:0:0:0:
222,189,180747,1,0,0:0:0:0:
246,173,180890,1,8,0:0:0:0:
249,176,180961,1,0,0:0:0:0:
246,173,181033,1,8,0:0:0:0:
292,229,181104,1,0,0:0:0:0:
244,200,181176,1,8,0:0:0:0:
183,247,181318,1,0,0:0:0:0:
292,229,181461,1,8,0:0:0:0:
253,199,181533,1,0,0:0:0:0:
197,263,181604,1,0,0:0:0:0:
178,259,181747,1,8,0:0:0:0:
229,213,181818,1,8,0:0:0:0:
178,259,181890,1,0,0:0:0:0:
294,236,181961,1,0,0:0:0:0:
207,204,182033,1,8,0:0:0:0:
212,259,182176,1,0,0:0:0:0:
213,164,182247,1,8,0:0:0:0:
178,259,182318,1,0,0:0:0:0:
218,255,182461,1,0,0:0:0:0:
227,198,182533,1,0,0:0:0:0:
227,198,182604,1,8,0:0:0:0:
315,242,182676,1,0,0:0:0:0:
227,198,182747,1,8,0:0:0:0:
317,195,182890,1,4,0:0:0:0:
282,248,183176,1,8,0:0:0:0:
210,238,183318,1,0,0:0:0:0:
185,223,183390,1,0,0:0:0:0:
177,226,183461,1,8,0:0:0:0:
276,215,183533,1,0,0:0:0:0:
220,262,183604,1,0,0:0:0:0:
177,226,183747,1,8,0:0:0:0:
215,262,183890,1,8,0:0:0:0:
198,243,183961,1,8,0:0:0:0:
198,243,184033,1,0,0:0:0:0:
198,243,184176,1,0,0:0:0:0:
180,241,184318,1,8,0:0:0:0:
161,231,184461,1,0,0:0:0:0:
161,231,184533,1,0,0:0:0:0:
266,220,184604,1,8,0:0:0:0:
266,220,184676,1,8,0:0:0:0:
161,231,184747,1,0,0:0:0:0:
139,193,184890,1,8,0:0:0:0:
194,221,185033,1,0,0:0:0:0:
313,148,185104,1,0,0:0:0:0:
139,193,185176,1,8,0:0:0:0:
313,148,185318,1,0,0:0:0:0:
282,230,185461,1,8,0:0:0:0:
137,264,185533,1,0,0:0:0:0:
282,230,185604,1,8,0:0:0:0:
358,205,185676,1,8,0:0:0:0:
322,232,185747,1,0,0:0:0:0:
137,264,185890,1,0,0:0:0:0:
330,209,186033,1,8,0:0:0:0:
307,189,186104,1,8,0:0:0:0:
222,246,186176,1,0,0:0:0:0:
150,222,186318,1,8,0:0:0:0:
150,222,186390,1,0,0:0:0:0:
194,246,186461,1,0,0:0:0:0:
194,246,186533,1,0,0:0:0:0:
188,229,186604,1,8,0:0:0:0:
229,187,186747,1,0,0:0:0:0:
490,115,186890,1,8,0:0:0:0:
302,150,186961,1,8,0:0:0:0:
214,187,187033,1,0,0:0:0:0:
261,278,187176,1,12,0:0:0:0:
294,193,187461,1,4,0:0:0:0:
282,248,187747,1,8,0:0:0:0:
210,238,187890,1,0,0:0:0:0:
185,223,187961,1,0,0:0:0:0:
177,226,188033,1,8,0:0:0:0:
341,218,188104,1,0,0:0:0:0:
220,262,188176,1,0,0:0:0:0:
177,226,188318,1,8,0:0:0:0:
215,262,188461,1,8,0:0:0:0:
198,243,188533,1,8,0:0:0:0:
198,243,188604,1,0,0:0:0:0:
198,243,188747,1,0,0:0:0:0:
180,241,188890,1,8,0:0:0:0:
161,231,189033,1,0,0:0:0:0:
161,231,189104,1,0,0:0:0:0:
266,220,189176,1,8,0:0:0:0:
325,186,189247,1,8,0:0:0:0:
161,231,189318,1,0,0:0:0:0:
139,193,189461,1,8,0:0:0:0:
363,204,189604,1,0,0:0:0:0:
363,204,189676,1,0,0:0:0:0:
338,189,189747,1,8,0:0:0:0:
316,213,189890,1,0,0:0:0:0:
249,215,190033,1,8,0:0:0:0:
272,178,190104,1,0,0:0:0:0:
249,215,190176,1,8,0:0:0:0:
331,208,190247,1,8,0:0:0:0:
202,198,190318,1,0,0:0:0:0:
249,215,190461,1,8,0:0:0:0:
331,183,190604,1,0,0:0:0:0:
331,183,190676,1,0,0:0:0:0:
281,196,190747,1,8,0:0:0:0:
