osu file format v14

[General]
AudioFilename: audio.mp3
AudioLeadIn: 0
PreviewTime: 3922
Countdown: 0
SampleSet: Normal
StackLeniency: 0.7
Mode: 0
LetterboxInBreaks: 0
WidescreenStoryboard: 0

[Editor]
Bookmarks: 24856,39749,54403,61787,68587,82095,96864,104249,111633,124556,128364,143018,155941
DistanceSpacing: 1.3
BeatDivisor: 4
GridSize: 32
TimelineZoom: 3.299999

[Metadata]
Title:Heisei Sayonara Bye Bye
TitleUnicode:ヘイセイサヨナラバイバイ
Artist:Zips
ArtistUnicode:じっぷす
Creator:Awaken
Version:Len's Classic Insane
Source:ヘイセイプロジェクト
Tags:vocaloid 平成project heisei project gumi グミ len fast leader kyshiro japanese rock jippusu pusu nanase not-116
BeatmapID:2260848
BeatmapSetID:971417

[Difficulty]
HPDrainRate:5
CircleSize:3
OverallDifficulty:8
ApproachRate:9
SliderMultiplier:1.5
SliderTickRate:1

[Events]
//Background and Video events
Video,-484,"synr.mp4"
0,0,"rre.jpg",0,0
//Break Periods
2,127990,140113
//Storyboard Layer 0 (Background)
//Storyboard Layer 1 (Fail)
//Storyboard Layer 2 (Pass)
//Storyboard Layer 3 (Foreground)
//Storyboard Layer 4 (Overlay)
//Storyboard Sound Samples

[TimingPoints]
521,230.769230769231,4,1,1,40,1,0
521,-100,4,1,1,40,0,0
3521,-100,4,1,1,30,0,0
3867,-100,4,1,1,30,0,0
4097,-100,4,1,1,70,0,1
16790,-100,4,1,1,70,0,1
17021,-100,4,1,1,70,0,0
24405,-100,4,1,1,50,0,0
27867,-100,4,1,1,50,0,0
28097,-100,4,1,1,50,0,0
31559,-100,4,1,1,50,0,0
31790,-100,4,1,1,50,0,0
35251,-100,4,1,1,50,0,0
35482,-100,4,1,1,50,0,0
38944,-100,4,1,1,50,0,0
39174,-100,4,1,1,50,0,0
42636,-100,4,1,1,50,0,0
42867,-100,4,1,1,50,0,0
46328,-100,4,1,1,50,0,0
46559,-100,4,1,1,50,0,0
53713,-100,4,1,1,50,0,0
53944,-100,4,1,1,40,0,0
60521,-100,4,1,1,50,0,0
66867,-100,4,1,1,55,0,0
67155,-100,4,1,1,55,0,0
67386,-100,4,1,1,55,0,0
67617,-100,4,1,1,55,0,0
67905,-100,4,1,1,55,0,0
68713,-100,4,1,1,70,0,1
81405,-100,4,1,1,70,0,1
81636,-100,4,1,1,70,0,0
85097,-100,4,1,1,70,0,0
85328,-100,4,1,1,70,0,0
88790,-100,4,1,1,70,0,0
89021,-100,4,1,1,70,0,0
96174,-100,4,1,1,40,0,0
102867,-100,4,1,1,50,0,0
109328,-100,4,1,1,55,0,0
109674,-100,4,1,1,55,0,0
109847,-100,4,1,1,55,0,0
110078,-100,4,1,1,55,0,0
111174,-100,4,1,1,70,0,1
123867,-100,4,1,1,70,0,1
125136,-100,4,1,1,70,0,1
127328,-100,4,1,1,70,0,0
141751,-100,4,1,1,70,0,0
142559,-100,4,1,1,50,0,0
149597,-100,4,1,1,40,0,0
149944,-100,4,3,1,60,0,0
150174,-100,4,3,1,60,0,0
154847,-100,4,1,1,5,0,0
154905,-100,4,1,1,50,0,0
155194,-100,4,1,1,5,0,0
155251,-100,4,1,1,50,0,0
155424,-100,4,1,1,5,0,0
155482,-100,4,1,1,85,0,1
158944,-100,4,1,1,85,0,1
159174,-100,4,1,1,85,0,1
162694,-100,4,1,1,85,0,0
162867,-100,4,1,1,85,0,1
166501,-100,4,1,1,85,0,0
166559,-100,4,1,1,85,0,1
168347,-100,4,1,1,85,0,0
168405,-100,4,1,1,85,0,1
170194,-100,4,1,1,85,0,0
170251,-100,4,1,1,85,0,1
171290,-100,4,1,1,85,0,0
171521,-100,4,1,1,85,0,1
171578,-100,4,1,1,85,0,0
171751,-100,4,1,1,5,0,0

[Colours]
Combo1 : 255,111,111
Combo2 : 85,255,85
Combo3 : 162,162,255
Combo4 : 81,187,206
Combo5 : 255,255,17

[HitObjects]
465,24,521,6,0,L|481:178,3,150,0|8|0|8,0:0|0:0|0:0|0:0,0:0:0:0:
486,280,1444,6,0,P|456:209|385:219,1,150,0|8,0:0|0:0,0:0:0:0:
359,307,1790,2,0,L|371:386,1,75,0|0,0:0|0:0,0:0:0:0:
256,192,2136,12,0,2828,0:0:0:0:
201,20,3521,6,0,L|218:177,1,150,8|0,0:0|0:0,0:0:0:0:
234,185,3867,2,0,L|224:288,1,75,0|8,0:0|0:0,0:0:0:0:
294,358,4097,6,0,P|346:365|384:272,1,150,4|0,0:0|0:0,0:0:0:0:
361,123,4444,2,0,P|374:179|382:217,1,75,8|0,0:0|0:0,0:0:0:0:
485,335,4674,2,0,P|493:298|501:261,1,75,0|0,0:0|0:0,0:0:0:0:
479,163,4905,1,8,0:0:0:0:
390,289,5136,6,0,B|297:288|344:248|242:249,2,150,0|8|0,0:0|0:0|0:0,0:0:0:0:
262,340,5713,2,0,L|146:355,1,112.5,0|0,0:0|0:0,0:0:0:0:
130,367,5944,6,0,L|148:205,1,150,0|0,0:0|0:0,0:0:0:0:
74,48,6290,2,0,L|87:146,1,75,8|0,0:0|0:0,0:0:0:0:
252,84,6521,1,0,0:0:0:0:
252,84,6751,2,0,P|217:69|180:67,1,75,8|0,0:0|0:0,0:0:0:0:
146,217,6982,6,0,L|130:367,2,150,0|8|0,0:0|0:0|0:0,0:0:0:0:
366,203,7559,2,0,L|354:128,1,75,0|8,0:0|0:0,0:0:0:0:
272,242,7790,6,0,P|323:233|377:315,1,150,4|0,0:0|0:0,0:0:0:0:
293,358,8136,2,0,L|196:363,1,75,8|0,0:0|0:0,0:0:0:0:
459,375,8367,2,0,B|455:297|509:328|503:200,1,150,0|8,0:0|0:0,0:0:0:0:
503,234,8828,6,0,P|496:169|491:65,1,150,0|8,0:0|0:0,0:0:0:0:
406,21,9174,2,0,L|396:96,1,75,0|0,0:0|0:0,0:0:0:0:
231,142,9405,1,0,0:0:0:0:
231,142,9636,6,0,P|285:128|345:192,1,150,0|0,0:0|0:0,0:0:0:0:
302,357,9982,2,0,L|293:260,1,75,8|0,0:0|0:0,0:0:0:0:
132,106,10213,2,0,L|125:180,1,75,0|0,0:0|0:0,0:0:0:0:
203,319,10444,2,0,P|151:328|132:347,1,75,8|0,0:0|0:0,0:0:0:0:
3,253,10674,6,0,L|89:268,1,75,0|8,0:0|0:0,0:0:0:0:
231,142,10905,2,0,L|247:62,1,75,8|0,0:0|0:0,0:0:0:0:
9,4,11136,5,0,0:0:0:0:
22,162,11251,2,0,L|153:152,1,112.5,0|0,0:0|0:0,0:0:0:0:
144,143,11482,6,0,P|134:217|121:305,1,150,4|0,0:0|0:0,0:0:0:0:
247,380,11828,2,0,P|233:324|201:292,1,75,8|0,0:0|0:0,0:0:0:0:
445,341,12059,2,0,P|401:286|319:314,1,150,0|8,0:0|0:0,0:0:0:0:
382,26,12521,6,0,P|375:97|368:187,2,150,0|8|0,0:0|0:0|0:0,0:0:0:0:
188,22,13097,2,0,P|243:20|278:86,1,112.5,0|0,0:0|0:0,0:0:0:0:
282,83,13328,6,0,P|275:154|268:244,1,150,0|0,0:0|0:0,0:0:0:0:
117,378,13674,2,0,L|110:292,1,75,8|0,0:0|0:0,0:0:0:0:
53,176,13905,2,0,P|123:162|168:218,1,150,0|8,0:0|0:0,0:0:0:0:
168,218,14367,6,0,B|161:129|200:176|199:71,1,150,0|8,0:0|0:0,0:0:0:0:
99,17,14713,2,0,P|56:12|18:37,1,75,0|0,0:0|0:0,0:0:0:0:
27,196,14944,2,0,L|42:324,1,112.5,0|0,0:0|0:0,0:0:0:0:
30,323,15174,6,0,L|183:305,1,150,4|0,0:0|0:0,0:0:0:0:
261,205,15521,2,0,L|409:222,1,150,8|0,0:0|0:0,0:0:0:0:
490,366,15867,5,0,0:0:0:0:
424,245,15982,2,0,L|431:170,1,75,8|0,0:0|0:0,0:0:0:0:
440,20,16213,1,8,0:0:0:0:
440,20,16674,6,0,L|390:27,1,37.5,8|0,0:0|0:0,0:0:0:0:
299,62,16790,2,0,L|239:54,3,37.5,8|0|0|0,0:0|0:0|0:0|0:0,0:0:0:0:
251,42,17021,6,0,P|209:18|146:90,1,150,4|0,0:0|0:0,0:0:0:0:
37,73,17367,2,0,P|56:122|64:167,1,75,8|0,0:0|0:0,0:0:0:0:
136,252,17597,2,0,P|145:215|159:181,1,75,0|0,0:0|0:0,0:0:0:0:
74,338,17828,2,0,P|37:342|2:355,1,75,8|0,0:0|0:0,0:0:0:0:
179,358,18059,6,0,B|233:310|271:367|324:309,1,150,0|8,0:0|0:0,0:0:0:0:
260,231,18405,1,0,0:0:0:0:
437,201,18521,2,0,P|425:275|417:350,1,150,0|8,0:0|0:0,0:0:0:0:
512,94,18867,6,0,P|457:65|380:135,1,150,2|0,0:0|0:0,0:0:0:0:
294,133,19213,2,0,P|282:78|264:48,1,75,8|0,0:0|0:0,0:0:0:0:
175,30,19444,2,0,L|96:24,1,75,0|0,0:0|0:0,0:0:0:0:
7,205,19674,2,0,L|81:199,1,75,8|0,0:0|0:0,0:0:0:0:
133,116,19905,6,0,L|147:286,1,150,0|8,0:0|0:0,0:0:0:0:
328,291,20251,1,0,0:0:0:0:
215,384,20367,2,0,B|200:293|253:334|231:224,1,150,0|8,0:0|0:0,0:0:0:0:
282,17,20713,6,0,P|335:43|328:136,1,150,4|0,0:0|0:0,0:0:0:0:
240,146,21059,2,0,P|192:134|162:129,1,75,8|0,0:0|0:0,0:0:0:0:
339,226,21290,2,0,L|437:212,2,75,0|0|8,0:0|0:0|0:0,0:0:0:0:
207,301,21636,6,0,L|86:310,1,112.5,0|0,0:0|0:0,0:0:0:0:
80,298,21867,2,0,L|88:372,2,75,0|8|0,0:0|0:0|0:0,0:0:0:0:
42,83,22213,2,0,P|28:153|83:199,1,150,0|8,0:0|0:0,0:0:0:0:
166,129,22559,6,0,B|264:112|208:157|319:147,1,150,4|0,0:0|0:0,0:0:0:0:
427,30,22905,2,0,P|430:67|419:102,1,75,8|0,0:0|0:0,0:0:0:0:
454,318,23136,1,0,0:0:0:0:
454,318,23251,2,0,P|450:263|411:223,1,112.5,0|0,0:0|0:0,0:0:0:0:
396,220,23482,6,0,L|237:240,1,150,8|0,0:0|0:0,0:0:0:0:
83,153,23828,2,0,L|172:162,1,75,8|0,0:0|0:0,0:0:0:0:
191,335,24059,1,0,0:0:0:0:
191,335,24405,6,0,L|185:383,1,37.5,4|0,0:0|0:0,0:0:0:0:
186,372,24982,2,0,L|176:202,2,150,0|8|0,0:0|0:0|0:0,0:0:0:0:
371,216,25674,1,8,0:0:0:0:
262,40,25905,2,0,L|250:143,1,75,0|0,0:0|0:0,0:0:0:0:
253,114,26251,6,0,P|199:132|152:52,1,150,0|0,0:0|0:0,0:0:0:0:
47,38,26597,2,0,P|57:84|59:122,1,75,8|0,0:0|0:0,0:0:0:0:
149,204,26828,2,0,P|140:264|128:368,1,150,0|8,0:0|0:0,0:0:0:0:
129,352,27290,5,0,0:0:0:0:
286,34,27521,1,8,0:0:0:0:
465,185,27751,2,0,L|366:162,1,75,2|2,0:0|0:0,0:0:0:0:
149,204,28097,6,0,L|157:251,1,37.5,0|0,0:0|0:0,0:0:0:0:
155,240,28674,2,0,L|-6:218,2,150,0|8|0,0:0|0:0|0:0,0:0:0:0:
350,365,29367,1,8,0:0:0:0:
499,200,29597,2,0,L|494:93,1,75,0|0,0:0|0:0,0:0:0:0:
495,125,29944,6,0,P|438:102|396:173,1,150,0|0,0:0|0:0,0:0:0:0:
420,275,30290,2,0,P|373:251|321:247,1,75,8|0,0:0|0:0,0:0:0:0:
240,185,30521,2,0,P|256:233|268:358,1,150,0|8,0:0|0:0,0:0:0:0:
268,331,30982,5,0,0:0:0:0:
17,123,31213,1,8,0:0:0:0:
353,27,31444,2,0,L|342:125,1,75,2|2,0:0|0:0,0:0:0:0:
400,316,31790,6,0,L|351:302,1,37.5,4|0,0:0|0:0,0:0:0:0:
363,305,32367,2,0,L|195:326,2,150,0|8|0,0:0|0:0|0:0,0:0:0:0:
485,118,33059,1,8,0:0:0:0:
277,16,33290,2,0,P|291:74|300:118,1,75,0|0,0:0|0:0,0:0:0:0:
294,88,33636,6,0,L|272:247,1,150,0|0,0:0|0:0,0:0:0:0:
366,371,33982,2,0,L|350:279,1,75,8|0,0:0|0:0,0:0:0:0:
395,217,34213,2,0,L|481:242,2,75,0|0|8,0:0|0:0|0:0,0:0:0:0:
212,349,34674,5,0,0:0:0:0:
11,175,34905,1,8,0:0:0:0:
273,237,35136,2,0,P|209:251|169:261,1,75,2|2,0:0|0:0,0:0:0:0:
27,32,35482,6,0,L|33:95,1,37.5,0|0,0:0|0:0,0:0:0:0:
30,69,36059,2,0,P|111:55|205:36,2,150,0|8|0,0:0|0:0|0:0,0:0:0:0:
270,148,36751,1,8,0:0:0:0:
124,343,36982,2,0,P|114:292|107:250,1,75,0|0,0:0|0:0,0:0:0:0:
110,269,37328,6,0,P|158:206|236:244,1,150,2|0,0:0|0:0,0:0:0:0:
303,276,37674,2,0,P|288:330|283:374,1,75,8|0,0:0|0:0,0:0:0:0:
391,225,37905,2,0,P|378:171|376:126,1,75,0|0,0:0|0:0,0:0:0:0:
393,324,38136,2,0,P|440:335|486:355,1,75,8|0,0:0|0:0,0:0:0:0:
484,189,38367,6,0,P|496:142|516:32,2,150,0|8|8,0:0|0:0|0:0,0:0:0:0:
384,0,38944,2,0,P|412:40|413:76,1,75,0|0,0:0|0:0,0:0:0:0:
376,151,39174,6,0,L|214:163,1,150,4|0,0:0|0:0,0:0:0:0:
67,136,39521,1,8,0:0:0:0:
283,59,39751,1,0,0:0:0:0:
0,74,39982,6,0,P|25:130|23:242,2,150,8|0|8,0:0|0:0|0:0,0:0:0:0:
97,315,40674,2,0,P|105:279|123:246,2,75,0|0|8,0:0|0:0|0:0,0:0:0:0:
185,367,41021,6,0,P|248:354|334:343,1,150,0|0,0:0|0:0,0:0:0:0:
506,266,41367,1,8,0:0:0:0:
255,197,41597,1,0,0:0:0:0:
447,336,41828,6,0,P|454:293|476:160,2,150,8|0|8,0:0|0:0|0:0,0:0:0:0:
374,56,42521,2,0,P|388:90|391:128,2,75,2|2|0,0:0|0:0|0:0,0:0:0:0:
302,172,42867,6,0,B|202:173|254:119|133:128,1,150,0|0,0:0|0:0,0:0:0:0:
11,223,43213,1,8,0:0:0:0:
199,35,43444,1,0,0:0:0:0:
80,295,43674,6,0,P|66:229|64:131,2,150,8|0|8,0:0|0:0|0:0,0:0:0:0:
4,78,44367,2,0,P|20:43|26:7,2,75,0|0|8,0:0|0:0|0:0,0:0:0:0:
114,49,44713,6,0,L|268:32,1,150,0|0,0:0|0:0,0:0:0:0:
451,76,45059,1,8,0:0:0:0:
200,170,45289,1,0,0:0:0:0:
393,1,45521,6,0,P|405:80|414:182,2,150,8|0|8,0:0|0:0|0:0,0:0:0:0:
460,287,46213,2,0,P|473:237|504:200,2,75,2|2|0,0:0|0:0|0:0,0:0:0:0:
329,185,46559,6,0,B|330:285|364:230|366:335,1,150,4|0,0:0|0:0,0:0:0:0:
255,372,46905,2,0,P|190:368|178:282,2,150,8|0|8,0:0|0:0|0:0,0:0:0:0:
203,48,47597,5,0,0:0:0:0:
427,198,47828,2,0,P|419:147|406:45,1,150,8|0,0:0|0:0,0:0:0:0:
309,11,48174,2,0,P|308:57|290:98,1,75,0|8,0:0|0:0,0:0:0:0:
213,146,48405,6,0,P|145:126|44:107,1,150,0|0,0:0|0:0,0:0:0:0:
239,240,48751,2,0,P|284:235|337:216,1,75,8|0,0:0|0:0,0:0:0:0:
153,301,48982,2,0,P|144:242|126:202,1,75,0|0,0:0|0:0,0:0:0:0:
223,373,49213,1,8,0:0:0:0:
445,256,49444,5,0,0:0:0:0:
268,67,49674,1,8,0:0:0:0:
474,167,49905,2,0,P|482:118|507:80,2,75,0|0|8,0:0|0:0|0:0,0:0:0:0:
350,118,50251,6,0,P|388:189|383:270,1,150,0|0,0:0|0:0,0:0:0:0:
252,308,50597,2,0,B|353:304|298:346|392:348,2,150,8|0|8,0:0|0:0|0:0,0:0:0:0:
30,358,51290,1,0,0:0:0:0:
214,227,51521,6,0,P|205:289|191:396,1,150,8|0,0:0|0:0,0:0:0:0:
313,219,51867,2,0,P|293:169|293:124,1,75,0|8,0:0|0:0,0:0:0:0:
223,42,52097,6,0,L|395:68,1,150,0|0,0:0|0:0,0:0:0:0:
444,139,52444,2,0,P|474:117|511:112,2,75,8|0|0,0:0|0:0|0:0,0:0:0:0:
469,236,52790,2,0,P|460:272|457:310,1,75,0|8,0:0|0:0,0:0:0:0:
332,282,53021,1,0,0:0:0:0:
332,282,53136,6,0,P|385:289|387:392,2,150,0|8|8,0:0|0:0|0:0,0:0:0:0:
180,361,53713,2,0,L|98:351,1,75,0|0,0:0|0:0,0:0:0:0:
9,197,53944,5,4,0:0:0:0:
92,242,54982,6,0,P|101:190|110:159,1,75,0|0,0:0|0:0,0:0:0:0:
179,38,55213,2,0,P|185:74|193:111,1,75,10|0,0:0|0:0,0:0:0:0:
87,68,55444,1,0,0:0:0:0:
87,68,55559,1,10,0:0:0:0:
285,52,55790,5,0,0:0:0:0:
385,42,56828,6,0,L|395:127,1,75,2|0,0:0|0:0,0:0:0:0:
304,167,57059,2,0,L|314:252,1,75,8|0,0:0|0:0,0:0:0:0:
409,261,57290,1,0,0:0:0:0:
273,334,57405,1,10,0:0:0:0:
273,334,57636,5,0,0:0:0:0:
148,373,58674,6,0,P|142:318|131:273,1,75,0|0,0:0|0:0,0:0:0:0:
51,239,58905,2,0,P|57:184|68:139,1,75,10|0,0:0|0:0,0:0:0:0:
8,75,59136,1,0,0:0:0:0:
8,75,59251,1,10,0:0:0:0:
158,203,59482,5,0,0:0:0:0:
196,118,60059,2,0,L|204:62,6,37.5,0|0|0|0|8|0|0,0:0|0:0|0:0|0:0|0:0|0:0|0:0,0:0:0:0:
292,140,60521,6,0,L|340:147,3,37.5,0|0|0|0,0:0|0:0|0:0|0:0,0:0:0:0:
362,194,60751,2,0,L|410:187,3,37.5,8|0|0|0,0:0|0:0|0:0|0:0,0:0:0:0:
478,217,60982,2,0,L|493:121,2,75,0|0|8,0:0|0:0|0:0,0:0:0:0:
423,294,61328,6,0,B|434:333|434:333|295:305,1,150,4|0,0:0|0:0,0:0:0:0:
216,284,61674,2,0,L|224:372,1,75,8|0,0:0|0:0,0:0:0:0:
111,235,61905,6,0,L|124:385,2,150,0|8|0,0:0|0:0|0:0,0:0:0:0:
118,17,62597,1,8,0:0:0:0:
19,264,62828,2,0,L|12:189,1,75,0|0,0:0|0:0,0:0:0:0:
12,189,63174,6,0,P|55:124|121:147,1,150,0|0,0:0|0:0,0:0:0:0:
111,235,63521,2,0,L|124:385,2,150,8|0|8,0:0|0:0|0:0,0:0:0:0:
221,21,64213,6,0,P|214:97|208:171,1,150,0|8,0:0|0:0,0:0:0:0:
305,292,64559,1,0,0:0:0:0:
305,292,64674,2,0,L|297:211,2,75,0|0|8,0:0|0:0|0:0,0:0:0:0:
485,320,65021,6,0,P|461:252|389:252,1,150,4|0,0:0|0:0,0:0:0:0:
368,356,65367,2,0,P|302:341|202:324,2,150,8|0|8,0:0|0:0|0:0,0:0:0:0:
479,149,66059,6,0,L|489:62,1,75,0|0,0:0|0:0,0:0:0:0:
378,89,66290,2,0,L|367:9,1,75,8|0,0:0|0:0,0:0:0:0:
268,61,66521,2,0,L|110:42,1,150,0|8,0:0|0:0,0:0:0:0:
32,102,66867,6,0,B|1:86|1:86|35:230,1,150,0|0,0:0|0:0,0:0:0:0:
200,180,67213,2,0,L|115:165,1,75,8|0,0:0|0:0,0:0:0:0:
71,306,67444,2,0,L|156:291,1,75,8|0,0:0|0:0,0:0:0:0:
302,166,67674,2,0,P|289:222|290:274,1,75,8|0,0:0|0:0,0:0:0:0:
236,366,67905,1,8,0:0:0:0:
236,366,68713,6,0,B|255:325|255:325|380:345,1,150,4|0,0:0|0:0,0:0:0:0:
473,194,69059,2,0,B|492:230|492:230|476:281,1,75,8|0,0:0|0:0,0:0:0:0:
383,249,69290,2,0,L|371:88,1,150,0|8,0:0|0:0,0:0:0:0:
414,11,69636,1,0,0:0:0:0:
287,113,69751,6,0,B|273:42|273:42|180:25,1,150,0|8,0:0|0:0,0:0:0:0:
73,123,70097,2,0,L|154:111,1,75,0|0,0:0|0:0,0:0:0:0:
288,221,70328,2,0,L|207:209,1,75,0|8,0:0|0:0,0:0:0:0:
32,218,70559,6,0,B|-9:280|-9:280|46:365,1,150,0|0,0:0|0:0,0:0:0:0:
128,318,70905,2,0,L|123:233,1,75,8|0,0:0|0:0,0:0:0:0:
224,354,71136,2,0,L|395:368,1,150,0|8,0:0|0:0,0:0:0:0:
373,366,71597,6,0,B|392:314|392:314|418:298|418:298|441:228,1,150,0|8,0:0|0:0,0:0:0:0:
343,22,71944,2,0,B|332:58|332:58|360:114,1,75,0|0,0:0|0:0,0:0:0:0:
512,59,72174,1,0,0:0:0:0:
512,59,72405,6,0,L|432:45,1,75,4|0,0:0|0:0,0:0:0:0:
285,126,72636,2,0,L|359:114,2,75,0|8|0,0:0|0:0|0:0,0:0:0:0:
419,198,72982,2,0,B|459:217|459:217|438:338,1,150,0|8,0:0|0:0,0:0:0:0:
440,321,73444,6,0,B|380:332|380:332|353:326|353:326|286:335,1,150,0|8,0:0|0:0,0:0:0:0:
201,374,73790,1,0,0:0:0:0:
106,326,73905,2,0,L|94:253,1,75,0|0,0:0|0:0,0:0:0:0:
94,253,74251,6,0,B|124:211|124:211|110:98,1,150,0|0,0:0|0:0,0:0:0:0:
21,13,74597,2,0,L|14:113,1,75,8|0,0:0|0:0,0:0:0:0:
214,54,74828,2,0,L|207:154,1,75,0|0,0:0|0:0,0:0:0:0:
290,288,75059,2,0,L|284:213,1,75,8|0,0:0|0:0,0:0:0:0:
388,320,75290,6,0,L|382:245,1,75,0|8,0:0|0:0,0:0:0:0:
483,23,75521,2,0,L|477:97,1,75,8|0,0:0|0:0,0:0:0:0:
320,127,75751,5,0,0:0:0:0:
473,233,75867,2,0,L|481:347,1,112.5
474,364,76097,6,0,B|430:346|430:346|389:356|389:356|332:338,1,150,4|0,0:0|0:0,0:0:0:0:
162,333,76444,2,0,L|255:345,1,75,8|0,0:0|0:0,0:0:0:0:
351,242,76674,2,0,L|258:254,1,75,0|0,0:0|0:0,0:0:0:0:
163,102,76905,2,0,L|178:220,1,112.5,8|0,0:0|0:0,0:0:0:0:
170,234,77136,6,0,B|131:212|131:212|72:237|72:237|16:209,2,150,0|8|0,0:0|0:0|0:0,0:0:0:0:
269,128,77713,2,0,L|278:30,1,75,0|8,0:0|0:0,0:0:0:0:
153,19,77944,6,0,B|114:84|114:84|180:143,1,150,0|0,0:0|0:0,0:0:0:0:
261,223,78290,2,0,L|346:210,1,75,8|0,0:0|0:0,0:0:0:0:
467,134,78521,2,0,L|382:121,1,75,0|0,0:0|0:0,0:0:0:0:
399,294,78751,1,8,0:0:0:0:
399,294,78982,6,0,L|404:374,1,75,0|0,0:0|0:0,0:0:0:0:
167,257,79213,2,0,L|171:331,1,75,8|0,0:0|0:0,0:0:0:0:
270,365,79444,1,0,0:0:0:0:
335,211,79559,2,0,B|314:174|314:174|225:193,1,112.5,0|0,0:0|0:0,0:0:0:0:
230,190,79790,6,0,B|210:116|210:116|286:69,1,150,4|0,0:0|0:0,0:0:0:0:
363,20,80136,2,0,L|514:38,1,150,8|0,0:0|0:0,0:0:0:0:
504,233,80482,5,0,0:0:0:0:
401,115,80597,2,0,L|415:212,1,75,8|0,0:0|0:0,0:0:0:0:
436,376,80828,1,8,0:0:0:0:
436,376,81290,6,0,L|441:331,1,37.5,8|0,0:0|0:0,0:0:0:0:
350,326,81405,2,0,L|355:281,3,37.5,8|0|0|0,0:0|0:0|0:0|0:0,0:0:0:0:
361,275,81636,5,4,0:0:0:0:
270,230,82213,5,0,0:0:0:0:
250,325,82444,1,8,0:0:0:0:
136,344,82674,1,0,0:0:0:0:
114,194,82905,1,8,0:0:0:0:
2,151,83136,1,0,0:0:0:0:
2,151,83251,1,0,0:0:0:0:
7,245,83482,5,0,0:0:0:0:
209,42,84059,5,0,0:0:0:0:
304,84,84290,1,8,0:0:0:0:
420,39,84521,1,0,0:0:0:0:
460,206,84751,1,8,0:0:0:0:
346,358,84982,1,2,0:0:0:0:
346,358,85097,1,2,0:0:0:0:
244,335,85328,5,0,0:0:0:0:
445,312,85905,5,0,0:0:0:0:
333,210,86137,1,8,0:0:0:0:
136,189,86367,1,0,0:0:0:0:
35,375,86597,1,8,0:0:0:0:
129,335,86828,1,0,0:0:0:0:
129,335,86944,1,0,0:0:0:0:
77,37,87174,5,0,0:0:0:0:
176,51,87751,5,0,0:0:0:0:
150,146,87982,1,8,0:0:0:0:
32,188,88213,1,0,0:0:0:0:
54,338,88444,1,8,0:0:0:0:
263,359,88674,1,2,0:0:0:0:
263,359,88790,1,2,0:0:0:0:
304,262,89021,5,4,0:0:0:0:
391,318,89597,5,0,0:0:0:0:
122,260,89828,1,8,0:0:0:0:
144,137,90059,1,0,0:0:0:0:
360,116,90290,1,8,0:0:0:0:
332,11,90521,1,0,0:0:0:0:
332,11,90636,1,0,0:0:0:0:
41,118,90867,5,0,0:0:0:0:
24,222,91444,5,0,0:0:0:0:
172,159,91674,1,8,0:0:0:0:
304,279,91905,1,0,0:0:0:0:
389,214,92136,1,8,0:0:0:0:
459,341,92367,1,2,0:0:0:0:
459,341,92482,1,2,0:0:0:0:
496,60,92713,5,0,0:0:0:0:
501,159,93290,5,0,0:0:0:0:
394,73,93521,1,8,0:0:0:0:
221,114,93751,1,0,0:0:0:0:
176,337,93982,1,8,0:0:0:0:
281,368,94213,1,0,0:0:0:0:
281,368,94328,1,0,0:0:0:0:
464,244,94559,5,0,0:0:0:0:
31,263,95136,5,0,0:0:0:0:
244,32,95367,1,8,0:0:0:0:
114,331,95597,1,0,0:0:0:0:
301,121,95828,1,8,0:0:0:0:
141,50,96059,1,8,0:0:0:0:
141,50,96174,1,0,0:0:0:0:
477,17,96405,5,4,0:0:0:0:
488,112,96751,2,0,B|410:121|410:121|385:39,5,150,10|0|8|2|8|0,0:0|0:0|0:0|0:0|0:0|0:0,0:0:0:0:
477,17,98021,1,10,0:0:0:0:
410,315,98251,5,0,0:0:0:0:
326,261,98597,2,0,L|491:288,4,150,10|0|8|2|8,0:0|0:0|0:0|0:0|0:0,0:0:0:0:
229,226,99636,2,0,L|236:301,1,75,0|0,0:0|0:0,0:0:0:0:
315,358,99867,1,2,0:0:0:0:
68,55,100097,5,0,0:0:0:0:
7,138,100444,2,0,B|38:208|38:208|120:180,5,150,8|0|10|0|8|0,0:0|0:0|0:0|0:0|0:0|0:0,0:0:0:0:
68,55,101713,1,10,0:0:0:0:
40,328,101944,5,0,0:0:0:0:
135,368,102290,2,0,L|120:196,5,150,8|0|10|0|8|8,0:0|0:0|0:0|0:0|0:0|0:0,0:0:0:0:
242,305,103559,2,0,L|332:317,1,75,0|8,0:0|0:0,0:0:0:0:
450,344,103790,6,0,P|475:298|417:226,1,150,4|0,0:0|0:0,0:0:0:0:
485,151,104136,2,0,P|495:105|507:62,1,75,8|0,0:0|0:0,0:0:0:0:
330,7,104367,2,0,P|339:43|347:79,1,75,0|0,0:0|0:0,0:0:0:0:
427,17,104597,1,8,0:0:0:0:
284,162,104828,6,0,B|179:161|247:123|119:132,2,150,0|8|0,0:0|0:0|0:0,0:0:0:0:
354,234,105405,2,0,P|365:272|368:318,1,75,0|8,0:0|0:0,0:0:0:0:
381,136,105636,6,0,P|411:80|416:-17,1,150,0|0,0:0|0:0,0:0:0:0:
310,47,105982,2,0,L|157:33,2,150,8|0|8,0:0|0:0|0:0,0:0:0:0:
474,197,106674,6,0,P|487:249|502:349,1,150,0|8,0:0|0:0,0:0:0:0:
407,375,107021,1,0,0:0:0:0:
314,344,107136,2,0,P|326:297|329:253,1,75,0|0,0:0|0:0,0:0:0:0:
328,270,107482,6,0,P|291:224|206:273,1,150,4|0,0:0|0:0,0:0:0:0:
14,349,107828,2,0,P|88:338|163:333,1,150,8|0,0:0|0:0,0:0:0:0:
117,246,108174,2,0,P|100:190|99:147,2,75,0|8|0,0:0|0:0|0:0,0:0:0:0:
241,101,108521,6,0,L|214:250,2,150,0|8|0,0:0|0:0|0:0,0:0:0:0:
327,57,109097,2,0,P|372:39|421:42,1,75,0|8,0:0|0:0,0:0:0:0:
238,3,109328,6,0,P|180:26|71:33,1,150,0|0,0:0|0:0,0:0:0:0:
15,156,109674,2,0,B|18:173|31:237,1,75,8|0,0:0|0:0,0:0:0:0:
216,184,109905,2,0,B|227:127|230:110,1,75,8|0,0:0|0:0,0:0:0:0:
129,226,110136,2,0,L|129:317,1,75,8|0,0:0|0:0,0:0:0:0:
179,384,110367,1,8,0:0:0:0:
466,58,111174,6,0,B|449:88|449:88|329:68,1,150,4|0,0:0|0:0,0:0:0:0:
238,49,111521,2,0,L|254:147,1,75,8|0,0:0|0:0,0:0:0:0:
199,276,111751,2,0,L|186:201,1,75,0|0,0:0|0:0,0:0:0:0:
110,315,111982,2,0,L|97:240,1,75,8|0,0:0|0:0,0:0:0:0:
7,90,112213,6,0,B|24:60|24:60|144:80,1,150,0|8,0:0|0:0,0:0:0:0:
304,28,112559,2,0,B|268:24|268:24|237:48,1,75,0|0,0:0|0:0,0:0:0:0:
209,147,112790,2,0,L|197:292,1,112.5,0|0,0:0|0:0,0:0:0:0:
199,276,113021,6,0,B|218:301|218:301|348:280,1,150,0|0,0:0|0:0,0:0:0:0:
430,260,113367,2,0,L|418:347,1,75,8|0,0:0|0:0,0:0:0:0:
479,163,113597,2,0,B|491:86|491:86|423:65,1,150,0|8,0:0|0:0,0:0:0:0:
423,65,114059,6,0,B|354:76|354:76|349:69|349:69|257:82,1,150,0|8,0:0|0:0,0:0:0:0:
108,49,114405,2,0,B|97:86|97:86|127:121,1,75,0|0,0:0|0:0,0:0:0:0:
260,172,114636,1,0,0:0:0:0:
260,172,114867,6,0,L|242:334,1,150,4|0,0:0|0:0,0:0:0:0:
162,376,115213,2,0,L|151:289,1,75,8|0,0:0|0:0,0:0:0:0:
351,305,115444,2,0,L|340:218,1,75,0|0,0:0|0:0,0:0:0:0:
448,325,115674,2,0,L|437:238,1,75,8|0,0:0|0:0,0:0:0:0:
260,172,115905,6,0,L|271:85,1,75,0|0,0:0|0:0,0:0:0:0:
168,126,116136,2,0,L|179:39,1,75,8|0,0:0|0:0,0:0:0:0:
360,23,116367,2,0,L|369:97,1,75,0|0,0:0|0:0,0:0:0:0:
369,97,116713,6,0,B|406:127|406:127|381:255,1,150,0|0,0:0|0:0,0:0:0:0:
205,273,117059,2,0,L|220:373,1,75,8|0,0:0|0:0,0:0:0:0:
319,325,117290,2,0,B|385:328|385:328|398:338|398:338|483:343,1,150,0|8,0:0|0:0,0:0:0:0:
465,341,117751,6,0,B|483:307|483:307|470:247,1,75,0|8,0:0|0:0,0:0:0:0:
285,145,117982,2,0,B|277:180|277:180|294:215,1,75,8|0,0:0|0:0,0:0:0:0:
490,34,118213,5,0,0:0:0:0:
498,175,118328,2,0,L|360:160,1,112.5,0|0,0:0|0:0,0:0:0:0:
372,169,118559,6,0,B|381:106|381:106|394:97|394:97|406:15,1,150,4|0,0:0|0:0,0:0:0:0:
171,26,118905,2,0,L|185:107,1,75,8|0,0:0|0:0,0:0:0:0:
286,122,119136,2,0,L|277:48,1,75,0|0,0:0|0:0,0:0:0:0:
207,198,119367,2,0,L|120:184,1,75,8|0,0:0|0:0,0:0:0:0:
92,358,119597,6,0,B|96:284|96:284|24:263,2,150,0|8|0,0:0|0:0|0:0,0:0:0:0:
184,323,120174,2,0,L|332:313,1,112.5,0|0,0:0|0:0,0:0:0:0:
310,330,120405,6,0,B|343:263|343:263|429:292,1,150,0|0,0:0|0:0,0:0:0:0:
510,154,120751,2,0,L|491:249,1,75,8|0,0:0|0:0,0:0:0:0:
395,30,120982,2,0,L|407:180,1,150,0|8,0:0|0:0,0:0:0:0:
407,179,121444,6,0,L|309:163,1,75,0|0,0:0|0:0,0:0:0:0:
204,247,121674,2,0,L|106:230,1,75,8|0,0:0|0:0,0:0:0:0:
30,80,121905,1,0,0:0:0:0:
133,9,122021,2,0,B|146:32|146:32|132:146,1,112.5,0|0,0:0|0:0,0:0:0:0:
126,135,122251,6,0,B|191:134|191:134|213:144|213:144|301:140,1,150,4|0,0:0|0:0,0:0:0:0:
459,91,122597,2,0,B|482:71|482:71|463:201,1,150,8|0,0:0|0:0,0:0:0:0:
264,235,122944,5,0,0:0:0:0:
355,67,123059,2,0,L|363:152,1,75,8|0,0:0|0:0,0:0:0:0:
387,333,123290,1,8,0:0:0:0:
387,333,123751,6,0,L|331:327,1,37.5,8|0,0:0|0:0,0:0:0:0:
247,369,123867,2,0,L|191:375,3,37.5,8|0|0|0,0:0|0:0|0:0|0:0,0:0:0:0:
195,364,124097,5,4,0:0:0:0:
85,344,124444,1,8,0:0:0:0:
66,199,124674,1,0,0:0:0:0:
259,152,124905,1,8,0:0:0:0:
288,48,125136,5,0,0:0:0:0:
18,12,125367,1,8,0:0:0:0:
18,12,125482,1,0,0:0:0:0:
368,124,125713,1,0,0:0:0:0:
66,199,125944,6,0,B|154:149|154:149|100:360,1,300,4|0,0:0|0:0,0:0:0:0:
5,379,126521,2,0,B|153:399|87:328|233:352,1,225,4|0,0:0|0:0,0:0:0:0:
274,196,126982,1,6,0:0:0:0:
256,192,127040,12,0,127790,0:0:0:0:
256,192,140713,12,0,141751,0:0:0:0:
77,74,142559,5,4,0:0:0:0:
77,74,143136,1,0,0:0:0:0:
77,74,143597,1,0,0:0:0:0:
77,74,144059,1,0,0:0:0:0:
82,170,144405,5,0,0:0:0:0:
82,170,144982,1,0,0:0:0:0:
82,170,145444,1,0,0:0:0:0:
82,170,145905,1,0,0:0:0:0:
82,170,146021,1,0,0:0:0:0:
250,194,146251,5,0,0:0:0:0:
250,194,146828,1,0,0:0:0:0:
250,194,147290,1,0,0:0:0:0:
250,194,147751,1,0,0:0:0:0:
275,85,148097,5,0,0:0:0:0:
275,85,148674,1,0,0:0:0:0:
275,85,149136,1,0,0:0:0:0:
275,85,149597,1,0,0:0:0:0:
288,260,149713,1,0,0:0:0:0:
288,260,149944,6,0,B|361:286|361:286|397:212,1,150,4|0,0:0|0:0,0:0:0:0:
484,198,150290,2,0,L|469:35,5,150,8|0|8|0|8|0,0:0|0:0|0:0|0:0|0:0|0:0,0:0:0:0:
368,88,151559,1,0,0:0:0:0:
368,88,151790,6,0,P|309:77|192:61,1,150,0|0,0:0|0:0,0:0:0:0:
136,126,152136,2,0,B|61:146|61:146|25:57,5,150,8|0|8|0|8|0,0:0|0:0|0:0|0:0|0:0|0:0,0:0:0:0:
119,31,153405,1,0,0:0:0:0:
119,31,153636,6,0,L|95:264,2,225,0|8|0,0:0|0:0|0:0,0:0:0:0:
212,83,154444,2,0,B|229:49|229:49|212:1,2,75,0|0|0,0:0|0:0|0:0,0:0:0:0:
259,218,155482,6,0,L|92:195,1,150,4|0,0:0|0:0,0:0:0:0:
5,140,155828,2,0,L|11:231,1,75,8|0,0:0|0:0,0:0:0:0:
99,365,156059,1,0,0:0:0:0:
99,365,156290,2,0,L|115:279,1,75,8|0,0:0|0:0,0:0:0:0:
263,363,156521,6,0,B|301:299|301:299|238:222,1,150,2|8,0:0|0:0,0:0:0:0:
162,204,156867,1,0,0:0:0:0:
355,123,156982,2,0,L|340:228,1,75,0|0,0:0|0:0,0:0:0:0:
344,197,157328,6,0,B|369:222|369:222|493:205,1,150,0|0,0:0|0:0,0:0:0:0:
454,41,157674,2,0,L|444:115,1,75,8|0,0:0|0:0,0:0:0:0:
349,20,157905,2,0,B|272:9|272:9|246:103,1,150,0|8,0:0|0:0,0:0:0:0:
252,78,158367,6,0,L|265:250,2,150,2|8|0,0:0|0:0|0:0,0:0:0:0:
109,33,158944,2,0,B|147:22|147:22|168:72,1,75,0|0,0:0|0:0,0:0:0:0:
159,188,159174,6,0,L|4:167,1,150,6|2,0:0|0:0,0:0:0:0:
45,263,159521,2,0,L|120:274,1,75,8|0,0:0|0:0,0:0:0:0:
8,351,159751,2,0,L|157:372,1,150,0|8,0:0|0:0,0:0:0:0:
435,361,160213,6,0,B|468:293|468:293|403:233,1,150,0|8,0:0|0:0,0:0:0:0:
349,316,160559,1,0,0:0:0:0:
265,162,160674,2,0,L|361:180,1,75,0|8,0:0|0:0,0:0:0:0:
338,175,161021,6,0,B|367:144|367:144|353:24,1,150,4|0,0:0|0:0,0:0:0:0:
447,77,161367,2,0,L|460:172,1,75,8|0,0:0|0:0,0:0:0:0:
257,21,161597,2,0,L|270:116,1,75,0|0,0:0|0:0,0:0:0:0:
163,60,161828,2,0,L|176:155,1,75,8|0,0:0|0:0,0:0:0:0:
147,318,162059,6,0,L|134:223,1,75,0|0,0:0|0:0,0:0:0:0:
49,301,162290,2,0,L|36:206,1,75,8|0,0:0|0:0,0:0:0:0:
241,215,162521,5,0,0:0:0:0:
232,368,162636,2,0,L|356:353,1,112.5,0|0,0:0|0:0,0:0:0:0:
356,365,162867,6,0,B|373:383|373:383|504:367,1,150,4|0,0:0|0:0,0:0:0:0:
500,216,163213,2,0,L|489:130,1,75,8|0,0:0|0:0,0:0:0:0:
411,276,163444,2,0,L|393:118,2,150,0|8|0,0:0|0:0|0:0,0:0:0:0:
463,32,164136,5,8,0:0:0:0:
369,116,164251,2,0,L|276:103,1,75,0|0,0:0|0:0,0:0:0:0:
221,20,164482,2,0,B|208:40|208:40|102:25,1,112.5,0|0,0:0|0:0,0:0:0:0:
106,22,164713,6,0,B|66:90|66:90|130:157,1,150,0|0,0:0|0:0,0:0:0:0:
275,189,165059,2,0,L|263:85,1,75,8|0,0:0|0:0,0:0:0:0:
191,285,165290,2,0,L|179:181,1,75,0|0,0:0|0:0,0:0:0:0:
20,248,165521,2,0,L|8:144,1,75,8|0,0:0|0:0,0:0:0:0:
108,383,165751,6,0,L|96:279,1,75,0|0,0:0|0:0,0:0:0:0:
286,341,165982,1,8,0:0:0:0:
286,341,166097,2,0,B|306:293|306:293|424:320,1,150,0|0,0:0|0:0,0:0:0:0:
503,351,166444,1,8,0:0:0:0:
451,227,166559,6,0,B|461:167|461:167|481:150|481:150|493:68,1,150,6|0,0:0|0:0,0:0:0:0:
283,59,166905,2,0,L|295:138,1,75,8|0,0:0|0:0,0:0:0:0:
372,19,167136,2,0,L|461:7,1,75,0|0,0:0|0:0,0:0:0:0:
335,225,167367,2,0,L|246:213,1,75,8|0,0:0|0:0,0:0:0:0:
178,105,167597,6,0,B|108:132|108:132|58:57,2,150,0|8|0,0:0|0:0|0:0,0:0:0:0:
148,11,168174,2,0,L|241:2,1,75,0|0,0:0|0:0,0:0:0:0:
169,206,168405,6,0,L|153:370,1,150,6|0,0:0|0:0,0:0:0:0:
56,215,168751,2,0,L|67:303,1,75,8|0,0:0|0:0,0:0:0:0:
256,272,168982,2,0,L|267:360,1,75,0|0,0:0|0:0,0:0:0:0:
454,202,169213,2,0,L|465:290,1,75,8|0,0:0|0:0,0:0:0:0:
344,156,169444,6,0,L|355:244,1,75,0|0,0:0|0:0,0:0:0:0:
154,199,169674,2,0,L|165:287,1,75,8|0,0:0|0:0,0:0:0:0:
228,41,169905,2,0,L|238:116,2,75,0|0|8,0:0|0:0|0:0,0:0:0:0:
436,44,170251,6,0,B|478:30|478:30|444:158,1,150,14|0,0:0|0:0,0:0:0:0:
492,318,170597,2,0,L|401:305,1,75,8|0,0:0|0:0,0:0:0:0:
211,204,170828,2,0,L|286:194,1,75,12|0,0:0|0:0,0:0:0:0:
338,365,171059,2,0,L|263:375,1,75,8|0,0:0|0:0,0:0:0:0:
10,272,171290,5,0,0:0:0:0:
470,44,171521,2,0,B|485:55|485:55|471:81,12,37.5,12|0|0|0|0|0|0|0|0|0|0|0|0,0:0|0:0|0:0|0:0|0:0|0:0|0:0|0:0|0:0|0:0|0:0|0:0|0:0,0:0:0:0:
