osu file format v14

[General]
AudioFilename: audio.mp3
AudioLeadIn: 0
PreviewTime: 3922
Countdown: 0
SampleSet: Normal
StackLeniency: 0.7
Mode: 0
LetterboxInBreaks: 0
WidescreenStoryboard: 1

[Editor]
DistanceSpacing: 0.2
BeatDivisor: 4
GridSize: 4
TimelineZoom: 3.199999

[Metadata]
Title:Heisei Sayonara Bye Bye
TitleUnicode:ヘイセイサヨナラバイバイ
Artist:Zips
ArtistUnicode:じっぷす
Creator:Awaken
Version:Leader's Extra
Source:ヘイセイプロジェクト
Tags:vocaloid 平成project heisei project gumi グミ len fast leader kyshiro japanese rock jippusu pusu nanase not-116
BeatmapID:2260847
BeatmapSetID:971417

[Difficulty]
HPDrainRate:5
CircleSize:4
OverallDifficulty:8.5
ApproachRate:9.3
SliderMultiplier:1.7
SliderTickRate:1

[Events]
//Background and Video events
Video,-484,"synr.mp4"
0,0,"rre.jpg",0,0
//Break Periods
2,2105,2967
2,142759,149043
//Storyboard Layer 0 (Background)
//Storyboard Layer 1 (Fail)
//Storyboard Layer 2 (Pass)
//Storyboard Layer 3 (Foreground)
//Storyboard Layer 4 (Overlay)
//Storyboard Sound Samples

[TimingPoints]
521,230.769230769231,4,1,1,40,1,0
521,-100,4,1,1,40,0,0
3521,-100,4,1,1,30,0,0
3867,-100,4,1,1,30,0,0
4097,-100,4,1,1,70,0,1
16790,-100,4,1,1,70,0,1
17021,-125,4,1,1,70,0,0
24405,-125,4,1,1,50,0,0
53944,-125,4,1,1,40,0,0
54059,-166.666666666667,4,1,1,50,0,0
61328,-100,4,1,1,50,0,0
66867,-100,4,1,1,55,0,0
67155,-100,4,1,1,55,0,0
67386,-100,4,1,1,55,0,0
67617,-100,4,1,1,55,0,0
67905,-100,4,1,1,55,0,0
68713,-100,4,1,1,70,0,1
81405,-100,4,1,1,70,0,1
81636,-125,4,1,1,70,0,0
96174,-125,4,1,1,40,0,0
96405,-166.666666666667,4,1,1,70,0,0
102867,-166.666666666667,4,1,1,50,0,0
103790,-100,4,1,1,70,0,0
109328,-100,4,1,1,55,0,0
109674,-100,4,1,1,55,0,0
109847,-100,4,1,1,55,0,0
110078,-100,4,1,1,55,0,0
111174,-100,4,1,1,70,0,1
123867,-100,4,1,1,70,0,1
125136,-100,4,1,1,70,0,1
127328,-100,4,1,1,70,0,0
127790,-100,4,1,1,70,0,1
129290,-166.666666666667,4,1,1,70,0,1
129636,-100,4,1,1,70,0,1
131136,-100,4,1,1,70,0,0
131597,-100,4,1,1,70,0,1
134828,-100,4,1,1,70,0,0
135174,-100,4,1,1,70,0,1
138290,-100,4,1,1,70,0,0
138867,-100,4,1,1,70,0,1
141001,-100,4,1,1,70,0,1
141290,-100,4,1,1,70,0,1
141463,-100,4,1,1,70,0,1
141751,-333.333333333333,4,1,1,70,0,0
142559,-100,4,1,1,50,0,0
149597,-100,4,1,1,40,0,0
149944,-100,4,3,1,40,0,0
150174,-125,4,3,1,40,0,0
154847,-100,4,1,1,5,0,0
154905,-100,4,1,1,50,0,0
155194,-100,4,1,1,5,0,0
155251,-100,4,1,1,50,0,0
155424,-100,4,1,1,5,0,0
155482,-100,4,1,1,70,0,1
158944,-100,4,1,1,70,0,1
159174,-100,4,1,1,70,0,1
162694,-100,4,1,1,70,0,0
162867,-100,4,1,1,70,0,1
166501,-100,4,1,1,70,0,0
166559,-100,4,1,1,70,0,1
168347,-100,4,1,1,70,0,0
168405,-100,4,1,1,70,0,1
170194,-100,4,1,1,70,0,0
170251,-100,4,1,1,70,0,1
171290,-100,4,1,1,70,0,0
171521,-333.333333333333,4,1,1,70,0,1
171578,-100,4,1,1,70,0,0
171751,-100,4,1,1,5,0,0

[Colours]
Combo1 : 255,111,111
Combo2 : 85,255,85
Combo3 : 162,162,255
Combo4 : 81,187,206
Combo5 : 255,255,17

[HitObjects]
203,198,521,6,0,P|184:118|214:5,1,170,0|8,0:0|0:0,0:0:0:0:
312,32,982,2,0,P|328:115|309:198,1,170,0|8,0:0|0:0,0:0:0:0:
259,321,1444,2,0,L|429:342,1,170,0|8,0:0|0:0,0:0:0:0:
363,244,1790,1,0,0:0:0:0:
166,360,1905,1,0,0:0:0:0:
85,28,3521,6,0,P|135:9|140:131,1,212.5,8|0,0:0|0:0,0:0:0:0:
81,112,3867,2,0,L|92:241,1,127.5,0|0,0:0|0:0,0:0:0:0:
105,321,4097,1,4,0:0:0:0:
105,321,4213,6,0,B|189:302|188:355|287:333,1,170,0|8,0:0|0:0,0:0:0:0:
398,312,4559,1,0,0:0:0:0:
317,240,4674,2,0,L|308:130,1,85,0|0,0:0|0:0,0:0:0:0:
335,66,4905,2,0,P|290:66|230:90,1,85,8|0,0:0|0:0,0:0:0:0:
51,227,5136,6,0,P|114:234|193:150,1,170,0|8,0:0|0:0,0:0:0:0:
85,143,5482,1,0,0:0:0:0:
240,320,5597,2,0,L|333:331,1,85,0|0,0:0|0:0,0:0:0:0:
496,275,5828,1,8,0:0:0:0:
390,241,5944,6,0,P|374:156|414:76,1,170,0|0,0:0|0:0,0:0:0:0:
469,167,6290,1,8,0:0:0:0:
469,167,6405,1,0,0:0:0:0:
310,275,6521,2,0,B|228:258|230:318|115:289,1,170,0|8,0:0|0:0,0:0:0:0:
52,82,6867,5,0,0:0:0:0:
52,82,6982,2,0,P|139:97|166:185,1,170,0|8,0:0|0:0,0:0:0:0:
69,176,7328,1,0,0:0:0:0:
186,281,7444,1,0,0:0:0:0:
70,186,7559,1,0,0:0:0:0:
47,329,7674,1,8,0:0:0:0:
197,274,7790,6,0,B|283:255|283:255|359:302,1,170,4|0,0:0|0:0,0:0:0:0:
307,81,8136,2,0,L|294:182,1,85,8|0,0:0|0:0,0:0:0:0:
210,123,8367,2,0,P|157:138|51:70,1,170,0|8,0:0|0:0,0:0:0:0:
141,45,8713,1,0,0:0:0:0:
266,213,8828,6,0,B|343:192|357:249|450:222,1,170,0|8,0:0|0:0,0:0:0:0:
406,135,9174,1,0,0:0:0:0:
305,313,9290,1,0,0:0:0:0:
305,313,9405,2,0,L|219:322,1,85,0|8,0:0|0:0,0:0:0:0:
18,200,9636,6,0,P|101:194|174:243,1,170,0|0,0:0|0:0,0:0:0:0:
289,156,9982,1,8,0:0:0:0:
289,156,10040,1,0,0:0:0:0:
289,156,10097,1,0,0:0:0:0:
407,268,10213,2,0,L|416:356,1,85,0|0,0:0|0:0,0:0:0:0:
461,179,10444,2,0,L|471:94,1,85,8|0,0:0|0:0,0:0:0:0:
300,247,10674,6,0,B|219:234|219:234|145:283,1,170,0|8,0:0|0:0,0:0:0:0:
52,128,11021,1,0,0:0:0:0:
52,128,11078,1,0,0:0:0:0:
52,128,11136,2,0,L|61:224,1,85,0|0,0:0|0:0,0:0:0:0:
64,352,11367,1,0,0:0:0:0:
174,309,11482,6,0,B|257:291|254:344|349:327,1,170,4|0,0:0|0:0,0:0:0:0:
471,311,11828,1,8,0:0:0:0:
385,239,11944,1,0,0:0:0:0:
476,180,12059,2,0,P|465:126|467:85,1,85
357,44,12290,2,0,P|309:76|232:42,1,127.5,8|0,0:0|0:0,0:0:0:0:
218,47,12521,6,0,L|395:62,1,170,0|8,0:0|0:0,0:0:0:0:
476,180,12867,1,0,0:0:0:0:
476,180,12982,2,0,L|366:193,1,85,0|0,0:0|0:0,0:0:0:0:
198,221,13213,1,8,0:0:0:0:
179,142,13328,6,0,P|240:145|266:251,1,170,0|0,0:0|0:0,0:0:0:0:
141,291,13674,1,8,0:0:0:0:
311,327,13790,1,0,0:0:0:0:
311,327,13847,1,0,0:0:0:0:
311,327,13905,2,0,L|406:338,1,85,0|0,0:0|0:0,0:0:0:0:
470,264,14136,1,8,0:0:0:0:
117,42,14367,6,0,P|110:100|137:182,1,127.5,0|0,0:0|0:0,0:0:0:0:
186,220,14597,2,0,L|282:228,1,85,8|0,0:0|0:0,0:0:0:0:
374,111,14828,1,0,0:0:0:0:
374,111,14944,2,0,L|278:119,1,85,0|8,0:0|0:0,0:0:0:0:
63,318,15174,6,0,B|122:310|122:310|177:336|177:336|241:328,1,170,4|0,0:0|0:0,0:0:0:0:
456,146,15521,2,0,P|404:198|305:173,1,170,8|0,0:0|0:0,0:0:0:0:
206,73,15867,1,0,0:0:0:0:
206,73,15982,2,0,L|213:167,1,85,8|0,0:0|0:0,0:0:0:0:
398,352,16213,6,0,L|408:178,1,170,8|8,0:0|0:0,0:0:0:0:
482,96,16559,1,0,0:0:0:0:
323,175,16674,2,0,B|242:149|243:212|137:188,1,170,8|0,0:0|0:0,0:0:0:0:
61,307,17021,6,0,L|207:323,1,136,4|0,0:0|0:0,0:0:0:0:
289,331,17367,1,8,0:0:0:0:
289,331,17597,1,0,0:0:0:0:
369,359,17713,1,0,0:0:0:0:
431,297,17828,2,0,P|438:259|438:215,1,68,8|0,0:0|0:0,0:0:0:0:
404,122,18059,5,0,0:0:0:0:
404,122,18290,2,0,P|361:136|324:140,1,68,8|0,0:0|0:0,0:0:0:0:
187,46,18521,2,0,L|331:59,1,136,0|8,0:0|0:0,0:0:0:0:
387,212,18867,6,0,B|317:200|317:245|236:223,1,136,2|0,0:0|0:0,0:0:0:0:
274,150,19213,2,0,L|266:72,1,68,8|0,0:0|0:0,0:0:0:0:
356,294,19444,1,0,0:0:0:0:
356,294,19559,2,0,L|347:363,2,68,0|8|0,0:0|0:0|0:0,0:0:0:0:
412,225,19905,6,2,P|349:210|278:262,1,136,0|8,0:0|0:0,0:0:0:0:
238,305,20251,1,0,0:0:0:0:
238,305,20367,2,0,L|81:323,1,136,0|8,0:0|0:0,0:0:0:0:
33,190,20713,5,4,0:0:0:0:
33,190,20944,2,0,L|25:123,2,68,0|8|0,0:0|0:0|0:0,0:0:0:0:
22,276,21290,1,0,0:0:0:0:
113,219,21405,2,0,P|158:203|192:198,1,68,0|8,0:0|0:0,0:0:0:0:
178,288,21636,6,2,L|322:302,1,136,0|0,0:0|0:0,0:0:0:0:
423,355,21982,2,0,L|337:365,1,68,8|0,0:0|0:0,0:0:0:0:
183,164,22213,2,0,P|244:162|294:224,1,136,0|8,0:0|0:0,0:0:0:0:
319,298,22559,5,4,0:0:0:0:
319,298,22790,2,0,L|394:290,2,68,0|8|0,0:0|0:0|0:0,0:0:0:0:
239,360,23136,2,0,B|173:343|172:385|86:369,1,136,0|8,0:0|0:0,0:0:0:0:
27,326,23482,1,8,0:0:0:0:
27,326,23713,1,0,0:0:0:0:
125,299,23828,1,8,0:0:0:0:
45,239,23944,1,0,0:0:0:0:
125,299,24059,5,0,0:0:0:0:
125,299,24405,6,0,P|137:231|100:161,1,136,4|0,0:0|0:0,0:0:0:0:
35,134,24751,2,0,P|92:145|167:83,2,136,8|0|8,0:0|0:0|0:0,0:0:0:0:
82,59,25328,1,0,0:0:0:0:
195,197,25444,2,0,L|205:284,1,68,0|0,0:0|0:0,0:0:0:0:
105,348,25674,1,8,0:0:0:0:
105,348,25790,1,0,0:0:0:0:
105,348,25905,2,0,L|98:265,1,68,0|0,0:0|0:0,0:0:0:0:
91,195,26136,1,8,0:0:0:0:
208,333,26251,6,0,P|262:342|298:345,1,68,0|0,0:0|0:0,0:0:0:0:
454,259,26482,1,0,0:0:0:0:
454,259,26597,2,0,P|460:206|461:119,2,136,8|0|8,0:0|0:0|0:0,0:0:0:0:
372,357,27174,1,0,0:0:0:0:
238,264,27290,6,0,P|193:255|149:250,1,68,0|0,0:0|0:0,0:0:0:0:
67,183,27521,1,8,0:0:0:0:
67,183,27578,1,0,0:0:0:0:
67,183,27636,1,0,0:0:0:0:
159,162,27751,1,2,0:0:0:0:
256,146,27867,1,2,0:0:0:0:
256,146,28097,6,0,L|240:-7,1,136,0|0,0:0|0:0,0:0:0:0:
173,67,28444,2,0,P|126:76|37:21,2,136,8|0|8,0:0|0:0|0:0,0:0:0:0:
263,36,29021,1,0,0:0:0:0:
348,89,29136,6,0,L|357:174,1,68,0|0,0:0|0:0,0:0:0:0:
478,234,29367,2,0,L|403:244,1,68,8|0,0:0|0:0,0:0:0:0:
315,256,29597,1,0,0:0:0:0:
315,256,29713,1,0,0:0:0:0:
315,256,29828,1,8,0:0:0:0:
233,338,29944,6,0,P|166:339|106:278,1,136,0|0,0:0|0:0,0:0:0:0:
199,183,30290,1,8,0:0:0:0:
199,183,30405,1,0,0:0:0:0:
199,183,30521,2,0,L|194:253,1,68,0|0,0:0|0:0,0:0:0:0:
109,132,30751,2,0,L|105:61,1,68,8|0,0:0|0:0,0:0:0:0:
299,194,30982,6,0,P|368:203|432:153,1,136,0|8,0:0|0:0,0:0:0:0:
467,249,31328,1,0,0:0:0:0:
351,115,31444,1,2,0:0:0:0:
295,295,31559,2,0,L|225:307,1,68,2|0,0:0|0:0,0:0:0:0:
158,367,31790,6,0,P|141:328|156:237,1,136,4|0,0:0|0:0,0:0:0:0:
80,211,32136,2,0,L|219:211,2,136,8|0|8,0:0|0:0|0:0,0:0:0:0:
182,130,32713,1,0,0:0:0:0:
269,311,32828,2,0,L|344:320,1,68,0|0,0:0|0:0,0:0:0:0:
472,237,33059,2,0,L|397:246,1,68,8|0,0:0|0:0,0:0:0:0:
330,205,33290,1,0,0:0:0:0:
426,334,33405,1,0,0:0:0:0:
426,334,33521,1,8,0:0:0:0:
330,205,33636,6,0,P|310:141|336:77,1,136,0|0,0:0|0:0,0:0:0:0:
463,135,33982,2,0,L|391:147,1,68,8|0,0:0|0:0,0:0:0:0:
168,76,34213,1,0,0:0:0:0:
242,37,34328,1,0,0:0:0:0:
236,128,34444,2,0,P|235:164|230:218,1,68,8|0,0:0|0:0,0:0:0:0:
189,274,34674,6,0,P|250:282|315:226,1,136,0|8,0:0|0:0,0:0:0:0:
307,240,35136,1,2,0:0:0:0:
398,255,35251,1,2,0:0:0:0:
484,266,35367,1,0,0:0:0:0:
360,177,35482,6,0,P|341:115|361:43,1,136,0|0,0:0|0:0,0:0:0:0:
417,115,35828,2,0,L|279:117,2,136,8|0|8,0:0|0:0|0:0,0:0:0:0:
474,39,36405,1,0,0:0:0:0:
370,207,36521,2,0,L|293:221,1,68,0|0,0:0|0:0,0:0:0:0:
312,310,36751,2,0,L|245:297,1,68,8|0,0:0|0:0,0:0:0:0:
160,237,36982,2,0,P|152:201|151:163,2,68,0|0|8,0:0|0:0|0:0,0:0:0:0:
445,357,37328,6,0,P|462:285|449:219,1,136,2|0,0:0|0:0,0:0:0:0:
346,118,37674,1,8,0:0:0:0:
346,118,37790,1,0,0:0:0:0:
346,118,37905,2,0,L|351:203,1,68,0|0,0:0|0:0,0:0:0:0:
462,87,38136,1,8,0:0:0:0:
392,39,38252,1,0,0:0:0:0:
266,144,38367,6,0,P|231:141|188:132,1,68,0|0,0:0|0:0,0:0:0:0:
78,66,38597,2,0,L|153:54,1,68,8|8,0:0|0:0,0:0:0:0:
290,238,38828,2,0,B|242:241|242:241|208:265|208:265|160:268,1,136,8|0,0:0|0:0,0:0:0:0:
14,142,39174,6,0,P|76:145|116:214,1,136,4|0,0:0|0:0,0:0:0:0:
199,354,39521,2,0,L|345:344,2,136,8|0|8,0:0|0:0|0:0,0:0:0:0:
104,355,40097,1,0,0:0:0:0:
157,273,40213,6,0,P|149:234|133:187,1,68,0|0,0:0|0:0,0:0:0:0:
56,172,40444,2,0,P|112:175|174:111,1,136,8|0,0:0|0:0,0:0:0:0:
89,90,40790,1,0,0:0:0:0:
89,90,40905,1,8,0:0:0:0:
223,209,41021,2,0,L|373:227,1,136,0|0,0:0|0:0,0:0:0:0:
406,95,41366,6,0,L|404:166,1,68,8|0,0:0|0:0,0:0:0:0:
398,373,41597,2,0,L|391:292,1,68
472,237,41828,1,8,0:0:0:0:
472,237,41944,1,0,0:0:0:0:
279,311,42059,6,0,P|217:316|145:252,1,136,0|8,0:0|0:0,0:0:0:0:
157,276,42521,1,2,0:0:0:0:
83,301,42636,1,2,0:0:0:0:
5,324,42751,1,0,0:0:0:0:
104,221,42867,6,0,P|122:163|90:82,1,136,0|0,0:0|0:0,0:0:0:0:
44,163,43213,2,0,L|195:162,2,136,8|0|8,0:0|0:0|0:0,0:0:0:0:
76,79,43790,1,0,0:0:0:0:
121,245,43905,2,0,L|194:255,1,68,0|0,0:0|0:0,0:0:0:0:
272,358,44136,2,0,L|199:368,1,68,8|0,0:0|0:0,0:0:0:0:
341,271,44367,2,0,L|420:280,2,68,0|0|8,0:0|0:0|0:0,0:0:0:0:
252,192,44713,6,0,P|237:135|257:56,1,136
397,119,45059,1,8,0:0:0:0:
397,119,45174,1,0,0:0:0:0:
397,119,45290,2,0,L|323:128,1,68,0|0,0:0|0:0,0:0:0:0:
341,271,45521,2,0,L|415:280,1,68,8|0,0:0|0:0,0:0:0:0:
252,192,45751,6,0,P|188:187|119:222,1,136,0|8,0:0|0:0,0:0:0:0:
124,217,46213,1,2,0:0:0:0:
209,278,46328,1,2,0:0:0:0:
252,192,46444,1,0,0:0:0:0:
435,356,46559,6,0,P|437:300|447:202,1,136,4|0,0:0|0:0,0:0:0:0:
512,158,46905,2,0,P|447:130|380:147,2,136,8|0|8,0:0|0:0|0:0,0:0:0:0:
444,220,47482,1,0,0:0:0:0:
385,284,47597,2,0,L|319:297,1,68,0|0,0:0|0:0,0:0:0:0:
297,213,47828,2,0,L|231:200,1,68,8|0,0:0|0:0,0:0:0:0:
205,316,48059,2,0,L|139:329,2,68,0|0|8,0:0|0:0|0:0,0:0:0:0:
297,213,48405,6,0,P|310:153|284:79,1,136,0|0,0:0|0:0,0:0:0:0:
220,157,48751,2,0,L|145:169,1,68,8|0,0:0|0:0,0:0:0:0:
60,52,48982,2,0,P|74:92|81:128,1,68,0|0,0:0|0:0,0:0:0:0:
66,314,49213,2,0,P|73:280|85:249,1,68,8|0,0:0|0:0,0:0:0:0:
220,157,49444,6,0,B|284:145|285:188|365:179,1,136,0|8,0:0|0:0,0:0:0:0:
436,142,49790,1,0,0:0:0:0:
436,142,49847,1,0,0:0:0:0:
436,142,49905,2,0,L|441:72,2,68,0|0|8,0:0|0:0|0:0,0:0:0:0:
393,292,50251,6,0,L|255:305,1,136,0|0,0:0|0:0,0:0:0:0:
192,371,50597,2,0,P|171:320|195:237,1,136,8|0,0:0|0:0,0:0:0:0:
284,149,50944,2,0,L|280:227,1,68,0|8,0:0|0:0,0:0:0:0:
234,77,51174,1,0,0:0:0:0:
234,77,51290,2,0,P|272:67|303:62,1,68,0|0,0:0|0:0,0:0:0:0:
449,171,51521,2,0,P|411:161|380:156,1,68,8|0,0:0|0:0,0:0:0:0:
322,305,51751,2,0,L|313:237,2,68,0|0|8,0:0|0:0|0:0,0:0:0:0:
241,348,52097,6,0,P|171:359|109:306,1,136,0|0,0:0|0:0,0:0:0:0:
128,177,52443,1,8,0:0:0:0:
188,277,52559,1,0,0:0:0:0:
265,196,52674,2,0,L|273:118,1,68,0|0,0:0|0:0,0:0:0:0:
181,25,52905,2,0,L|187:92,1,68,8|0,0:0|0:0,0:0:0:0:
313,281,53136,6,0,B|359:285|359:285|392:313|392:313|447:319,1,136,0|8,0:0|0:0,0:0:0:0:
438,318,53597,1,8,0:0:0:0:
486,136,53713,1,0,0:0:0:0:
459,224,53828,1,0,0:0:0:0:
391,161,53944,1,4,0:0:0:0:
328,356,54059,6,0,L|261:363,1,50.9999984436036,0|0,0:0|0:0,0:0:0:0:
138,311,54290,1,10,0:0:0:0:
138,311,54405,1,0,0:0:0:0:
138,311,54521,2,0,L|205:304,1,50.9999984436036,0|0,0:0|0:0,0:0:0:0:
258,225,54751,2,0,P|266:169|260:115,2,101.999996887207,8|0|10,0:0|0:0|0:0,0:0:0:0:
72,347,55444,5,0,0:0:0:0:
72,347,55559,2,0,L|67:284,1,50.9999984436036,10|0,0:0|0:0,0:0:0:0:
130,184,55790,2,0,L|135:247,1,50.9999984436036,0|0,0:0|0:0,0:0:0:0:
202,303,56021,1,0,0:0:0:0:
202,303,56136,2,0,P|243:305|281:333,1,76.4999976654053,10|0,0:0|0:0,0:0:0:0:
295,340,56367,2,0,L|357:350,1,50.9999984436036,0|0,0:0|0:0,0:0:0:0:
448,250,56597,2,0,L|436:309,1,50.9999984436036,8|0,0:0|0:0,0:0:0:0:
346,235,56828,2,0,P|334:195|334:128,1,101.999996887207,2|8,0:0|0:0,0:0:0:0:
447,45,57174,5,0,0:0:0:0:
447,45,57232,1,0,0:0:0:0:
447,45,57290,2,0,L|442:102,1,50.9999984436036,0|10,0:0|0:0,0:0:0:0:
346,235,57521,1,0,0:0:0:0:
346,235,57636,2,0,L|341:184,1,50.9999984436036,0|0,0:0|0:0,0:0:0:0:
209,48,57867,5,0,0:0:0:0:
209,48,57982,2,0,L|218:150,1,101.999996887207,8|0,0:0|0:0,0:0:0:0:
217,149,58328,1,0,0:0:0:0:
253,232,58444,2,0,P|214:239|188:242,1,50.9999984436036,10|0,0:0|0:0,0:0:0:0:
127,320,58674,2,0,P|152:323|177:328,1,50.9999984436036,0|0,0:0|0:0,0:0:0:0:
267,358,58905,2,0,L|380:352,1,101.999996887207,10|0,0:0|0:0,0:0:0:0:
432,299,59251,1,10,0:0:0:0:
432,299,59367,2,0,P|433:260|431:239,1,50.9999984436036,0|0,0:0|0:0,0:0:0:0:
363,173,59597,6,0,P|351:120|349:53,2,101.999996887207,0|8|0,0:0|0:0|0:0,0:0:0:0:
439,100,60174,1,0,0:0:0:0:
225,250,60290,2,0,L|169:259,1,50.9999984436036,8|0,0:0|0:0,0:0:0:0:
102,167,60521,2,0,L|168:177,1,50.9999984436036
102,343,60751,1,8,0:0:0:0:
102,343,60867,2,0,L|168:353,1,50.9999984436036
240,382,61097,1,0,0:0:0:0:
240,382,61213,1,8,0:0:0:0:
313,328,61328,6,0,B|372:330|372:330|416:359|416:359|483:364,1,170,4|0,0:0|0:0,0:0:0:0:
463,191,61674,1,8,0:0:0:0:
463,191,61790,1,0,0:0:0:0:
463,191,61905,2,0,L|448:297,1,85,0|0,0:0|0:0,0:0:0:0:
473,93,62136,2,0,P|415:109|380:136,1,85,8|0,0:0|0:0,0:0:0:0:
264,241,62367,6,0,P|186:249|138:152,1,170,0|8,0:0|0:0,0:0:0:0:
225,161,62713,1,0,0:0:0:0:
140,331,62828,1,0,0:0:0:0:
225,161,62944,1,0,0:0:0:0:
332,315,63059,2,0,L|416:327,1,85,8|0,0:0|0:0,0:0:0:0:
397,90,63290,6,0,P|449:102|472:207,1,170,0|8,0:0|0:0,0:0:0:0:
384,184,63636,1,0,0:0:0:0:
333,317,63751,2,0,L|228:329,1,85,0|0,0:0|0:0,0:0:0:0:
164,217,63982,2,0,L|269:229,1,85,8|0,0:0|0:0,0:0:0:0:
102,288,64213,6,0,P|76:218|133:128,1,170,0|8,0:0|0:0,0:0:0:0:
164,216,64559,1,0,0:0:0:0:
255,350,64674,2,0,L|393:359,1,127.5,0|0,0:0|0:0,0:0:0:0:
454,321,64905,2,2,L|349:335,1,85,8|4,0:0|0:0,0:0:0:0:
256,129,65136,5,0,0:0:0:0:
358,146,65251,1,0,0:0:0:0:
441,94,65367,2,0,P|457:151|458:188,1,85,8|0,0:0|0:0,0:0:0:0:
317,62,65597,1,0,0:0:0:0:
358,146,65713,1,0,0:0:0:0:
441,94,65828,1,8,0:0:0:0:
441,94,65944,1,0,0:0:0:0:
449,252,66059,6,0,L|356:265,1,85,0|0,0:0|0:0,0:0:0:0:
273,134,66290,2,0,L|366:147,1,85,8|0,0:0|0:0,0:0:0:0:
263,279,66521,2,0,L|170:292,1,85,0|0,0:0|0:0,0:0:0:0:
55,83,66751,5,8,0:0:0:0:
55,83,66867,2,0,P|111:80|147:185,1,170
71,338,67213,5,8,0:0:0:0:
71,338,67328,1,0,0:0:0:0:
195,345,67444,5,8,0:0:0:0:
195,345,67559,1,0,0:0:0:0:
322,349,67674,5,8,0:0:0:0:
322,349,67790,1,0,0:0:0:0:
133,248,67906,5,8,0:0:0:0:
450,371,68713,1,4,0:0:0:0:
390,300,68828,6,0,P|369:220|390:124,1,170,0|8,0:0|0:0,0:0:0:0:
464,203,69174,1,0,0:0:0:0:
304,344,69289,2,0,L|215:355,1,85,0|0,0:0|0:0,0:0:0:0:
112,190,69520,2,0,P|127:230|136:276,1,85,8|0,0:0|0:0,0:0:0:0:
57,104,69751,6,0,P|120:97|199:181,1,170,0|8,0:0|0:0,0:0:0:0:
242,245,70097,1,0,0:0:0:0:
330,197,70213,2,0,L|426:208,2,85,0|0|8,0:0|0:0|0:0,0:0:0:0:
193,340,70559,6,0,P|251:356|344:290,1,170,0|0,0:0|0:0,0:0:0:0:
227,161,70905,2,0,L|244:260,1,85,8|0,0:0|0:0,0:0:0:0:
449,355,71136,2,0,P|469:280|433:189,1,170,0|8,0:0|0:0,0:0:0:0:
245,66,71482,5,0,0:0:0:0:
245,66,71597,2,0,B|186:76|186:76|147:110|147:110|85:121,1,170,0|8,0:0|0:0,0:0:0:0:
40,216,71944,2,0,L|140:228,1,85,0|0,0:0|0:0,0:0:0:0:
271,171,72174,1,0,0:0:0:0:
224,257,72290,1,8,0:0:0:0:
425,357,72405,6,0,P|442:306|396:173,1,170,4|0,0:0|0:0,0:0:0:0:
205,81,72751,2,0,L|218:182,1,85,8|0,0:0|0:0,0:0:0:0:
319,262,72982,2,0,P|372:277|478:209,1,170,0|8,0:0|0:0,0:0:0:0:
388,184,73328,1,0,0:0:0:0:
263,352,73443,6,0,B|186:331|172:388|79:361,1,170,0|8,0:0|0:0,0:0:0:0:
12,343,73789,1,0,0:0:0:0:
77,278,73905,2,0,L|87:184,2,85,0|0|8,0:0|0:0|0:0,0:0:0:0:
28,116,74251,6,0,P|111:110|176:166,1,170,0|0,0:0|0:0,0:0:0:0:
226,253,74597,1,8,0:0:0:0:
226,253,74712,1,0,0:0:0:0:
314,193,74828,2,0,L|454:186,1,127.5,0|0,0:0|0:0,0:0:0:0:
508,154,75059,2,0,L|402:159,1,85,8|0,0:0|0:0,0:0:0:0:
203,48,75290,6,0,P|276:40|349:110,1,170,0|8,0:0|0:0,0:0:0:0:
435,41,75636,1,0,0:0:0:0:
374,192,75751,2,0,P|363:254|364:298,1,85,0|0,0:0|0:0,0:0:0:0:
451,248,75982,1,0,0:0:0:0:
301,341,76097,6,0,B|218:323|221:376|126:359,1,170,4|0,0:0|0:0,0:0:0:0:
38,338,76443,1,8,0:0:0:0:
110,270,76559,1,0,0:0:0:0:
24,146,76674,2,0,L|32:239,1,85,0|0,0:0|0:0,0:0:0:0:
142,45,76905,2,0,L|134:138,1,85,8|0,0:0|0:0,0:0:0:0:
233,277,77136,6,0,P|317:287|396:216,1,170,0|8,0:0|0:0,0:0:0:0:
290,198,77482,1,0,0:0:0:0:
398,356,77597,2,0,L|508:369,1,85,0|0,0:0|0:0,0:0:0:0:
461,278,77828,1,8,0:0:0:0:
295,362,77944,6,0,P|211:372|132:301,1,170
233,277,78289,1,8,0:0:0:0:
128,145,78405,1,0,0:0:0:0:
128,145,78462,1,0,0:0:0:0:
128,145,78520,2,0,L|137:232,1,85,0|0,0:0|0:0,0:0:0:0:
27,323,78751,2,0,L|123:339,1,85,8|0,0:0|0:0,0:0:0:0:
326,189,78982,6,0,P|340:227|352:292,1,85,0|0,0:0|0:0,0:0:0:0:
432,367,79213,2,0,P|440:325|455:285,1,85,8|0,0:0|0:0,0:0:0:0:
404,65,79443,1,0,0:0:0:0:
404,65,79559,2,0,L|418:151,1,85,0|8,0:0|0:0,0:0:0:0:
359,282,79790,6,0,B|302:289|302:289|255:323|255:323|196:332,1,170,4|0,0:0|0:0,0:0:0:0:
25,186,80136,2,0,B|82:193|82:193|129:227|129:227|188:236,1,170,8|0,0:0|0:0,0:0:0:0:
280,178,80482,1,0,0:0:0:0:
280,178,80597,2,0,L|287:84,1,85,8|0,0:0|0:0,0:0:0:0:
422,20,80828,6,0,L|413:197,1,170,8|8,0:0|0:0,0:0:0:0:
309,367,81174,2,0,L|300:283,1,85,0|8,0:0|0:0,0:0:0:0:
155,116,81405,1,8,0:0:0:0:
155,116,81521,1,0,0:0:0:0:
155,116,81636,6,0,L|168:263,1,136,4|0,0:0|0:0,0:0:0:0:
115,332,81982,2,0,P|172:343|246:311,2,136,8|0|8,0:0|0:0|0:0,0:0:0:0:
166,251,82559,1,0,0:0:0:0:
317,361,82675,2,0,L|395:370,1,68,0|0,0:0|0:0,0:0:0:0:
450,261,82905,1,8,0:0:0:0:
450,261,83021,1,0,0:0:0:0:
450,261,83136,2,0,L|377:255,1,68,0|0,0:0|0:0,0:0:0:0:
280,245,83367,1,8,0:0:0:0:
345,172,83482,6,0,L|352:103,1,68,0|0,0:0|0:0,0:0:0:0:
361,23,83713,1,0,0:0:0:0:
263,81,83828,2,0,P|194:77|137:36,2,136,8|0|8,0:0|0:0|0:0,0:0:0:0:
361,23,84405,1,0,0:0:0:0:
345,172,84521,6,0,L|356:253,1,68,0|0,0:0|0:0,0:0:0:0:
447,349,84752,1,8,0:0:0:0:
447,349,84809,1,0,0:0:0:0:
447,349,84867,1,0,0:0:0:0:
351,331,84982,1,2,0:0:0:0:
258,312,85098,1,2,0:0:0:0:
258,312,85328,6,0,L|242:159,1,136,0|0,0:0|0:0,0:0:0:0:
169,136,85675,2,0,P|122:145|33:90,2,136,8|0|8,0:0|0:0|0:0,0:0:0:0:
126,63,86252,1,0,0:0:0:0:
204,218,86367,6,0,L|275:226,1,68,0|0,0:0|0:0,0:0:0:0:
263,343,86598,2,0,L|330:334,1,68,8|0,0:0|0:0,0:0:0:0:
434,267,86828,1,0,0:0:0:0:
434,267,86944,1,0,0:0:0:0:
434,267,87059,1,8,0:0:0:0:
363,178,87175,6,0,P|343:118|365:42,1,136,0|0,0:0|0:0,0:0:0:0:
435,114,87521,1,8,0:0:0:0:
435,114,87636,1,0,0:0:0:0:
322,258,87751,2,0,P|280:264|246:271,1,68,0|0,0:0|0:0,0:0:0:0:
146,137,87982,2,0,P|164:186|167:218,1,68,8|0,0:0|0:0,0:0:0:0:
60,342,88213,6,0,B|128:322|130:369|210:346,1,136,0|8,0:0|0:0,0:0:0:0:
328,265,88559,1,0,0:0:0:0:
328,265,88674,1,2,0:0:0:0:
328,265,88790,2,0,L|337:341,1,68,2|0,0:0|0:0,0:0:0:0:
416,205,89021,6,0,P|433:166|418:75,1,136,4|0,0:0|0:0,0:0:0:0:
347,141,89367,2,0,L|208:141,2,136,8|0|8,0:0|0:0|0:0,0:0:0:0:
318,234,89944,1,0,0:0:0:0:
318,234,90059,2,0,L|312:307,1,68,0|0,0:0|0:0,0:0:0:0:
219,362,90290,2,0,L|211:271,1,68,8|0,0:0|0:0,0:0:0:0:
122,238,90521,2,0,L|116:311,2,68,0|0|8,0:0|0:0|0:0,0:0:0:0:
91,48,90867,6,0,P|151:44|217:91,1,136,0|0,0:0|0:0,0:0:0:0:
271,170,91213,2,0,L|199:182,1,68,8|0,0:0|0:0,0:0:0:0:
344,104,91444,2,0,P|363:161|366:187,1,68,0|0,0:0|0:0,0:0:0:0:
373,260,91674,2,0,P|365:293|352:324,1,68,8|0,0:0|0:0,0:0:0:0:
269,337,91905,6,0,B|224:343|224:343|180:372|180:372|129:380,1,136,0|8,0:0|0:0,0:0:0:0:
142,377,92367,1,2,0:0:0:0:
127,286,92482,1,2,0:0:0:0:
107,191,92598,1,8,0:0:0:0:
221,324,92713,6,0,P|264:333|364:283,1,136,0|0,0:0|0:0,0:0:0:0:
411,228,93059,2,0,L|420:84,2,136,8|0|8,0:0|0:0|0:0,0:0:0:0:
316,260,93636,1,0,0:0:0:0:
316,260,93752,2,0,L|239:274,1,68,0|0,0:0|0:0,0:0:0:0:
258,363,93982,2,0,L|191:350,1,68,8|0,0:0|0:0,0:0:0:0:
94,300,94213,2,0,P|86:264|85:226,2,68,0|0|8,0:0|0:0|0:0,0:0:0:0:
188,185,94559,6,0,P|205:113|178:54,1,136,0|0,0:0|0:0,0:0:0:0:
46,113,94905,1,8,0:0:0:0:
46,113,95021,1,0,0:0:0:0:
46,113,95136,2,0,L|137:124,1,68,0|0,0:0|0:0,0:0:0:0:
262,241,95367,1,8,0:0:0:0:
188,185,95483,1,0,0:0:0:0:
234,327,95598,6,0,P|269:324|312:315,1,68,0|0,0:0|0:0,0:0:0:0:
425,254,95828,2,0,P|390:251|347:242,1,68,8|0,0:0|0:0,0:0:0:0:
249,45,96059,2,0,L|265:188,1,136,0|0,0:0|0:0,0:0:0:0:
278,339,96405,6,0,L|154:351,1,101.999996887207,4|0,0:0|0:0,0:0:0:0:
87,352,96752,1,10,0:0:0:0:
87,352,96983,2,0,L|83:294,1,50.9999984436036,0|0,0:0|0:0,0:0:0:0:
114,219,97213,2,0,P|122:163|116:109,2,101.999996887207,8|2|8,0:0|0:0|0:0,0:0:0:0:
114,219,97906,5,0,0:0:0:0:
202,262,98021,2,0,L|262:255,1,50.9999984436036,10|0,0:0|0:0,0:0:0:0:
280,336,98251,2,0,L|330:341,1,50.9999984436036,0|0,0:0|0:0,0:0:0:0:
411,297,98483,1,0,0:0:0:0:
353,230,98597,2,0,P|347:170|367:112,2,101.999996887207,10|0|8,0:0|0:0|0:0,0:0:0:0:
353,230,99290,6,0,L|241:243,1,101.999996887207,2|8,0:0|0:0,0:0:0:0:
65,45,99636,1,0,0:0:0:0:
65,45,99694,1,0,0:0:0:0:
65,45,99752,2,0,L|70:102,1,50.9999984436036,0|2,0:0|0:0,0:0:0:0:
97,187,99983,5,8,0:0:0:0:
97,187,100098,2,0,L|91:303,1,101.999996887207,0|0,0:0|0:0,0:0:0:0:
36,353,100444,2,0,P|68:368|147:354,1,101.999996887207,8|0,0:0|0:0,0:0:0:0:
199,299,100790,1,0,0:0:0:0:
281,358,100906,2,0,L|346:368,1,50.9999984436036,10|0,0:0|0:0,0:0:0:0:
432,265,101136,2,0,L|428:318,1,50.9999984436036,0|0,0:0|0:0,0:0:0:0:
341,218,101367,2,0,P|329:167|340:112,1,101.999996887207,8|0,0:0|0:0,0:0:0:0:
411,162,101713,2,0,L|463:161,2,50.9999984436036,10|8|0,0:0|0:0|0:0,0:0:0:0:
277,277,102059,2,0,P|244:285|213:297,1,50.9999984436036,0|0,0:0|0:0,0:0:0:0:
165,347,102290,6,0,P|147:304|164:238,1,101.999996887207,8|0,0:0|0:0,0:0:0:0:
231,153,102636,1,0,0:0:0:0:
231,153,102752,2,0,L|228:216,1,50.9999984436036,10|0,0:0|0:0,0:0:0:0:
169,56,102982,2,0,P|197:49|227:44,1,50.9999984436036,0|0,0:0|0:0,0:0:0:0:
336,23,103213,6,0,P|347:67|346:115,1,76.4999976654053,8|8,0:0|0:0,0:0:0:0:
337,142,103444,2,0,L|283:145,1,50.9999984436036,8|0,0:0|0:0,0:0:0:0:
421,204,103674,1,8,0:0:0:0:
447,109,103790,6,0,B|388:111|388:111|344:140|344:140|277:145,1,170,4|0,0:0|0:0,0:0:0:0:
182,152,104136,1,8,0:0:0:0:
182,152,104251,1,0,0:0:0:0:
244,222,104367,2,0,L|254:318,1,85,0|0,0:0|0:0,0:0:0:0:
398,371,104597,2,0,L|409:221,1,127.5,8|0,0:0|0:0,0:0:0:0:
484,221,104828,6,0,P|406:229|349:157,1,170,0|8,0:0|0:0,0:0:0:0:
350,164,105174,1,0,0:0:0:0:
287,272,105290,1,0,0:0:0:0:
287,272,105405,2,0,L|196:282,1,85,0|8,0:0|0:0,0:0:0:0:
70,60,105636,6,0,P|123:63|166:172,1,170,0|0,0:0|0:0,0:0:0:0:
109,257,105982,2,0,L|205:274,1,85,8|0,0:0|0:0,0:0:0:0:
292,154,106213,2,0,L|208:168,1,85,0|0,0:0|0:0,0:0:0:0:
339,267,106444,2,0,L|435:284,1,85,8|0,0:0|0:0,0:0:0:0:
350,72,106674,6,0,P|288:65|200:130,1,170,0|8,0:0|0:0,0:0:0:0:
189,202,107020,1,0,0:0:0:0:
189,202,107135,2,0,L|93:212,1,85,0|0,0:0|0:0,0:0:0:0:
104,210,107367,1,8,0:0:0:0:
238,326,107482,6,0,B|312:301|319:362|423:338,1,170,4|0,0:0|0:0,0:0:0:0:
476,136,107828,2,0,L|469:234,1,85,8|0,0:0|0:0,0:0:0:0:
374,268,108059,1,0,0:0:0:0:
374,268,108174,1,0,0:0:0:0:
374,268,108290,2,0,L|367:183,1,85,8|0,0:0|0:0,0:0:0:0:
276,46,108521,6,0,L|264:216,1,170,0|8,0:0|0:0,0:0:0:0:
254,347,108867,1,0,0:0:0:0:
254,347,108982,2,0,L|161:360,1,85,0|0,0:0|0:0,0:0:0:0:
47,116,109212,5,8,0:0:0:0:
47,116,109328,2,0,P|103:113|139:218,1,170,0|0,0:0|0:0,0:0:0:0:
71,338,109674,5,8,0:0:0:0:
71,338,109789,1,0,0:0:0:0:
203,344,109905,5,8,0:0:0:0:
203,344,110020,1,0,0:0:0:0:
333,352,110135,5,8,0:0:0:0:
333,352,110251,1,0,0:0:0:0:
139,236,110367,5,8,0:0:0:0:
139,236,111174,1,4,0:0:0:0:
196,329,111290,6,0,B|280:310|279:363|378:341,1,170,0|8,0:0|0:0,0:0:0:0:
450,321,111636,1,0,0:0:0:0:
370,248,111751,2,0,L|361:138,1,85,0|0,0:0|0:0,0:0:0:0:
492,153,111982,1,8,0:0:0:0:
419,91,112097,1,0,0:0:0:0:
267,218,112213,6,0,P|204:225|125:141,1,170,0|8,0:0|0:0,0:0:0:0:
209,54,112559,1,0,0:0:0:0:
209,54,112674,2,0,L|219:138,1,85,0|0,0:0|0:0,0:0:0:0:
297,85,112905,1,8,0:0:0:0:
229,336,113021,6,0,B|147:316|146:367|57:341,1,170,0|0,0:0|0:0,0:0:0:0:
68,181,113367,1,8,0:0:0:0:
107,263,113482,1,0,0:0:0:0:
177,200,113597,2,0,L|182:110,1,85,0|0,0:0|0:0,0:0:0:0:
79,13,113828,2,0,L|84:97,1,85,8|0,0:0|0:0,0:0:0:0:
190,286,114059,6,0,B|250:298|250:298|287:337|287:337|347:348,1,170,0|8,0:0|0:0,0:0:0:0:
500,271,114405,1,0,0:0:0:0:
454,364,114521,1,0,0:0:0:0:
401,275,114636,2,0,P|394:231|393:184,1,85,0|8,0:0|0:0,0:0:0:0:
461,105,114867,6,0,B|375:86|375:86|299:133,1,170,4|0,0:0|0:0,0:0:0:0:
398,195,115213,1,8,0:0:0:0:
398,195,115328,1,0,0:0:0:0:
238,211,115444,2,0,B|157:188|158:254|52:217,1,170,0|8,0:0|0:0,0:0:0:0:
114,144,115790,1,0,0:0:0:0:
257,335,115905,6,0,B|334:314|348:371|441:344,1,170,0|8,0:0|0:0,0:0:0:0:
396,246,116251,1,0,0:0:0:0:
488,179,116367,2,0,L|493:92,2,85,0|0|8,0:0|0:0|0:0,0:0:0:0:
396,246,116713,6,0,P|333:253|257:179,1,170,0|0,0:0|0:0,0:0:0:0:
362,154,117059,1,8,0:0:0:0:
362,154,117117,1,0,0:0:0:0:
362,154,117174,1,0,0:0:0:0:
214,293,117290,2,0,L|78:308,1,127.5,0|0,0:0|0:0,0:0:0:0:
16,265,117521,2,0,L|109:273,1,85,8|0,0:0|0:0,0:0:0:0:
264,74,117751,6,0,P|200:63|128:137,1,170,0|8,0:0|0:0,0:0:0:0:
100,253,118098,1,0,0:0:0:0:
100,253,118155,1,0,0:0:0:0:
100,253,118213,2,0,L|13:265,1,85,0|0,0:0|0:0,0:0:0:0:
37,166,118444,1,0,0:0:0:0:
146,324,118559,6,0,B|202:329|202:329|252:363|252:363|325:372,1,170,4|0,0:0|0:0,0:0:0:0:
469,185,118905,1,8,0:0:0:0:
469,185,119021,1,0,0:0:0:0:
410,242,119136,2,0,L|401:337,1,85,0|0,0:0|0:0,0:0:0:0:
333,184,119367,2,0,L|324:99,1,85,8|0,0:0|0:0,0:0:0:0:
288,268,119597,6,0,P|226:274|130:203,1,170,0|8,0:0|0:0,0:0:0:0:
211,95,119944,1,0,0:0:0:0:
211,95,120059,2,0,L|221:205,1,85,0|0,0:0|0:0,0:0:0:0:
55,339,120290,1,8,0:0:0:0:
55,339,120405,6,0,L|45:169,1,170,0|0,0:0|0:0,0:0:0:0:
39,58,120751,1,8,0:0:0:0:
158,203,120867,1,0,0:0:0:0:
158,203,120924,1,0,0:0:0:0:
158,203,120982,2,0,L|253:214,1,85,0|0,0:0|0:0,0:0:0:0:
389,122,121213,2,0,L|304:131,1,85,8|0,0:0|0:0,0:0:0:0:
67,146,121444,6,0,P|60:209|77:269,1,127.5,0|0,0:0|0:0,0:0:0:0:
101,292,121674,2,0,L|185:299,1,85,8|0,0:0|0:0,0:0:0:0:
287,149,121905,1,0,0:0:0:0:
287,149,122021,2,0,P|276:191|270:244,1,85,0|8,0:0|0:0,0:0:0:0:
373,85,122251,6,0,P|323:53|215:68,1,170,4|0,0:0|0:0,0:0:0:0:
27,264,122597,2,0,P|108:282|182:245,1,170,8|0,0:0|0:0,0:0:0:0:
199,338,122944,1,0,0:0:0:0:
92,187,123059,1,8,0:0:0:0:
97,370,123174,1,0,0:0:0:0:
304,305,123290,6,0,B|364:309|364:309|414:340|414:340|478:345,1,170,8|8,0:0|0:0,0:0:0:0:
486,170,123636,1,0,0:0:0:0:
447,252,123751,1,8,0:0:0:0:
385,188,123867,2,0,P|367:142|416:37,1,170,8|4,0:0|0:0,0:0:0:0:
447,252,124213,5,0,0:0:0:0:
255,355,124444,1,8,0:0:0:0:
65,252,124674,1,0,0:0:0:0:
255,369,124905,1,8,0:0:0:0:
447,252,125136,6,0,P|433:200|450:120,1,127.5,0|0,0:0|0:0,0:0:0:0:
454,115,125367,2,0,L|358:126,1,85,8|0,0:0|0:0,0:0:0:0:
58,217,125597,2,0,L|154:228,1,85,0|0,0:0|0:0,0:0:0:0:
339,359,125828,2,2,L|243:370,1,85,8|4,0:0|0:0,0:0:0:0:
256,192,126059,12,0,127328,0:0:0:0:
89,260,127559,5,8,0:0:0:0:
89,260,127617,1,8,0:0:0:0:
89,260,127674,1,8,0:0:0:0:
89,260,127732,1,8,0:0:0:0:
89,260,127790,2,0,B|145:266|145:266|182:298|182:298|269:309,1,170,4|0,0:0|0:0,0:0:0:0:
431,259,128136,5,8,0:0:0:0:
431,259,128251,1,0,0:0:0:0:
340,285,128367,5,0,0:0:0:0:
340,285,128482,1,0,0:0:0:0:
367,197,128597,5,8,0:0:0:0:
367,197,128713,1,0,0:0:0:0:
247,307,128828,6,0,L|163:316,1,85,0|0,0:0|0:0,0:0:0:0:
27,216,129059,2,0,L|111:225,1,85,8|0,0:0|0:0,0:0:0:0:
255,111,129290,6,0,B|209:129|209:129|147:119,1,101.999996887207,0|8,0:0|0:0,0:0:0:0:
56,36,129636,6,0,P|107:29|149:136,1,170
49,244,129982,5,8,0:0:0:0:
49,244,130097,1,0,0:0:0:0:
220,310,130213,5,0,0:0:0:0:
220,310,130328,1,0,0:0:0:0:
130,285,130444,5,8,0:0:0:0:
130,285,130559,1,0,0:0:0:0:
206,216,130674,6,0,L|215:118,1,85,0|0,0:0|0:0,0:0:0:0:
113,30,130905,2,0,L|120:114,1,85,8|0,0:0|0:0,0:0:0:0:
306,245,131136,5,0,0:0:0:0:
309,228,131251,1,8,0:0:0:0:
312,211,131367,1,8,0:0:0:0:
315,194,131482,1,8,0:0:0:0:
222,296,131597,6,0,B|139:278|142:331|47:314,1,170,4|8,0:0|0:0,0:0:0:0:
67,60,131944,2,0,L|86:234,1,170,0|0,0:0|0:0,0:0:0:0:
214,380,132290,2,0,L|223:272,1,85,8|0,0:0|0:0,0:0:0:0:
413,69,132521,6,0,P|354:61|300:163,1,170,0|8,0:0|0:0,0:0:0:0:
380,155,132867,1,0,0:0:0:0:
255,225,132982,2,0,B|172:207|175:260|80:243,1,170,0|8,0:0|0:0,0:0:0:0:
109,157,133328,1,0,0:0:0:0:
219,322,133444,6,0,L|314:329,1,85,0|0,0:0|0:0,0:0:0:0:
469,286,133674,1,8,0:0:0:0:
406,353,133790,1,0,0:0:0:0:
381,264,133905,2,0,P|372:220|372:166,1,85,0|0,0:0|0:0,0:0:0:0:
464,102,134136,2,0,P|454:143|453:186,1,85,8|0,0:0|0:0,0:0:0:0:
354,41,134367,5,0,0:0:0:0:
276,145,134482,2,0,L|210:154,5,42.5,0|0|8|8|8|0,0:0|0:0|0:0|0:0|0:0|0:0,0:0:0:0:
205,137,134828,6,0,L|194:43,1,85,0|0,0:0|0:0,0:0:0:0:
181,248,135059,2,0,L|171:332,1,85,8|4,0:0|0:0,0:0:0:0:
52,88,135290,6,0,L|67:271,1,170,0|8,0:0|0:0,0:0:0:0:
27,357,135636,1,0,0:0:0:0:
181,248,135751,2,0,B|263:231|261:291|376:262,1,170,0|8,0:0|0:0,0:0:0:0:
310,188,136097,1,0,0:0:0:0:
439,351,136213,6,0,L|447:163,1,170,0|8,0:0|0:0,0:0:0:0:
444,77,136559,1,0,0:0:0:0:
310,188,136674,2,0,L|217:199,1,85,0|0,0:0|0:0,0:0:0:0:
272,102,136905,1,8,0:0:0:0:
25,100,137021,6,0,B|108:70|108:70|184:120,1,170,0|0,0:0|0:0,0:0:0:0:
352,290,137367,2,0,L|261:299,1,85,8|0,0:0|0:0,0:0:0:0:
106,172,137597,2,0,P|123:231|128:276,1,85,0|0,0:0|0:0,0:0:0:0:
32,231,137828,1,8,0:0:0:0:
209,315,137944,2,0,B|269:327|269:327|306:366|306:366|366:377,1,170,0|0,0:0|0:0,0:0:0:0:
482,207,138290,5,8,0:0:0:0:
482,207,138347,1,0,0:0:0:0:
482,207,138405,1,0,0:0:0:0:
383,196,138521,1,0,0:0:0:0:
300,180,138636,1,0,0:0:0:0:
436,129,138751,1,8,0:0:0:0:
320,269,138867,6,0,P|276:263|219:149,1,170,4|0,0:0|0:0,0:0:0:0:
343,31,139213,2,0,L|355:120,1,85,8|0,0:0|0:0,0:0:0:0:
438,40,139444,1,0,0:0:0:0:
287,185,139559,2,0,P|231:193|194:202,1,85,0|8,0:0|0:0,0:0:0:0:
214,99,139790,1,0,0:0:0:0:
48,338,139905,6,0,L|183:346,1,127.5,0|0,0:0|0:0,0:0:0:0:
256,310,140136,2,0,L|153:322,1,85,8|0,0:0|0:0,0:0:0:0:
64,139,140367,2,0,L|78:234,1,85,0|0,0:0|0:0,0:0:0:0:
289,84,140597,5,8,0:0:0:0:
289,84,140713,2,0,P|215:69|169:165,1,170,0|0,0:0|0:0,0:0:0:0:
243,303,141059,5,8,0:0:0:0:
245,311,141174,1,0,0:0:0:0:
325,262,141290,5,8,0:0:0:0:
324,270,141405,1,0,0:0:0:0:
252,215,141521,5,8,0:0:0:0:
253,223,141636,1,0,0:0:0:0:
419,147,141751,6,0,L|409:304,1,152.999995330811,8|0,0:0|0:0,0:0:0:0:
409,299,142559,5,4,0:0:0:0:
77,159,149597,6,0,L|77:215,1,42.5,0|0,0:0|0:0,0:0:0:0:
81,287,149713,1,0,0:0:0:0:
81,287,149944,1,4,0:0:0:0:
81,287,150174,6,0,P|138:282|211:323,1,136,0|0,0:0|0:0,0:0:0:0:
278,369,150521,2,0,L|352:361,1,68,0|0,0:0|0:0,0:0:0:0:
405,278,150751,2,0,L|331:270,1,68,8|0,0:0|0:0,0:0:0:0:
245,210,150982,6,0,P|232:167|254:97,1,102,0|0,0:0|0:0,0:0:0:0:
267,89,151213,2,0,L|354:82,1,68,8|0,0:0|0:0,0:0:0:0:
413,166,151444,2,0,L|486:173,2,68,0|0|0,0:0|0:0|0:0,0:0:0:0:
285,295,151790,6,0,B|241:301|241:301|206:326|206:326|147:334,1,136,0|0,0:0|0:0,0:0:0:0:
59,256,152136,2,0,L|142:247,1,68,8|0,0:0|0:0,0:0:0:0:
226,170,152367,2,0,L|143:161,1,68,0|0,0:0|0:0,0:0:0:0:
61,56,152597,1,8,0:0:0:0:
61,56,152828,6,0,L|68:168,1,102,0|0,0:0|0:0,0:0:0:0:
109,206,153059,2,0,L|116:132,1,68,8|0,0:0|0:0,0:0:0:0:
183,279,153290,2,0,L|189:361,2,68,0|0|0,0:0|0:0|0:0,0:0:0:0:
308,354,153636,6,0,P|350:364|446:328,1,136,0|0,0:0|0:0,0:0:0:0:
350,203,153982,2,0,L|357:282,1,68,8|0,0:0|0:0,0:0:0:0:
423,143,154213,5,0,0:0:0:0:
423,143,154328,1,0,0:0:0:0:
324,118,154444,5,0,0:0:0:0:
324,118,154559,1,0,0:0:0:0:
391,49,154674,5,0,0:0:0:0:
391,49,155482,1,4,0:0:0:0:
307,130,155597,6,0,P|241:138|151:75,1,170,0|8,0:0|0:0,0:0:0:0:
253,41,155943,1,0,0:0:0:0:
182,219,156058,2,0,L|93:230,1,85,0|0,0:0|0:0,0:0:0:0:
23,66,156289,2,0,P|38:106|47:152,1,85,8|0,0:0|0:0,0:0:0:0:
38,315,156521,6,2,B|115:294|129:351|222:324,1,170,2|8,0:0|0:0,0:0:0:0:
313,322,156866,1,0,0:0:0:0:
251,237,156982,2,0,L|254:141,1,85,0|0,0:0|0:0,0:0:0:0:
387,245,157213,1,8,0:0:0:0:
205,329,157328,6,2,B|148:333|148:333|103:362|103:362|40:367,1,170,0|0,0:0|0:0,0:0:0:0:
48,182,157674,2,0,P|59:227|65:281,1,85,8|0,0:0|0:0,0:0:0:0:
191,93,157905,2,0,P|180:138|174:192,1,85,0|0,0:0|0:0,0:0:0:0:
86,33,158136,1,8,0:0:0:0:
174,176,158251,5,0,0:0:0:0:
174,176,158366,2,0,B|233:186|233:186|272:220|272:220|334:231,1,170,2|8,0:0|0:0,0:0:0:0:
492,167,158713,1,0,0:0:0:0:
389,87,158828,1,0,0:0:0:0:
389,87,158944,2,0,L|404:185,1,85,0|0,0:0|0:0,0:0:0:0:
507,296,159174,6,2,P|437:348|342:325,1,170,6|2,0:0|0:0,0:0:0:0:
324,185,159521,1,8,0:0:0:0:
412,268,159636,1,0,0:0:0:0:
452,162,159751,2,0,P|445:117|432:72,1,85,0|0,0:0|0:0,0:0:0:0:
231,256,159982,2,0,L|337:272,1,85,8|0,0:0|0:0,0:0:0:0:
200,58,160213,6,0,P|115:63|73:145,1,170,0|8,0:0|0:0,0:0:0:0:
66,350,160559,1,0,0:0:0:0:
138,297,160674,1,0,0:0:0:0:
138,297,160790,2,0,L|129:195,1,85,8|0,0:0|0:0,0:0:0:0:
226,344,161020,6,0,B|308:323|308:375|413:346,1,170,4|0,0:0|0:0,0:0:0:0:
498,336,161366,1,8,0:0:0:0:
431,264,161481,1,0,0:0:0:0:
503,106,161597,2,0,L|497:192,1,85,0|0,0:0|0:0,0:0:0:0:
385,52,161828,2,0,L|391:138,1,85,8|0,0:0|0:0,0:0:0:0:
317,251,162059,6,0,B|234:265|234:265|160:219,1,170,0|8,0:0|0:0,0:0:0:0:
250,161,162405,1,0,0:0:0:0:
169,343,162521,1,8,0:0:0:0:
47,199,162636,1,0,0:0:0:0:
47,199,162867,6,0,B|98:202|98:202|144:240|144:240|213:247,1,170,4|0,0:0|0:0,0:0:0:0:
403,74,163212,1,8,0:0:0:0:
327,166,163328,1,0,0:0:0:0:
216,26,163444,2,0,L|224:117,1,85,0|0,0:0|0:0,0:0:0:0:
384,366,163674,2,0,P|392:307|403:272,1,85,8|0,0:0|0:0,0:0:0:0:
456,196,163905,6,0,P|372:186|293:257,1,170,0|8,0:0|0:0,0:0:0:0:
250,336,164251,1,0,0:0:0:0:
172,277,164366,2,0,L|62:290,1,85
93,102,164597,1,8,0:0:0:0:
269,22,164713,6,0,L|262:196,1,170,0|0,0:0|0:0,0:0:0:0:
250,336,165058,1,8,0:0:0:0:
123,200,165174,1,0,0:0:0:0:
123,200,165231,1,0,0:0:0:0:
123,200,165289,2,0,L|132:287,1,85,0|0,0:0|0:0,0:0:0:0:
68,364,165521,1,8,0:0:0:0:
131,284,165636,1,0,0:0:0:0:
250,336,165751,6,0,P|317:345|362:356,1,85,0|0,0:0|0:0,0:0:0:0:
497,277,165982,1,8,0:0:0:0:
433,362,166097,1,0,0:0:0:0:
378,164,166212,1,0,0:0:0:0:
378,164,166328,2,0,L|392:250,1,85,0|8,0:0|0:0,0:0:0:0:
402,70,166559,6,2,B|345:77|345:77|298:111|298:111|239:120,1,170,6|0,0:0|0:0,0:0:0:0:
43,160,166905,1,8,0:0:0:0:
164,54,167021,1,0,0:0:0:0:
164,54,167136,1,0,0:0:0:0:
139,145,167251,1,0,0:0:0:0:
139,145,167367,1,8,0:0:0:0:
71,71,167482,1,0,0:0:0:0:
233,138,167597,6,0,P|270:219|250:293,1,170,0|8,0:0|0:0,0:0:0:0:
102,211,167944,2,0,L|200:227,1,85,0|0,0:0|0:0,0:0:0:0:
415,246,168174,1,0,0:0:0:0:
334,152,168290,1,0,0:0:0:0:
249,293,168405,6,2,B|189:305|189:305|152:344|152:344|92:355,1,170,6|0,0:0|0:0,0:0:0:0:
19,209,168751,1,8,0:0:0:0:
19,209,168867,1,0,0:0:0:0:
88,278,168982,1,0,0:0:0:0:
88,278,169097,1,0,0:0:0:0:
153,124,169213,1,8,0:0:0:0:
153,124,169328,1,0,0:0:0:0:
41,49,169444,6,0,P|97:39|147:141,1,170,0|8,0:0|0:0,0:0:0:0:
65,139,169790,1,0,0:0:0:0:
258,73,169905,2,0,P|303:63|356:58,2,85,0|0|8,0:0|0:0|0:0,0:0:0:0:
45,315,170251,6,0,B|123:298|123:348|218:332,1,170,14|0,0:0|0:0,0:0:0:0:
408,303,170597,5,8,0:0:0:0:
408,303,170713,1,0,0:0:0:0:
295,223,170828,5,8,0:0:0:0:
295,223,170944,1,0,0:0:0:0:
420,152,171059,5,8,0:0:0:0:
420,152,171174,1,0,0:0:0:0:
287,30,171290,2,0,L|294:114,1,85,8|0,0:0|0:0,0:0:0:0:
480,337,171521,6,0,B|461:314|459:265|459:265|450:320|419:334,1,152.999995330811,8|0,0:0|0:0,0:0:0:0:
