osu file format v14

[General]
AudioFilename: audio.mp3
AudioLeadIn: 0
PreviewTime: 3922
Countdown: 0
SampleSet: Normal
StackLeniency: 0.7
Mode: 0
LetterboxInBreaks: 0
WidescreenStoryboard: 1

[Editor]
Bookmarks: 24856,54403,61787,68587,96864,104249,143018,150056
DistanceSpacing: 1.4
BeatDivisor: 4
GridSize: 32
TimelineZoom: 1.9

[Metadata]
Title:Heisei Sayonara Bye Bye
TitleUnicode:ヘイセイサヨナラバイバイ
Artist:Zips
ArtistUnicode:じっぷす
Creator:Awaken
Version:Kyshiro's Extra
Source:ヘイセイプロジェクト
Tags:vocaloid 平成project heisei project gumi グミ len fast leader kyshiro japanese rock jippusu pusu nanase not-116
BeatmapID:2260846
BeatmapSetID:971417

[Difficulty]
HPDrainRate:5
CircleSize:4
OverallDifficulty:8.8
ApproachRate:9.5
SliderMultiplier:1.69
SliderTickRate:1

[Events]
//Background and Video events
Video,-484,"synr.mp4"
0,0,"rre.jpg",0,0
//Break Periods
2,142758,149419
//Storyboard Layer 0 (Background)
//Storyboard Layer 1 (Fail)
//Storyboard Layer 2 (Pass)
//Storyboard Layer 3 (Foreground)
//Storyboard Layer 4 (Overlay)
//Storyboard Sound Samples

[TimingPoints]
521,230.769230769231,4,1,1,40,1,0
521,-133.333333333333,4,1,1,40,0,0
2136,-66.6666666666667,4,1,1,40,0,0
2194,-66.6666666666667,4,1,1,5,0,0
2367,-133.333333333333,4,1,1,40,0,0
3521,-200,4,1,1,30,0,0
3867,-117.647058823529,4,1,1,30,0,0
4040,-117.647058823529,4,1,1,30,0,0
4097,-85.4700854700855,4,1,1,70,0,1
17021,-85.4700854700855,4,1,1,70,0,0
24405,-100,4,1,1,50,0,0
27867,-200,4,1,1,50,0,0
28097,-100,4,1,1,50,0,0
31559,-200,4,1,1,50,0,0
31790,-100,4,1,1,50,0,0
53944,-133.333333333333,4,1,1,40,0,0
60521,-133.333333333333,4,1,1,50,0,0
61328,-100,4,1,1,50,0,0
66867,-100,4,1,1,55,0,0
68136,-200,4,1,1,55,0,0
68655,-200,4,1,1,5,0,0
68713,-83.3333333333333,4,1,1,70,0,1
81636,-100,4,1,1,70,0,0
96174,-100,4,1,1,40,0,0
96405,-133.333333333333,4,1,1,40,0,0
101944,-100,4,1,1,40,0,0
102867,-100,4,1,1,50,0,0
109328,-100,4,1,1,55,0,0
110597,-200,4,1,1,55,0,0
111117,-200,4,1,1,5,0,0
111174,-83.3333333333333,4,1,1,70,0,1
123867,-100,4,1,1,70,0,1
124097,-100,4,1,1,70,0,0
127790,-83.3333333333333,4,1,1,70,0,1
131136,-83.3333333333333,4,1,1,70,0,0
131597,-83.3333333333333,4,1,1,70,0,1
134828,-83.3333333333333,4,1,1,70,0,0
135174,-83.3333333333333,4,1,1,70,0,1
138290,-83.3333333333333,4,1,1,70,0,0
138867,-83.3333333333333,4,1,1,70,0,1
141982,-200,4,1,1,70,0,1
142559,-200,4,1,1,50,0,0
149597,-200,4,1,1,40,0,0
149944,-133.333333333333,4,3,1,60,0,0
154847,-133.333333333333,4,1,1,5,0,0
154905,-200,4,1,1,50,0,0
155194,-200,4,1,1,5,0,0
155251,-200,4,1,1,50,0,0
155424,-200,4,1,1,5,0,0
155482,-83.3333333333333,4,1,1,85,0,1
162694,-83.3333333333333,4,1,1,85,0,0
162867,-83.3333333333333,4,1,1,85,0,1
166559,-71.4285714285714,4,1,1,85,0,1
168405,-66.6666666666667,4,1,1,85,0,1
170194,-62.5,4,1,1,85,0,0
170251,-62.5,4,1,1,85,0,1
171290,-62.5,4,1,1,85,0,0
171521,-100,4,1,1,85,0,1
171578,-100,4,1,1,85,0,0
171751,-100,4,1,1,5,0,0

[Colours]
Combo1 : 255,111,111
Combo2 : 85,255,85
Combo3 : 162,162,255
Combo4 : 81,187,206
Combo5 : 255,255,17

[HitObjects]
37,172,521,6,0,B|103:161|137:170|137:170|135:194|115:207,1,126.750004835129,0|8,0:0|0:0,0:0:0:0:
318,275,982,2,0,B|252:286|218:277|218:277|220:253|240:240,1,126.750004835129,0|8,0:0|0:0,0:0:0:0:
286,64,1444,2,0,L|416:89,1,126.750004835129,0|8,0:0|0:0,0:0:0:0:
439,158,1790,1,0,0:0:0:0:
467,228,1905,1,0,0:0:0:0:
136,78,2136,6,0,B|140:46|140:46|179:66,1,63.3750024175645
189,316,2367,6,0,L|123:304,1,63.3750024175645
280,258,2597,2,0,L|346:246,1,63.3750024175645
185,197,2828,2,0,P|113:218|47:215,1,126.750004835129
224,108,3174,1,0,0:0:0:0:
320,122,3290,2,0,P|364:133|392:150,1,63.3750024175645
467,317,3521,6,0,B|439:264|454:194|454:194|489:217|494:251,1,190.125,8|0,0:0|0:0,0:0:0:0:
379,318,4097,6,0,P|292:327|215:252,1,197.73000075428,4|0,0:0|0:0,0:0:0:0:
311,132,4444,2,0,B|337:175|337:175|321:237,1,98.8650003771401,8|0,0:0|0:0,0:0:0:0:
185,147,4674,2,0,L|197:32,1,98.8650003771401
299,28,4905,1,8,0:0:0:0:
91,112,5021,1,0,0:0:0:0:
336,130,5136,6,0,P|394:120|436:101,1,98.8650003771401
269,258,5367,2,0,P|223:239|174:232,1,98.8650003771401,8|0,0:0|0:0,0:0:0:0:
382,346,5597,2,0,L|390:233,1,98.8650003771401
488,349,5828,1,8,0:0:0:0:
467,155,5944,6,0,P|381:129|282:197,1,197.73000075428
200,312,6290,2,0,P|186:262|154:223,1,98.8650003771401,8|0,0:0|0:0,0:0:0:0:
13,87,6521,1,0,0:0:0:0:
98,136,6636,1,0,0:0:0:0:
193,112,6751,2,0,P|225:62|231:12,1,98.8650003771401,8|0,0:0|0:0,0:0:0:0:
4,193,6982,6,0,L|25:310,1,98.8650003771401
254,241,7213,2,0,L|139:223,1,98.8650003771401,8|0,0:0|0:0,0:0:0:0:
337,152,7444,1,0,0:0:0:0:
331,311,7559,1,0,0:0:0:0:
222,130,7674,1,8,0:0:0:0:
433,105,7790,6,0,B|475:201|391:201|433:297,1,197.73000075428,4|0,0:0|0:0,0:0:0:0:
337,152,8136,2,0,P|287:117|239:108,1,98.86500037714,8|0,0:0|0:0,0:0:0:0:
146,237,8367,2,0,L|255:221,1,98.86500037714
145,36,8597,2,0,B|119:78|119:78|126:146,1,98.86500037714,8|0,0:0|0:0,0:0:0:0:
36,293,8828,6,0,L|40:171,1,98.86500037714
264,277,9059,2,0,P|209:244|164:235,1,98.86500037714,8|0,0:0|0:0,0:0:0:0:
141,354,9290,1,0,0:0:0:0:
353,325,9405,1,0,0:0:0:0:
272,174,9521,1,8,0:0:0:0:
257,371,9636,6,0,P|352:342|458:348,1,197.73000075428
182,259,9982,2,0,P|125:243|84:217,1,98.86500037714,8|0,0:0|0:0,0:0:0:0:
297,153,10213,2,0,L|311:261,1,98.86500037714
170,119,10444,2,0,B|156:71|156:71|172:25,1,98.86500037714,8|0,0:0|0:0,0:0:0:0:
428,85,10674,6,0,L|405:200,1,98.86500037714,0|8,0:0|0:0,0:0:0:0:
329,347,10905,2,0,L|309:250,1,98.86500037714,8|0,0:0|0:0,0:0:0:0:
270,88,11136,1,0,0:0:0:0:
203,329,11251,1,0,0:0:0:0:
203,329,11482,6,0,P|117:253|24:253,1,197.73000075428,4|0,0:0|0:0,0:0:0:0:
261,189,11828,2,0,P|328:171|357:142,1,98.86500037714,8|0,0:0|0:0,0:0:0:0:
150,49,12059,2,0,L|165:169,1,98.86500037714
348,39,12290,1,8,0:0:0:0:
254,82,12405,1,0,0:0:0:0:
444,101,12521,6,0,P|462:44|456:-3,1,98.86500037714
345,176,12751,2,0,P|342:225|359:271,1,98.86500037714,8|0,0:0|0:0,0:0:0:0:
334,62,12982,2,0,L|230:44,1,98.86500037714
261,263,13213,1,8,0:0:0:0:
151,185,13328,6,0,P|230:138|340:161,1,197.73000075428
146,298,13674,2,0,L|30:284,1,98.86500037714,8|0,0:0|0:0,0:0:0:0:
280,370,13905,2,0,L|396:356,1,98.86500037714
484,292,14136,1,8,0:0:0:0:
372,231,14251,1,0,0:0:0:0:
485,162,14367,6,0,P|497:103|489:65,1,98.86500037714
284,86,14597,2,0,B|328:113|328:113|389:108,1,98.86500037714,8|0,0:0|0:0,0:0:0:0:
397,3,14828,1,0,0:0:0:0:
173,45,14944,2,0,L|190:147,1,98.86500037714,0|8,0:0|0:0,0:0:0:0:
281,312,15174,6,0,P|222:256|98:267,1,197.73000075428,4|0,0:0|0:0,0:0:0:0:
328,210,15521,2,0,P|387:195|420:171,1,98.86500037714,8|0,0:0|0:0,0:0:0:0:
323,27,15751,1,0,0:0:0:0:
263,119,15867,1,0,0:0:0:0:
414,62,15982,1,8,0:0:0:0:
171,83,16097,1,0,0:0:0:0:
432,77,16213,6,0,L|442:198,1,98.86500037714,8|0,0:0|0:0,0:0:0:0:
336,330,16444,2,0,L|344:231,1,98.86500037714,8|0,0:0|0:0,0:0:0:0:
447,302,16674,1,8,0:0:0:0:
235,212,16790,1,8,0:0:0:0:
235,212,17021,6,0,P|179:192|126:197,1,98.86500037714,4|0,0:0|0:0,0:0:0:0:
304,123,17251,1,0,0:0:0:0:
182,6,17367,2,0,L|194:110,1,98.86500037714,8|0,0:0|0:0,0:0:0:0:
220,342,17597,1,0,0:0:0:0:
102,287,17713,1,0,0:0:0:0:
301,276,17828,1,8,0:0:0:0:
94,380,17944,1,0,0:0:0:0:
36,220,18059,6,0,P|35:164|55:120,1,98.86500037714
266,139,18290,1,8,0:0:0:0:
157,195,18405,1,0,0:0:0:0:
200,46,18521,2,0,P|254:30|376:105,1,197.73000075428,0|8,0:0|0:0,0:0:0:0:
235,326,18867,6,0,B|208:224|291:237|265:136,1,197.73000075428,2|0,0:0|0:0,0:0:0:0:
77,144,19213,2,0,B|119:175|119:175|173:171,1,98.86500037714,8|0,0:0|0:0,0:0:0:0:
421,322,19444,2,0,B|379:291|379:291|325:295,1,98.86500037714
148,303,19674,1,8,0:0:0:0:
347,194,19790,1,0,0:0:0:0:
208,69,19905,6,0,L|198:187,1,98.86500037714
307,300,20136,1,8,0:0:0:0:
287,116,20251,1,0,0:0:0:0:
100,226,20367,2,0,P|163:211|195:193,1,98.86500037714
432,81,20597,1,8,0:0:0:0:
300,23,20713,6,0,L|314:226,1,197.73000075428,4|0,0:0|0:0,0:0:0:0:
98,76,21059,2,0,L|206:91,1,98.86500037714,8|0,0:0|0:0,0:0:0:0:
495,165,21290,2,0,L|387:180,1,98.86500037714
231,284,21521,1,8,0:0:0:0:
464,262,21636,6,0,P|510:182|491:69,1,197.73000075428
301,56,21982,2,0,P|351:93|390:102,1,98.86500037714,8|0,0:0|0:0,0:0:0:0:
225,155,22213,2,0,P|178:169|140:200,1,98.86500037714
328,246,22444,1,8,0:0:0:0:
199,330,22559,6,0,B|124:314|124:314|82:330|82:330|1:314,1,197.73000075428,4|0,0:0|0:0,0:0:0:0:
42,118,22905,2,0,L|53:235,1,98.86500037714,8|0,0:0|0:0,0:0:0:0:
178,125,23136,2,0,L|187:26,1,98.86500037714
281,212,23367,1,8,0:0:0:0:
401,119,23482,1,8,0:0:0:0:
281,92,23597,5,8,0:0:0:0:
405,235,23713,1,0,0:0:0:0:
405,235,23771,1,0,0:0:0:0:
405,235,23828,2,0,L|507:216,1,98.86500037714,8|0,0:0|0:0,0:0:0:0:
317,327,24059,1,0,0:0:0:0:
317,327,24405,6,0,P|255:300|139:304,1,169,4|0,0:0|0:0,0:0:0:0:
0,248,24751,2,0,P|40:223|71:190,1,84.5,8|0,0:0|0:0,0:0:0:0:
185,83,24982,2,0,P|186:130|199:173,1,84.5
326,215,25213,1,8,0:0:0:0:
326,215,25444,6,0,L|345:125,1,84.5
427,266,25674,2,0,L|444:348,1,84.5,8|0,0:0|0:0,0:0:0:0:
294,326,25905,1,0,0:0:0:0:
214,262,26021,1,0,0:0:0:0:
115,284,26136,1,8,0:0:0:0:
195,345,26251,6,0,P|224:275|219:169,1,169
51,112,26597,2,0,P|95:127|146:127,1,84.5,8|0,0:0|0:0,0:0:0:0:
295,105,26828,1,0,0:0:0:0:
295,105,27059,2,0,L|308:14,1,84.5,8|0,0:0|0:0,0:0:0:0:
399,171,27290,6,0,L|406:348,1,169,0|8,0:0|0:0,0:0:0:0:
405,339,27751,1,2,0:0:0:0:
310,251,27867,1,2,0:0:0:0:
502,281,27982,1,0,0:0:0:0:
296,358,28097,6,0,P|207:351|154:293,1,169
189,107,28444,2,0,B|214:145|214:145|212:197,1,84.5,8|0,0:0|0:0,0:0:0:0:
2,206,28674,2,0,L|92:200,1,84.5
376,114,28905,2,0,L|286:108,1,84.5,8|0,0:0|0:0,0:0:0:0:
115,23,29136,6,0,B|144:56|144:56|151:101,1,84.5
269,297,29367,2,0,B|240:264|240:264|233:219,1,84.5,8|0,0:0|0:0,0:0:0:0:
339,36,29597,1,0,0:0:0:0:
396,273,29713,2,0,L|383:373,1,84.5,0|8,0:0|0:0,0:0:0:0:
326,171,29944,6,0,P|411:151|486:189,1,169
287,293,30290,1,8,0:0:0:0:
198,140,30405,1,0,0:0:0:0:
164,257,30521,2,0,L|161:362,1,84.5
1,162,30751,2,0,P|46:158|93:178,1,84.5,8|0,0:0|0:0,0:0:0:0:
358,114,30982,6,0,B|272:91|283:161|198:139,1,169,0|8,0:0|0:0,0:0:0:0:
223,33,31328,1,0,0:0:0:0:
333,211,31444,2,0,L|325:311,1,84.5,2|2,0:0|0:0,0:0:0:0:
441,193,31674,1,0,0:0:0:0:
246,372,31790,6,0,P|229:316|156:232,1,169,4|0,0:0|0:0,0:0:0:0:
4,110,32136,2,0,P|46:125|105:130,1,84.5,8|0,0:0|0:0,0:0:0:0:
300,108,32367,2,0,B|257:102|257:102|220:125,1,84.5
123,317,32597,1,8,0:0:0:0:
262,206,32713,1,0,0:0:0:0:
124,118,32828,6,0,L|141:217,1,84.5
326,331,33059,2,0,P|274:312|231:310,1,84.5,8|0,0:0|0:0,0:0:0:0:
379,220,33290,2,0,P|420:214|459:198,1,84.5
303,100,33521,1,8,0:0:0:0:
219,216,33636,6,0,L|235:387,1,169
137,319,33982,1,8,0:0:0:0:
308,220,34097,1,0,0:0:0:0:
122,179,34213,2,0,P|73:161|42:137,1,84.5
294,100,34444,2,0,P|343:82|374:58,1,84.5,8|0,0:0|0:0,0:0:0:0:
175,8,34674,6,0,L|190:113,1,84.5
214,282,34905,1,8,0:0:0:0:
214,282,35136,2,0,P|271:261|293:243,1,84.5,2|2,0:0|0:0,0:0:0:0:
125,230,35367,1,0,0:0:0:0:
292,351,35482,6,0,P|223:319|111:330,1,169
15,137,35828,2,0,L|32:234,1,84.5,8|0,0:0|0:0,0:0:0:0:
191,140,36059,2,0,P|211:88|209:47,1,84.5
329,265,36290,2,0,P|278:242|237:243,1,84.5,8|0,0:0|0:0,0:0:0:0:
342,136,36521,6,0,L|448:121,1,84.5
154,229,36751,2,0,L|48:214,1,84.5,8|0,0:0|0:0,0:0:0:0:
142,52,36982,1,0,0:0:0:0:
223,140,37097,1,0,0:0:0:0:
46,99,37213,1,8,0:0:0:0:
259,35,37328,6,0,B|345:7|337:79|423:52,1,169,2|0,0:0|0:0,0:0:0:0:
489,172,37674,2,0,L|477:275,1,84.5,8|0,0:0|0:0,0:0:0:0:
293,209,37905,2,0,P|340:173|381:161,1,84.5
314,315,38136,1,8,0:0:0:0:
202,162,38251,1,0,0:0:0:0:
140,274,38367,6,0,L|155:366,1,84.5
26,196,38597,2,0,L|39:112,1,84.5,8|8,0:0|0:0,0:0:0:0:
154,35,38828,1,8,0:0:0:0:
238,187,38944,2,0,B|191:190|191:190|144:161,1,84.5
331,99,39174,6,0,B|370:155|370:155|341:293,1,169,4|0,0:0|0:0,0:0:0:0:
441,81,39521,2,0,P|470:46|506:22,1,84.5,8|0,0:0|0:0,0:0:0:0:
253,173,39751,2,0,L|155:155,1,84.5
273,9,39982,2,0,P|304:40|324:85,1,84.5,8|0,0:0|0:0,0:0:0:0:
373,270,40213,6,0,L|382:165,1,84.5
242,314,40444,1,8,0:0:0:0:
242,314,40674,2,0,P|263:366|290:391,1,84.5
456,338,40905,1,8,0:0:0:0:
273,200,41021,6,0,P|195:201|129:267,1,169
17,100,41367,2,0,P|53:129|74:165,1,84.5,8|0,0:0|0:0,0:0:0:0:
176,69,41597,2,0,P|198:33|231:7,1,84.5
410,103,41828,2,0,L|314:94,1,84.5,8|0,0:0|0:0,0:0:0:0:
203,237,42059,6,0,B|268:225|268:225|307:235|307:235|389:220,1,169,0|8,0:0|0:0,0:0:0:0:
418,343,42405,1,0,0:0:0:0:
292,316,42521,2,0,B|280:251|280:251|290:212|290:212|275:130,1,169,2|0,0:0|0:0,0:0:0:0:
147,35,42867,6,0,P|71:38|12:116,1,169
118,213,43213,2,0,B|110:129,1,84.5,8|0,0:0|0:0,0:0:0:0:
34,289,43444,2,0,P|74:320|113:323,1,84.5
294,281,43674,2,0,L|198:276,1,84.5,8|0,0:0|0:0,0:0:0:0:
371,373,43905,6,0,P|413:310|386:209,1,169,0|8,0:0|0:0,0:0:0:0:
262,81,44251,1,0,0:0:0:0:
293,190,44367,1,0,0:0:0:0:
366,37,44482,1,0,0:0:0:0:
173,38,44597,1,8,0:0:0:0:
389,136,44713,6,0,L|489:125,1,84.5
319,254,44944,1,0,0:0:0:0:
203,180,45059,2,0,L|103:169,1,84.5,8|0,0:0|0:0,0:0:0:0:
245,15,45290,2,0,P|272:62|281:99,1,84.5
285,330,45521,2,0,P|297:289|319:254,1,84.5,8|0,0:0|0:0,0:0:0:0:
169,361,45751,6,0,P|81:349|26:293,1,169,0|8,0:0|0:0,0:0:0:0:
50,174,46097,1,0,0:0:0:0:
216,217,46213,2,0,P|167:242|132:245,1,84.5,2|2,0:0|0:0,0:0:0:0:
167,94,46444,1,0,0:0:0:0:
334,161,46559,6,0,L|315:337,1,169,4|0,0:0|0:0,0:0:0:0:
487,291,46905,2,0,B|452:267|452:267|402:273,1,84.5,8|0,0:0|0:0,0:0:0:0:
157,176,47136,2,0,B|192:200|192:200|242:194,1,84.5
416,75,47367,1,8,0:0:0:0:
229,93,47482,1,0,0:0:0:0:
306,265,47597,6,0,P|329:220|327:174,1,84.5
137,268,47828,2,0,L|147:380,1,84.5,8|0,0:0|0:0,0:0:0:0:
12,210,48059,1,0,0:0:0:0:
196,164,48174,2,0,P|139:158|115:141,1,84.5,0|8,0:0|0:0,0:0:0:0:
246,319,48405,6,0,P|291:294|410:301,1,169
512,202,48751,1,8,0:0:0:0:
351,153,48867,1,0,0:0:0:0:
440,43,48982,2,0,L|453:133,1,84.5
396,316,49213,2,0,L|408:232,1,84.5,8|0,0:0|0:0,0:0:0:0:
291,38,49444,5,0,0:0:0:0:
291,38,49674,2,0,P|271:87|267:123,1,84.5,8|0,0:0|0:0,0:0:0:0:
306,289,49905,1,0,0:0:0:0:
414,203,50021,1,0,0:0:0:0:
211,230,50136,1,8,0:0:0:0:
474,288,50251,6,0,B|514:237|514:237|502:122,1,169
309,181,50597,2,0,L|404:201,1,84.5,8|0,0:0|0:0,0:0:0:0:
206,114,50828,2,0,L|111:134,1,84.5
27,293,51059,1,8,0:0:0:0:
214,260,51174,1,0,0:0:0:0:
121,222,51290,6,0,P|119:294|130:317,1,84.5
303,297,51521,2,0,P|305:225|294:202,1,84.5,8|0,0:0|0:0,0:0:0:0:
200,65,51751,2,0,L|213:156,1,84.5
287,8,51982,1,8,0:0:0:0:
300,214,52097,6,0,P|311:148|373:54,1,169
367,282,52444,1,8,0:0:0:0:
211,148,52559,1,0,0:0:0:0:
449,225,52674,2,0,P|465:273|460:315,1,84.5
155,277,52905,2,0,L|250:265,1,84.5,8|0,0:0|0:0,0:0:0:0:
382,135,53136,2,0,P|334:126|298:103,1,84.5
85,195,53367,2,0,P|121:174|163:167,1,84.5,8|8,0:0|0:0,0:0:0:0:
352,230,53597,1,8,0:0:0:0:
254,349,53713,2,0,L|238:265,1,84.5
189,55,53944,6,0,P|132:33|59:42,1,126.750004835129,4|0,0:0|0:0,0:0:0:0:
303,107,54290,2,0,P|340:83|362:56,1,63.3750024175645,10|0,0:0|0:0,0:0:0:0:
204,162,54521,2,0,L|198:237,1,63.3750024175645
121,320,54751,1,8,0:0:0:0:
121,320,54982,6,0,P|105:278|45:216,1,126.750004835129,0|10,0:0|0:0,0:0:0:0:
7,345,55328,1,0,0:0:0:0:
230,297,55444,2,0,L|292:277,1,63.3750024175645,0|10,0:0|0:0,0:0:0:0:
291,282,55790,6,0,P|318:220|365:170,1,126.750004835129
512,81,56136,2,0,P|476:97|444:99,1,63.3750024175645,10|0,0:0|0:0,0:0:0:0:
273,56,56367,2,0,L|341:64,1,63.3750024175645
474,208,56597,1,8,0:0:0:0:
474,208,56828,6,0,L|465:338,1,126.750004835129,2|8,0:0|0:0,0:0:0:0:
286,262,57174,1,0,0:0:0:0:
286,262,57232,1,0,0:0:0:0:
286,262,57290,2,0,L|363:249,1,63.3750024175645,0|10,0:0|0:0,0:0:0:0:
348,251,57636,6,0,P|293:223|243:160,1,126.750004835129
321,36,57982,2,0,L|324:106,1,63.3750024175645,8|0,0:0|0:0,0:0:0:0:
144,89,58213,2,0,P|183:78|208:76,1,63.3750024175645
101,199,58444,2,0,P|69:195|39:186,1,63.3750024175645,10|0,0:0|0:0,0:0:0:0:
144,305,58674,6,0,P|208:285|271:287,1,126.750004835129,0|10,0:0|0:0,0:0:0:0:
267,286,59136,2,0,L|278:363,1,63.3750024175645,0|10,0:0|0:0,0:0:0:0:
325,197,59367,1,0,0:0:0:0:
381,382,59482,6,0,P|381:329|412:256,1,126.750004835129
487,153,59828,2,0,P|453:160|418:159,1,63.3750024175645,8|0,0:0|0:0,0:0:0:0:
230,80,60059,1,0,0:0:0:0:
367,53,60174,1,0,0:0:0:0:
325,197,60290,2,0,L|312:131,1,63.3750024175645,8|0,0:0|0:0,0:0:0:0:
215,217,60521,6,0,P|206:290|183:341,1,126.750004835129,0|8,0:0|0:0,0:0:0:0:
91,295,60867,1,0,0:0:0:0:
299,280,60982,2,0,L|381:268,1,63.3750024175645
205,187,61213,1,8,0:0:0:0:
461,175,61328,6,0,P|371:178|306:134,1,169,4|0,0:0|0:0,0:0:0:0:
197,15,61674,1,8,0:0:0:0:
387,37,61790,1,0,0:0:0:0:
296,146,61905,2,0,L|286:62,1,84.5
198,199,62136,2,0,L|188:283,1,84.5,8|0,0:0|0:0,0:0:0:0:
0,119,62367,6,0,B|52:85|52:85|162:103,1,169,0|8,0:0|0:0,0:0:0:0:
284,225,62713,1,0,0:0:0:0:
107,259,62828,2,0,P|140:223|178:201,1,84.5
377,195,63059,1,8,0:0:0:0:
263,305,63174,6,0,L|279:120,1,169
216,30,63521,2,0,P|178:17|129:17,1,84.5,8|0,0:0|0:0,0:0:0:0:
365,71,63751,2,0,P|407:70|447:57,1,84.5
255,148,63982,2,0,L|247:232,1,84.5,8|0,0:0|0:0,0:0:0:0:
155,353,64213,5,0,0:0:0:0:
110,184,64328,1,0,0:0:0:0:
0,268,64444,2,0,P|48:282|95:278,1,84.5,8|0,0:0|0:0,0:0:0:0:
336,314,64674,2,0,L|241:327,1,84.5
420,245,64905,1,8,0:0:0:0:
198,221,65021,6,0,P|274:224|342:166,1,169,4|0,0:0|0:0,0:0:0:0:
107,155,65367,2,0,B|79:209|79:209|105:323,1,169,8|0,0:0|0:0,0:0:0:0:
213,118,65713,1,0,0:0:0:0:
124,50,65828,2,0,P|77:38|34:42,1,84.5,8|0,0:0|0:0,0:0:0:0:
285,37,66059,6,0,P|327:38|367:27,1,84.5
223,223,66290,2,0,L|214:128,1,84.5,8|0,0:0|0:0,0:0:0:0:
341,267,66521,2,0,L|333:351,1,84.5
318,154,66751,1,8,0:0:0:0:
252,318,66867,6,0,L|428:295,1,169
450,93,67213,1,8,0:0:0:0:
296,167,67328,1,0,0:0:0:0:
487,186,67444,1,8,0:0:0:0:
262,80,67559,1,0,0:0:0:0:
390,167,67674,1,8,0:0:0:0:
206,200,67790,1,0,0:0:0:0:
359,71,67905,1,8,0:0:0:0:
71,49,68136,6,0,B|93:108|91:174|91:174|103:140|136:108,1,190.125
185,201,68713,6,0,P|131:260|15:232,1,202.799993811035,4|0,0:0|0:0,0:0:0:0:
274,120,69059,2,0,B|300:163|300:163|299:220,1,101.399996905518,8|0,0:0|0:0,0:0:0:0:
163,99,69290,2,0,P|146:47|154:-2,1,101.399996905518
385,37,69521,2,0,L|278:25,1,101.399996905518,8|0,0:0|0:0,0:0:0:0:
389,209,69751,5,0,0:0:0:0:
472,125,69867,1,0,0:0:0:0:
290,157,69982,2,0,P|275:212|302:275,1,101.399996905518,8|0,0:0|0:0,0:0:0:0:
488,227,70213,2,0,L|387:208,1,101.399996905518
233,325,70444,1,8,0:0:0:0:
422,306,70559,6,0,B|425:254|446:223|446:223|428:208|428:208|450:173|443:117,1,202.799993811035
245,76,70905,2,0,P|280:117|329:135,1,101.399996905518,8|0,0:0|0:0,0:0:0:0:
161,173,71136,2,0,L|52:178,1,101.399996905518
253,324,71367,2,0,B|274:277|274:277|260:226,1,101.399996905518,8|0,0:0|0:0,0:0:0:0:
120,90,71597,5,0,0:0:0:0:
170,266,71713,1,0,0:0:0:0:
246,157,71828,1,8,0:0:0:0:
246,157,72059,2,0,P|292:179|360:183,1,101.399996905518
124,189,72290,1,8,0:0:0:0:
280,299,72405,6,0,B|215:277|215:277|65:318,1,202.799993811035,4|0,0:0|0:0,0:0:0:0:
362,373,72751,2,0,B|390:329|390:329|381:264,1,101.399996905518,8|0,0:0|0:0,0:0:0:0:
277,112,72982,2,0,B|270:160|270:160|298:204,1,101.399996905518
503,144,73213,2,0,L|399:169,1,101.399996905518,8|0,0:0|0:0,0:0:0:0:
200,39,73444,6,0,B|255:39|296:12|296:12|325:55|379:69,1,202.799993811035,0|8,0:0|0:0,0:0:0:0:
137,147,73790,1,0,0:0:0:0:
261,212,73905,2,0,L|278:102,1,101.399996905518
380,175,74136,1,8,0:0:0:0:
159,281,74251,6,0,P|262:235|350:272,1,202.799993811035
70,355,74597,2,0,P|48:303|57:248,1,101.399996905518,8|0,0:0|0:0,0:0:0:0:
209,66,74828,2,0,B|222:115|222:115|199:171,1,101.399996905518
0,149,75059,2,0,L|106:161,1,101.399996905518,8|0,0:0|0:0,0:0:0:0:
299,34,75290,6,0,B|197:7|210:90|106:62,1,202.799993811035,0|8,0:0|0:0,0:0:0:0:
382,122,75636,1,0,0:0:0:0:
275,151,75751,2,0,L|276:258,1,101.399996905518
276,253,76097,6,0,B|352:237|352:237|399:257|399:257|481:242,1,202.799993811035,4|0,0:0|0:0,0:0:0:0:
256,352,76444,2,0,L|152:342,1,101.399996905518,8|0,0:0|0:0,0:0:0:0:
39,287,76674,1,0,0:0:0:0:
197,223,76790,1,0,0:0:0:0:
91,78,76905,2,0,B|72:129|72:129|84:175,1,101.399996905518,8|0,0:0|0:0,0:0:0:0:
349,106,77136,6,0,B|279:121|233:79|233:79|212:117|176:131,1,202.799993811035,0|8,0:0|0:0,0:0:0:0:
311,1,77482,1,0,0:0:0:0:
451,73,77597,2,0,L|434:181,1,101.399996905518
345,343,77828,1,8,0:0:0:0:
270,262,77944,6,0,P|335:233|446:300,1,202.799993811035
229,366,78290,2,0,L|121:349,1,101.399996905518,8|0,0:0|0:0,0:0:0:0:
15,223,78521,2,0,B|67:211|67:211|120:243,1,101.399996905518
295,132,78751,2,0,P|247:158|195:161,1,101.399996905518,8|0,0:0|0:0,0:0:0:0:
5,44,78982,5,0,0:0:0:0:
195,61,79097,1,0,0:0:0:0:
109,207,79213,2,0,L|95:103,1,101.399996905518,8|0,0:0|0:0,0:0:0:0:
224,259,79444,2,0,L|210:359,1,101.399996905518
107,316,79674,1,8,0:0:0:0:
201,146,79790,6,0,B|303:126|285:208|396:185,1,202.799993811035,4|0,0:0|0:0,0:0:0:0:
495,303,80136,2,0,P|418:284|312:358,1,202.799993811035,8|0,0:0|0:0,0:0:0:0:
140,273,80482,2,0,B|191:284|191:284|240:262,1,101.399996905518,0|8,0:0|0:0,0:0:0:0:
399,168,80713,1,0,0:0:0:0:
277,53,80828,6,0,L|272:159,1,101.399996905518,8|0,0:0|0:0,0:0:0:0:
64,113,81059,2,0,P|129:87|181:93,1,101.399996905518,8|0,0:0|0:0,0:0:0:0:
331,240,81290,1,8,0:0:0:0:
167,318,81405,2,0,L|172:212,1,101.399996905518,8|0,0:0|0:0,0:0:0:0:
292,36,81636,6,0,P|375:33|440:97,1,169,4|0,0:0|0:0,0:0:0:0:
348,225,81982,2,0,L|343:129,1,84.5,8|0,0:0|0:0,0:0:0:0:
171,216,82213,2,0,L|166:300,1,84.5
76,195,82444,1,8,0:0:0:0:
252,145,82559,1,0,0:0:0:0:
140,98,82674,6,0,P|77:79|56:61,1,84.5
277,154,82905,2,0,P|340:135|361:117,1,84.5,8|0,0:0|0:0,0:0:0:0:
482,278,83136,2,0,L|462:377,1,84.5
422,189,83367,1,8,0:0:0:0:
344,301,83482,6,0,P|338:247|268:147,1,169
64,174,83828,1,8,0:0:0:0:
209,223,83944,1,0,0:0:0:0:
141,59,84059,2,0,L|152:150,1,84.5
108,338,84290,2,0,L|118:254,1,84.5,8|0,0:0|0:0,0:0:0:0:
245,88,84521,5,0,0:0:0:0:
310,261,84636,1,0,0:0:0:0:
357,146,84751,1,8,0:0:0:0:
357,146,84982,2,0,P|391:99|400:62,1,84.5,2|2,0:0|0:0,0:0:0:0:
488,203,85213,1,0,0:0:0:0:
387,283,85328,6,0,P|332:244|226:231,1,169
54,315,85674,2,0,B|98:324|98:324|146:304,1,84.5,8|0,0:0|0:0,0:0:0:0:
117,109,85905,2,0,L|117:201,1,84.5
240,98,86136,1,8,0:0:0:0:
26,155,86251,1,0,0:0:0:0:
222,195,86367,6,0,P|291:183|309:167,1,84.5
482,277,86597,2,0,P|445:257|403:257,1,84.5,8|0,0:0|0:0,0:0:0:0:
420,56,86828,2,0,L|409:153,1,84.5
303,283,87059,1,8,0:0:0:0:
334,84,87174,6,0,L|509:123,1,169
244,169,87521,1,8,0:0:0:0:
412,249,87636,1,0,0:0:0:0:
321,363,87751,2,0,P|303:317|303:277,1,84.5
246,84,87982,2,0,L|243:177,1,84.5,8|0,0:0|0:0,0:0:0:0:
76,308,88213,6,0,P|135:270|139:353,1,169,0|8,0:0|0:0,0:0:0:0:
77,191,88559,1,0,0:0:0:0:
249,250,88674,1,2,0:0:0:0:
56,315,88790,1,2,0:0:0:0:
17,109,88905,1,0,0:0:0:0:
180,175,89021,6,0,L|153:344,1,169,4|0,0:0|0:0,0:0:0:0:
332,188,89367,2,0,P|328:138|311:100,1,84.5,8|0,0:0|0:0,0:0:0:0:
262,290,89597,2,0,B|298:315|298:315|349:315,1,84.5
422,186,89828,1,8,0:0:0:0:
217,114,89944,1,0,0:0:0:0:
341,15,90059,6,0,L|350:111,1,84.5
95,195,90290,2,0,L|102:110,1,84.5,8|0,0:0|0:0,0:0:0:0:
202,17,90521,1,0,0:0:0:0:
228,205,90636,1,0,0:0:0:0:
73,32,90751,1,8,0:0:0:0:
217,114,90867,6,0,L|238:291,1,169
128,225,91213,1,8,0:0:0:0:
333,153,91328,1,0,0:0:0:0:
314,306,91444,2,0,P|262:298|230:275,1,84.5
412,237,91674,2,0,P|448:215|490:211,1,84.5,8|0,0:0|0:0,0:0:0:0:
423,349,91905,5,0,0:0:0:0:
423,349,92136,2,0,L|328:339,1,84.5,8|0,0:0|0:0,0:0:0:0:
151,272,92367,1,2,0:0:0:0:
330,220,92482,1,2,0:0:0:0:
80,183,92597,1,8,0:0:0:0:
223,342,92713,6,0,P|250:286|202:183,1,169
38,61,93059,2,0,B|70:89|70:89|118:95,1,84.5,8|0,0:0|0:0,0:0:0:0:
321,33,93290,2,0,B|279:38|279:38|247:66,1,84.5
336,168,93521,1,8,0:0:0:0:
454,68,93636,1,0,0:0:0:0:
467,194,93751,6,0,L|452:296,1,84.5
270,318,93982,2,0,L|372:333,1,84.5,8|0,0:0|0:0,0:0:0:0:
205,207,94213,1,0,0:0:0:0:
306,142,94328,2,0,P|330:204|324:232,1,84.5,0|8,0:0|0:0,0:0:0:0:
147,310,94559,6,0,P|99:263|95:166,1,169
211,57,94905,1,8,0:0:0:0:
205,207,95021,1,0,0:0:0:0:
113,18,95136,1,0,0:0:0:0:
315,92,95251,1,0,0:0:0:0:
172,131,95367,1,8,0:0:0:0:
339,2,95482,1,0,0:0:0:0:
427,202,95597,6,0,L|332:189,1,84.5
214,321,95828,2,0,L|309:308,1,84.5,8|8,0:0|0:0,0:0:0:0:
175,217,96059,1,8,0:0:0:0:
107,242,96174,1,0,0:0:0:0:
65,301,96290,1,0,0:0:0:0:
47,370,96405,6,0,P|37:310|5:248,1,126.750004835129,4|0,0:0|0:0,0:0:0:0:
89,86,96751,2,0,P|74:126|72:155,1,63.3750024175645,10|0,0:0|0:0,0:0:0:0:
175,217,96982,2,0,L|310:204,1,126.750004835129,0|8,0:0|0:0,0:0:0:0:
491,61,97444,2,0,P|409:34|366:53,1,126.750004835129,2|8,0:0|0:0,0:0:0:0:
415,293,97905,2,0,L|418:218,1,63.3750024175645,0|10,0:0|0:0,0:0:0:0:
423,135,98136,1,0,0:0:0:0:
228,141,98251,6,0,B|269:188|269:188|336:183,1,126.750004835129
308,88,98597,1,10,0:0:0:0:
162,321,98828,1,0,0:0:0:0:
91,172,99059,1,8,0:0:0:0:
404,254,99290,1,2,0:0:0:0:
445,91,99521,1,8,0:0:0:0:
358,155,99636,1,0,0:0:0:0:
404,254,99751,2,0,L|487:243,1,63.3750024175645,0|2,0:0|0:0,0:0:0:0:
349,62,99982,1,8,0:0:0:0:
256,187,100097,6,0,L|247:322,1,126.750004835129
149,364,100444,2,0,P|91:355|33:298,2,126.750004835129,8|0|10,0:0|0:0|0:0,0:0:0:0:
381,169,101136,2,0,P|439:160|497:103,1,126.750004835129,0|8,0:0|0:0,0:0:0:0:
174,52,101597,2,0,L|182:123,1,63.3750024175645,0|10,0:0|0:0,0:0:0:0:
156,210,101828,1,8,0:0:0:0:
103,18,101944,6,0,B|189:11|172:70|260:63,1,169
390,176,102290,2,0,P|427:142|444:107,1,84.5,8|0,0:0|0:0,0:0:0:0:
359,290,102521,1,0,0:0:0:0:
266,210,102636,1,0,0:0:0:0:
195,306,102751,2,0,P|158:272|141:237,1,84.5,10|0,0:0|0:0,0:0:0:0:
31,65,102982,5,0,0:0:0:0:
121,20,103097,1,0,0:0:0:0:
199,85,103213,2,0,L|187:178,1,84.5,8|0,0:0|0:0,0:0:0:0:
273,239,103444,1,8,0:0:0:0:
85,281,103559,1,0,0:0:0:0:
223,320,103674,1,8,0:0:0:0:
82,190,103790,6,0,P|50:138|56:17,1,169,4|0,0:0|0:0,0:0:0:0:
270,57,104136,2,0,B|239:88|239:88|186:84,1,84.5,8|0,0:0|0:0,0:0:0:0:
353,177,104367,2,0,L|447:193,1,84.5
240,291,104597,2,0,P|224:252|224:199,1,84.5,8|0,0:0|0:0,0:0:0:0:
447,108,104828,6,0,B|476:161|476:161|446:289,1,169,0|8,0:0|0:0,0:0:0:0:
258,303,105174,1,0,0:0:0:0:
291,156,105290,2,0,L|382:169,1,84.5
194,199,105521,1,8,0:0:0:0:
329,60,105636,6,0,P|271:77|167:31,1,169
18,157,105982,2,0,P|71:132|118:128,1,84.5,8|0,0:0|0:0,0:0:0:0:
202,283,106213,2,0,L|193:192,1,84.5
398,212,106444,2,0,B|364:240|364:240|319:238,1,84.5,8|0,0:0|0:0,0:0:0:0:
293,74,106674,1,0,0:0:0:0:
293,74,106905,6,0,L|377:88,1,84.5,8|0,0:0|0:0,0:0:0:0:
217,130,107136,1,0,0:0:0:0:
377,6,107251,1,0,0:0:0:0:
197,19,107367,1,8,0:0:0:0:
385,115,107482,6,0,B|401:176|401:176|385:218|385:218|405:291,1,169,4|0,0:0|0:0,0:0:0:0:
299,344,107828,2,0,L|209:325,1,84.5,8|0,0:0|0:0,0:0:0:0:
113,260,108059,1,0,0:0:0:0:
272,223,108174,1,0,0:0:0:0:
164,84,108290,2,0,P|158:127|174:177,1,84.5,8|0,0:0|0:0,0:0:0:0:
422,123,108521,6,0,B|366:90|366:90|250:123,1,169,0|8,0:0|0:0,0:0:0:0:
201,265,108867,1,0,0:0:0:0:
398,244,108982,2,0,B|491:232,1,84.5
316,342,109213,1,8,0:0:0:0:
292,163,109328,6,0,L|108:145,1,169
28,183,109674,1,8,0:0:0:0:
193,74,109790,1,0,0:0:0:0:
36,95,109905,1,8,0:0:0:0:
223,156,110021,1,0,0:0:0:0:
92,244,110136,1,8,0:0:0:0:
109,47,110251,1,0,0:0:0:0:
180,233,110367,1,8,0:0:0:0:
123,146,110597,6,0,B|108:213|134:279|134:279|119:255|86:242,1,190.125
62,328,111174,6,0,P|128:368|222:297,1,202.799993811035,4|0,0:0|0:0,0:0:0:0:
267,100,111521,1,8,0:0:0:0:
296,244,111636,1,0,0:0:0:0:
442,167,111751,2,0,B|395:146|395:146|335:162,1,101.399996905518
120,174,111982,2,0,B|167:195|167:195|227:179,1,101.399996905518,8|0,0:0|0:0,0:0:0:0:
171,42,112213,6,0,L|48:53,1,101.399996905518
360,54,112444,2,0,L|483:43,1,101.399996905518,8|0,0:0|0:0,0:0:0:0:
388,229,112674,1,0,0:0:0:0:
276,116,112790,2,0,P|255:60|265:12,1,101.399996905518,0|8,0:0|0:0,0:0:0:0:
464,156,113021,6,0,B|495:233|495:233|436:354,1,202.799993811035
220,248,113367,1,8,0:0:0:0:
376,213,113482,1,0,0:0:0:0:
269,352,113597,2,0,L|164:344,1,101.399996905518
185,146,113828,2,0,B|236:133|236:133|284:164,1,101.399996905518,8|0,0:0|0:0,0:0:0:0:
471,71,114059,6,0,B|384:121|384:121|296:65,1,202.799993811035,0|8,0:0|0:0,0:0:0:0:
389,11,114405,1,0,0:0:0:0:
207,23,114521,2,0,L|94:30,1,101.399996905518
16,110,114751,1,8,0:0:0:0:
97,197,114867,6,0,P|186:211|276:152,1,202.799993811035,4|0,0:0|0:0,0:0:0:0:
463,251,115213,2,0,P|412:222|365:218,1,101.399996905518,8|0,0:0|0:0,0:0:0:0:
283,343,115444,2,0,B|334:347|334:347|379:326,1,101.399996905518
409,116,115674,1,8,0:0:0:0:
295,245,115790,1,0,0:0:0:0:
499,168,115905,6,0,P|513:106|501:69,1,101.399996905518
314,55,116136,2,0,B|293:102|293:102|309:162,1,101.399996905518,8|0,0:0|0:0,0:0:0:0:
387,314,116367,2,0,L|397:203,1,101.399996905518
417,27,116597,1,8,0:0:0:0:
212,25,116713,6,0,B|179:97|179:97|221:221,1,202.799993811035
258,330,117059,1,8,0:0:0:0:
104,256,117174,1,0,0:0:0:0:
307,177,117290,2,0,P|258:211|212:213,1,101.399996905518
395,79,117521,2,0,L|506:89,1,101.399996905518,8|0,0:0|0:0,0:0:0:0:
445,306,117751,6,0,B|420:259|420:259|427:206,1,101.399996905518,0|8,0:0|0:0,0:0:0:0:
269,11,117982,2,0,B|275:58|275:58|250:105,1,101.399996905518,8|0,0:0|0:0,0:0:0:0:
155,220,118213,1,0,0:0:0:0:
100,58,118328,1,0,0:0:0:0:
100,58,118559,6,0,B|127:163|31:143|59:248,1,202.799993811035,4|0,0:0|0:0,0:0:0:0:
255,232,118905,2,0,L|141:218,1,101.399996905518,8|0,0:0|0:0,0:0:0:0:
287,333,119136,1,0,0:0:0:0:
348,161,119251,1,0,0:0:0:0:
387,268,119367,2,0,P|410:329|403:378,1,101.399996905518,8|0,0:0|0:0,0:0:0:0:
254,126,119597,6,0,P|311:69|421:95,1,202.799993811035,0|8,0:0|0:0,0:0:0:0:
480,212,119944,1,0,0:0:0:0:
343,256,120059,2,0,B|329:204|329:204|352:151,1,101.399996905518
451,333,120290,1,8,0:0:0:0:
273,356,120405,6,0,B|207:362|207:362|148:334|148:334|69:345,1,202.799993811035
234,252,120751,1,8,0:0:0:0:
82,194,120867,1,0,0:0:0:0:
167,76,120982,2,0,L|177:181,1,101.399996905518
389,132,121213,2,0,P|331:109|287:116,1,101.399996905518,8|0,0:0|0:0,0:0:0:0:
472,225,121444,6,0,B|514:173|514:173|488:30,1,202.799993811035,0|8,0:0|0:0,0:0:0:0:
316,22,121790,1,0,0:0:0:0:
295,159,121905,2,0,L|399:135,1,101.399996905518
394,137,122251,6,0,L|190:117,1,202.799993811035,4|0,0:0|0:0,0:0:0:0:
0,169,122597,2,0,B|60:170|94:131|94:131|99:181|157:212,1,202.799993811035,8|0,0:0|0:0,0:0:0:0:
11,58,122944,1,0,0:0:0:0:
66,251,123059,2,0,B|75:303|75:303|56:349,1,101.399996905518,8|0,0:0|0:0,0:0:0:0:
192,117,123290,6,0,B|173:72|173:72|182:20,1,101.399996905518,8|0,0:0|0:0,0:0:0:0:
332,255,123521,2,0,L|218:248,1,101.399996905518,8|0,0:0|0:0,0:0:0:0:
364,145,123751,1,8,0:0:0:0:
427,332,123867,1,8,0:0:0:0:
427,332,124097,6,0,P|474:276|468:168,1,169,4|0,0:0|0:0,0:0:0:0:
351,61,124444,2,0,L|364:148,1,84.5,8|0,0:0|0:0,0:0:0:0:
332,255,124674,2,0,B|246:277|257:207|172:229,1,169,0|8,0:0|0:0,0:0:0:0:
6,317,125021,1,0,0:0:0:0:
93,361,125136,6,0,P|102:308|84:264,1,84.5
91,152,125367,1,8,0:0:0:0:
4,108,125482,2,0,P|-5:161|13:205,1,84.5
182,191,125713,2,0,P|191:138|173:94,1,84.5,0|8,0:0|0:0,0:0:0:0:
93,279,125944,6,0,P|170:316|255:294,1,169,4|0,0:0|0:0,0:0:0:0:
394,208,126290,2,0,L|304:190,1,84.5,8|0,0:0|0:0,0:0:0:0:
182,109,126521,2,0,B|254:65|254:65|343:80,1,169,4|8,0:0|0:0,0:0:0:0:
169,212,126867,1,0,0:0:0:0:
86,147,126982,6,0,L|75:55,1,84.5,6|8,0:0|0:0,0:0:0:0:
179,235,127213,2,0,L|168:318,1,84.5,8|0,0:0|0:0,0:0:0:0:
285,367,127444,1,0,0:0:0:0:
349,275,127559,1,8,0:0:0:0:
349,275,127617,1,8,0:0:0:0:
349,275,127674,1,8,0:0:0:0:
434,359,127790,6,0,P|465:305|418:177,1,202.799993811035,4|0,0:0|0:0,0:0:0:0:
246,91,128136,1,8,0:0:0:0:
228,248,128251,1,0,0:0:0:0:
316,185,128367,2,0,L|206:165,1,101.399996905518
0,288,128597,5,8,0:0:0:0:
70,359,128713,1,0,0:0:0:0:
158,315,128828,1,0,0:0:0:0:
145,216,128944,1,0,0:0:0:0:
47,199,129059,1,8,0:0:0:0:
85,280,129174,1,0,0:0:0:0:
85,280,129290,2,0,B|121:207|121:207|83:92,1,202.799993811035,0|8,0:0|0:0,0:0:0:0:
285,11,129636,6,0,B|312:116|216:96|244:201,1,202.799993811035
325,331,129982,1,8,0:0:0:0:
367,180,130097,1,0,0:0:0:0:
447,253,130213,2,0,L|339:260,1,101.399996905518
81,270,130444,1,8,0:0:0:0:
188,125,130559,1,0,0:0:0:0:
188,306,130674,2,0,P|166:352|117:378,1,101.399996905518
81,160,130905,2,0,P|75:105|97:58,1,101.399996905518,8|0,0:0|0:0,0:0:0:0:
253,214,131136,5,0,0:0:0:0:
81,270,131251,1,8,0:0:0:0:
188,125,131367,1,8,0:0:0:0:
188,306,131482,1,8,0:0:0:0:
81,160,131597,6,0,P|97:55|184:10,1,202.799993811035,4|8,0:0|0:0,0:0:0:0:
351,115,131944,2,0,B|280:115|232:172|232:172|215:136|170:116,1,202.799993811035
329,23,132290,2,0,L|434:40,1,101.399996905518,8|0,0:0|0:0,0:0:0:0:
512,270,132521,6,0,B|407:297|427:201|322:229,1,202.799993811035,0|8,0:0|0:0,0:0:0:0:
168,326,132867,2,0,B|231:299|231:299|294:331|294:331|383:301,1,202.799993811035
220,205,133213,1,8,0:0:0:0:
284,119,133328,6,0,P|206:97|118:170,1,202.799993811035
366,189,133674,2,0,B|397:147|397:147|392:92,1,101.399996905518,8|0,0:0|0:0,0:0:0:0:
220,205,133905,2,0,B|215:253|215:253|246:295,1,101.399996905518
354,310,134136,1,8,0:0:0:0:
284,119,134251,6,0,B|182:81|192:178|90:139,1,202.799993811035
132,44,134597,1,8,0:0:0:0:
108,246,134713,1,8,0:0:0:0:
0,171,134828,2,0,P|-3:114|26:66,1,101.399996905518
16,75,135174,6,0,B|47:139|47:139|11:268,1,202.799993811035,4|0,0:0|0:0,0:0:0:0:
232,218,135521,2,0,B|186:193|186:193|138:206,1,101.399996905518,8|0,0:0|0:0,0:0:0:0:
202,343,135751,2,0,L|309:326,1,101.399996905518
463,195,135982,1,8,0:0:0:0:
394,111,136097,6,0,P|354:199|404:287,1,202.799993811035
274,105,136444,2,0,P|238:62|191:33,1,101.399996905518,8|0,0:0|0:0,0:0:0:0:
159,223,136674,2,0,L|271:205,1,101.399996905518
72,166,136905,1,8,0:0:0:0:
166,328,137021,6,0,B|92:328|64:264|64:264|42:296|3:309,1,202.799993811035
165,127,137367,2,0,B|179:176|179:176|157:226,1,101.399996905518,8|0,0:0|0:0,0:0:0:0:
290,324,137597,2,0,B|269:277|269:277|283:228,1,101.399996905518
396,43,137828,1,8,0:0:0:0:
485,114,137944,2,0,B|426:162|426:162|295:132,1,202.799993811035
121,78,138290,6,0,L|225:65,1,101.399996905518,8|0,0:0|0:0,0:0:0:0:
45,25,138521,1,0,0:0:0:0:
204,150,138636,1,0,0:0:0:0:
50,148,138751,1,8,0:0:0:0:
195,259,138867,6,0,P|283:222|385:241,1,202.799993811035,4|0,0:0|0:0,0:0:0:0:
121,337,139213,2,0,B|88:299|88:299|92:244,1,101.399996905518,8|0,0:0|0:0,0:0:0:0:
165,63,139444,2,0,L|153:174,1,101.399996905518
69,21,139674,1,8,0:0:0:0:
261,117,139790,6,0,L|286:338,1,202.799993811035
350,166,140136,2,0,P|390:129|436:116,1,101.399996905518,8|0,0:0|0:0,0:0:0:0:
195,259,140367,2,0,P|147:243|110:209,1,101.399996905518
24,276,140597,1,8,0:0:0:0:
183,128,140713,6,0,P|122:101|6:170,1,202.799993811035
146,327,141059,1,8,0:0:0:0:
296,221,141174,1,0,0:0:0:0:
186,230,141290,1,8,0:0:0:0:
360,311,141405,1,0,0:0:0:0:
396,165,141521,1,8,0:0:0:0:
252,310,141636,1,0,0:0:0:0:
467,268,141751,1,8,0:0:0:0:
81,95,141982,6,0,B|77:129|59:153|59:153|74:166|100:172|100:172|94:190|87:230|87:230|64:224|32:220,1,211.25,0|4,0:0|0:0,0:0:0:0:
62,117,149944,6,0,P|126:91|195:119,1,126.750004835129,4|0,0:0|0:0,0:0:0:0:
154,246,150290,2,0,L|124:175,1,63.3750024175645,8|0,0:0|0:0,0:0:0:0:
295,199,150521,1,0,0:0:0:0:
322,282,150636,1,0,0:0:0:0:
270,354,150751,2,0,P|221:368|196:364,1,63.3750024175645,8|0,0:0|0:0,0:0:0:0:
248,116,150982,6,0,B|311:105|311:105|372:144,1,126.750004835129,0|8,0:0|0:0,0:0:0:0:
363,138,151444,2,0,L|432:126,1,63.3750024175645
295,199,151674,1,0,0:0:0:0:
454,254,151790,2,0,P|384:253|334:296,1,126.750004835129
219,281,152136,1,8,0:0:0:0:
155,342,152251,1,0,0:0:0:0:
71,309,152367,2,0,P|39:280|24:247,1,63.3750024175645
141,171,152597,2,0,L|135:241,1,63.3750024175645,8|0,0:0|0:0,0:0:0:0:
32,145,152828,5,0,0:0:0:0:
309,97,153059,1,8,0:0:0:0:
85,69,153290,1,0,0:0:0:0:
239,158,153405,1,0,0:0:0:0:
197,36,153636,6,0,P|249:14|327:30,1,126.750004835129
416,110,153982,2,0,B|395:152|395:152|418:246,1,126.750004835129,8|0,3:0|0:0,0:0:0:0:
503,167,154328,1,0,0:0:0:0:
303,115,154444,2,0,L|220:134,1,63.3750024175645
299,236,154674,1,0,0:0:0:0:
299,236,154905,6,0,B|308:273|355:339|355:339|323:313|289:310,1,190.125,10|0,0:0|0:0,0:0:0:0:
220,284,155482,6,0,P|283:309|400:249,1,202.799993811035,6|2,0:0|0:0,0:0:0:0:
320,49,155828,2,0,B|291:94|291:94|303:156,1,101.399996905518,10|0,0:0|0:0,0:0:0:0:
508,159,156059,2,0,P|454:140|403:144,1,101.399996905518,2|0,0:0|0:0,0:0:0:0:
124,220,156290,2,0,L|232:206,1,101.399996905518,10|0,0:0|0:0,0:0:0:0:
209,41,156521,6,0,B|102:21|129:114|23:94,1,202.799993811035,0|8,0:0|0:0,0:0:0:0:
186,129,156867,1,0,0:0:0:0:
28,192,156982,2,0,P|33:265|56:296,1,101.399996905518
266,346,157213,1,8,0:0:0:0:
332,259,157328,6,0,B|264:231|264:231|144:288,1,202.799993811035
124,137,157674,1,8,0:0:0:0:
327,168,157790,1,0,0:0:0:0:
221,34,157905,2,0,L|232:139,1,101.399996905518
413,234,158136,2,0,P|434:163|422:124,1,101.399996905518,8|0,0:0|0:0,0:0:0:0:
188,264,158367,6,0,L|73:243,1,101.399996905518,2|0,0:0|0:0,0:0:0:0:
328,156,158597,2,0,L|443:135,1,101.399996905518,8|0,0:0|0:0,0:0:0:0:
314,278,158828,1,0,0:0:0:0:
204,152,158944,1,10,0:0:0:0:
425,243,159059,1,0,0:0:0:0:
369,370,159174,6,0,P|309:382|209:288,1,202.799993811035,6|2,0:0|0:0,0:0:0:0:
312,63,159521,2,0,B|339:107|339:107|326:160,1,101.399996905518,8|0,0:0|0:0,0:0:0:0:
71,95,159751,1,0,0:0:0:0:
224,28,159867,1,0,0:0:0:0:
174,192,159982,2,0,L|157:78,1,101.399996905518,8|0,0:0|0:0,0:0:0:0:
23,282,160213,6,0,B|86:249|86:249|214:296,1,202.799993811035,0|10,0:0|0:0,0:0:0:0:
407,288,160559,1,0,0:0:0:0:
316,236,160674,2,0,P|301:291|317:342,1,101.399996905518,0|10,0:0|0:0,0:0:0:0:
244,155,160905,1,0,0:0:0:0:
151,375,161021,6,0,P|179:310|124:174,1,202.799993811035,4|0,0:0|0:0,0:0:0:0:
0,60,161367,2,0,B|43:90|43:90|106:79,1,101.399996905518,10|0,0:0|0:0,0:0:0:0:
303,69,161597,2,0,P|253:68|204:101,1,101.399996905518,2|2,0:0|0:0,0:0:0:0:
285,283,161828,2,0,L|279:169,1,101.399996905518,8|0,0:0|0:0,0:0:0:0:
438,34,162059,5,2,0:0:0:0:
413,244,162174,1,0,0:0:0:0:
368,109,162290,1,8,0:0:0:0:
510,188,162405,1,10,3:0:0:0:
260,104,162521,1,10,0:0:0:0:
471,113,162636,1,10,0:0:0:0:
471,113,162867,6,0,B|471:163|449:194|449:194|476:209|476:209|451:240|455:309,1,202.799993811035,4|0,0:0|0:0,0:0:0:0:
230,235,163213,2,0,B|274:205|274:205|328:209,1,101.399996905518,8|0,0:0|0:0,0:0:0:0:
326,352,163444,2,0,L|219:341,1,101.399996905518,2|0,0:0|0:0,0:0:0:0:
11,219,163674,1,10,0:0:0:0:
181,160,163790,1,0,0:0:0:0:
105,101,163905,6,0,P|85:146|100:208,1,101.399996905518
258,218,164136,2,0,P|278:173|263:111,1,101.399996905518,8|0,0:0|0:0,0:0:0:0:
205,38,164367,1,0,0:0:0:0:
167,265,164482,2,0,L|183:371,1,101.399996905518,0|8,0:0|0:0,0:0:0:0:
441,346,164713,6,0,B|389:331|367:283|367:283|330:317|265:311,1,202.799993811035,4|0,0:0|0:0,0:0:0:0:
447,152,165059,2,0,L|461:268,1,101.399996905518,8|2,0:0|0:0,0:0:0:0:
236,153,165290,1,2,0:0:0:0:
335,59,165405,1,2,0:0:0:0:
337,205,165521,1,8,0:0:0:0:
143,115,165636,1,0,0:0:0:0:
419,134,165751,6,0,P|467:120|506:85,1,101.399996905518,0|2,0:0|0:0,0:0:0:0:
246,61,165982,1,8,0:0:0:0:
337,205,166097,2,0,P|258:188|162:261,1,202.799993811035,2|0,0:0|0:0,0:0:0:0:
273,308,166444,1,8,0:0:0:0:
57,368,166559,6,0,B|92:301|92:301|60:225|60:225|93:146,1,236.599992779541,6|0,0:0|0:0,0:0:0:0:
197,20,166905,1,8,0:0:0:0:
262,209,167021,1,0,0:0:0:0:
183,145,167136,2,0,P|245:107|292:112,1,118.299996389771
401,226,167367,1,8,0:0:0:0:
428,34,167482,1,2,0:0:0:0:
509,119,167597,6,0,B|413:143|413:143|286:71,1,236.599992779541,0|8,0:0|0:0,0:0:0:0:
104,123,167944,1,0,0:0:0:0:
208,30,168059,2,0,L|198:154,1,118.299996389771,0|8,0:0|0:0,0:0:0:0:
257,343,168290,1,0,0:0:0:0:
312,238,168405,6,0,B|183:190|196:312|67:264,1,253.500009670258,6|0,0:0|0:0,0:0:0:0:
66,63,168751,2,0,B|113:102|113:102|121:167,1,126.750004835129,8|0,0:0|0:0,0:0:0:0:
257,343,168982,2,0,B|265:278|265:278|313:238,1,126.750004835129
419,163,169213,1,8,0:0:0:0:
398,339,169328,1,2,0:0:0:0:
342,108,169444,6,0,P|430:69|508:194,1,253.500009670258,0|8,0:0|0:0,0:0:0:0:
232,183,169790,1,0,0:0:0:0:
232,183,169847,1,0,0:0:0:0:
232,183,169905,2,0,L|89:154,1,126.750004835129
232,60,170136,1,8,0:0:0:0:
116,291,170251,6,0,L|381:242,1,270.4,14|2,0:0|0:0,0:0:0:0:
512,105,170597,1,8,0:0:0:0:
311,171,170713,1,2,0:0:0:0:
453,304,170828,2,0,P|473:237|435:166,1,135.2,14|2,0:0|0:0,0:0:0:0:
217,66,171059,1,8,0:0:0:0:
251,259,171174,5,2,0:0:0:0:
251,259,171232,1,0,0:0:0:0:
251,259,171290,1,6,0:0:0:0:
381,127,171405,1,0,0:0:0:0:
116,169,171521,2,0,L|68:178,10,42.25,10|0|0|0|0|0|0|0|0|0|0,0:0|0:0|0:0|0:0|0:0|0:0|0:0|0:0|0:0|0:0|0:0,0:0:0:0:
