osu file format v14

[General]
AudioFilename: audio.mp3
AudioLeadIn: 0
PreviewTime: 3922
Countdown: 0
SampleSet: Normal
StackLeniency: 0.7
Mode: 0
LetterboxInBreaks: 0
WidescreenStoryboard: 1

[Editor]
Bookmarks: 24856,39749,54403,61787,68587,96864,104249,143018,150056,159056
DistanceSpacing: 0.7
BeatDivisor: 4
GridSize: 4
TimelineZoom: 3.199999

[Metadata]
Title:Heisei Sayonara Bye Bye
TitleUnicode:ヘイセイサヨナラバイバイ
Artist:Zips
ArtistUnicode:じっぷす
Creator:Awaken
Version:Hard
Source:ヘイセイプロジェクト
Tags:vocaloid 平成project heisei project gumi グミ len fast leader kyshiro japanese rock jippusu pusu nanase not-116
BeatmapID:2035096
BeatmapSetID:971417

[Difficulty]
HPDrainRate:4
CircleSize:3.8
OverallDifficulty:6
ApproachRate:8
SliderMultiplier:1.2
SliderTickRate:1

[Events]
//Background and Video events
Video,-484,"synr.mp4"
0,0,"rre.jpg",0,0
//Break Periods
2,142559,148847
//Storyboard Layer 0 (Background)
//Storyboard Layer 1 (Fail)
//Storyboard Layer 2 (Pass)
//Storyboard Layer 3 (Foreground)
//Storyboard Layer 4 (Overlay)
//Storyboard Sound Samples

[TimingPoints]
521,230.769230769231,4,1,1,40,1,0
3521,-200,4,1,1,40,0,0
3867,-117.647058823529,4,1,1,30,0,0
4097,-83.3333333333333,4,1,1,70,0,1
16790,-200,4,1,1,70,0,1
17021,-100,4,1,1,70,0,0
24405,-100,4,1,1,50,0,0
27867,-200,4,1,1,50,0,0
28097,-100,4,1,1,50,0,0
31559,-200,4,1,1,50,0,0
31790,-100,4,1,1,50,0,0
35251,-200,4,1,1,50,0,0
35482,-100,4,1,1,50,0,0
38944,-200,4,1,1,50,0,0
39174,-100,4,1,1,50,0,0
42636,-200,4,1,1,50,0,0
42867,-100,4,1,1,50,0,0
46328,-200,4,1,1,50,0,0
46559,-100,4,1,1,50,0,0
53713,-200,4,1,1,50,0,0
53944,-200,4,1,1,40,0,0
60521,-100,4,1,1,50,0,0
66867,-83.3333333333333,4,1,1,55,0,0
67155,-71.4285714285714,4,1,1,55,0,0
67386,-62.5,4,1,1,55,0,0
67617,-55.5555555555556,4,1,1,55,0,0
67905,-200,4,1,1,55,0,0
68713,-83.3333333333333,4,1,1,70,0,1
81405,-200,4,1,1,70,0,1
81636,-100,4,1,1,50,0,0
85097,-200,4,1,1,50,0,0
85328,-100,4,1,1,50,0,0
88790,-200,4,1,1,50,0,0
89021,-100,4,1,1,50,0,0
96174,-200,4,1,1,50,0,0
96405,-200,4,1,1,40,0,0
102867,-100,4,1,1,40,0,0
103790,-100,4,1,1,50,0,0
109328,-83.3333333333333,4,1,1,50,0,0
109674,-71.4285714285714,4,1,1,50,0,0
109847,-62.5,4,1,1,50,0,0
110078,-55.5555555555556,4,1,1,50,0,0
111174,-83.3333333333333,4,1,1,70,0,1
123867,-200,4,1,1,70,0,1
125136,-100,4,1,1,70,0,1
127790,-83.3333333333333,4,1,1,70,0,1
131136,-83.3333333333333,4,1,1,70,0,0
131597,-83.3333333333333,4,1,1,70,0,1
134828,-200,4,1,1,70,0,0
135174,-83.3333333333333,4,1,1,70,0,1
138290,-83.3333333333333,4,1,1,70,0,0
138867,-83.3333333333333,4,1,1,70,0,1
141001,-71.4285714285714,4,1,1,70,0,1
141290,-62.5,4,1,1,70,0,1
141463,-55.5555555555556,4,1,1,70,0,1
141751,-200,4,1,1,70,0,0
149597,-100,4,1,1,40,0,0
154905,-133.333333333333,4,1,1,30,0,0
155251,-200,4,1,1,30,0,0
155482,-83.3333333333333,4,1,1,85,0,1
158944,-200,4,1,1,85,0,1
159174,-83.3333333333333,4,1,1,85,0,1
162694,-83.3333333333333,4,1,1,85,0,0
162867,-83.3333333333333,4,1,1,85,0,1
166501,-83.3333333333333,4,1,1,85,0,0
166559,-83.3333333333333,4,1,1,85,0,1
168347,-83.3333333333333,4,1,1,85,0,0
168405,-83.3333333333333,4,1,1,85,0,1
170194,-83.3333333333333,4,1,1,85,0,0
170251,-83.3333333333333,4,1,1,85,0,1
171290,-83.3333333333333,4,1,1,85,0,0
171521,-100,4,1,1,85,0,1
171578,-100,4,1,1,85,0,0
171751,-100,4,1,1,5,0,0

[Colours]
Combo1 : 255,111,111
Combo2 : 85,255,85
Combo3 : 162,162,255
Combo4 : 81,187,206
Combo5 : 255,255,17

[HitObjects]
145,76,521,6,0,L|268:70,1,120,0|8,0:0|0:0,0:0:0:0:
359,201,982,2,0,L|236:195,1,120,0|8,0:0|0:0,0:0:0:0:
150,330,1444,2,0,L|273:324,1,120,0|8,0:0|0:0,0:0:0:0:
356,317,1790,1,0,0:0:0:0:
356,317,1905,1,0,0:0:0:0:
89,77,3521,6,0,P|111:128|141:146,1,90,8|0,0:0|0:0,0:0:0:0:
155,150,4097,6,0,L|241:139,1,71.9999978027344,4|0,0:0|0:0,0:0:0:0:
270,115,4328,2,0,L|346:120,1,71.9999978027344,0|8,0:0|0:0,0:0:0:0:
388,138,4559,1,0,0:0:0:0:
388,138,4674,2,0,P|408:210|391:285,2,143.999995605469,0|8|0,0:0|0:0|0:0,0:0:0:0:
224,310,5367,5,8,0:0:0:0:
161,118,5597,2,0,L|157:197,1,71.9999978027344,0|0,0:0|0:0,0:0:0:0:
224,310,5944,2,0,P|271:323|361:298,1,143.999995605469,0|0,0:0|0:0,0:0:0:0:
396,262,6290,2,0,L|388:176,1,71.9999978027344,8|0,0:0|0:0,0:0:0:0:
372,142,6521,2,0,P|325:129|235:154,2,143.999995605469,0|8|0,0:0|0:0|0:0,0:0:0:0:
148,190,7213,5,8,0:0:0:0:
119,384,7444,2,0,L|107:297,1,71.9999978027344,0|0,0:0|0:0,0:0:0:0:
148,190,7790,2,0,P|202:160|296:165,1,143.999995605469,4|0,0:0|0:0,0:0:0:0:
332,154,8136,2,0,P|346:99|331:71,1,71.9999978027344,8|0,0:0|0:0,0:0:0:0:
308,48,8367,6,0,L|140:40,2,143.999995605469,0|8|0,0:0|0:0|0:0,0:0:0:0:
421,189,9059,1,8,0:0:0:0:
299,311,9290,2,0,L|217:320,1,71.9999978027344,0|0,0:0|0:0,0:0:0:0:
64,259,9636,2,0,P|32:210|31:119,1,143.999995605469,0|0,0:0|0:0,0:0:0:0:
69,97,9982,2,0,L|140:89,1,71.9999978027344,8|0,0:0|0:0,0:0:0:0:
191,92,10213,6,0,P|223:141|224:232,2,143.999995605469,0|8|0,0:0|0:0|0:0,0:0:0:0:
63,260,10905,1,8,0:0:0:0:
200,353,11136,2,0,L|296:346,1,71.9999978027344,0|0,0:0|0:0,0:0:0:0:
464,153,11482,6,0,B|411:125|411:125|373:153|311:142,1,143.999995605469,4|0,0:0|0:0,0:0:0:0:
281,133,11828,2,0,L|197:138,1,71.9999978027344,8|0,0:0|0:0,0:0:0:0:
167,166,12059,2,0,P|160:234|195:308,2,143.999995605469,0|8|0,0:0|0:0|0:0,0:0:0:0:
264,39,12751,1,8,0:0:0:0:
354,247,12982,2,0,L|344:333,1,71.9999978027344,0|0,0:0|0:0,0:0:0:0:
264,39,13328,6,0,P|302:63|412:67,1,143.999995605469,0|0,0:0|0:0,0:0:0:0:
443,94,13674,2,0,P|455:136|452:182,1,71.9999978027344,8|0,0:0|0:0,0:0:0:0:
433,209,13905,2,0,L|280:230,2,143.999995605469,0|8|0,0:0|0:0|0:0,0:0:0:0:
261,131,14597,1,8,0:0:0:0:
193,322,14828,2,0,L|179:225,1,71.9999978027344,0|0,0:0|0:0,0:0:0:0:
76,28,15174,6,0,P|56:68|130:110,1,143.999995605469,4|0,0:0|0:0,0:0:0:0:
174,97,15521,2,0,L|341:108,1,143.999995605469,8|0,0:0|0:0,0:0:0:0:
364,125,15867,2,0,P|378:168|371:203,2,71.9999978027344,0|8|0,0:0|0:0|0:0,0:0:0:0:
352,75,16213,5,8,0:0:0:0:
275,223,16444,1,8,0:0:0:0:
81,119,16674,1,8,0:0:0:0:
81,119,16790,1,8,0:0:0:0:
27,301,17021,6,0,L|167:296,1,120,4|0,0:0|0:0,0:0:0:0:
184,316,17367,2,0,B|247:304|247:304|302:315,2,120,8|0|8,0:0|0:0|0:0,0:0:0:0:
431,285,18059,2,0,P|447:234|408:183,1,120,0|8,0:0|0:0,0:0:0:0:
368,175,18405,1,0,0:0:0:0:
368,175,18521,2,0,L|234:191,1,120,0|8,0:0|0:0,0:0:0:0:
207,179,18867,6,0,P|173:125|192:60,1,120,2|0,0:0|0:0,0:0:0:0:
216,47,19213,2,0,L|281:36,1,60,8|0,0:0|0:0,0:0:0:0:
314,53,19444,2,0,L|378:58,1,60,0|0,0:0|0:0,0:0:0:0:
411,38,19674,2,0,L|476:23,1,60,8|0,0:0|0:0,0:0:0:0:
492,59,19905,6,0,P|506:120|483:189,1,120,0|8,0:0|0:0,0:0:0:0:
469,209,20251,1,0,0:0:0:0:
469,209,20367,2,0,L|326:205,1,120,0|8,0:0|0:0,0:0:0:0:
313,229,20713,6,0,P|256:249|192:237,1,120,4|0,0:0|0:0,0:0:0:0:
162,217,21059,2,0,L|153:152,1,60,8|0,0:0|0:0,0:0:0:0:
132,121,21290,2,0,L|138:51,1,60,0|0,0:0|0:0,0:0:0:0:
290,48,21636,6,0,L|295:175,1,120,0|0,0:0|0:0,0:0:0:0:
326,195,21982,2,0,L|317:264,2,60,8|0|0,0:0|0:0|0:0,0:0:0:0:
51,309,22559,6,0,P|93:294|180:308,1,120,4|0,0:0|0:0,0:0:0:0:
203,322,22905,2,0,L|273:313,1,60,8|0,0:0|0:0,0:0:0:0:
303,304,23136,2,0,L|372:313,1,60,0|0,0:0|0:0,0:0:0:0:
251,83,23482,1,0,0:0:0:0:
251,83,23597,6,0,L|177:93,1,60,8|0,0:0|0:0,0:0:0:0:
156,114,23828,2,0,L|95:124,1,60,8|0,0:0|0:0,0:0:0:0:
62,148,24059,1,8,0:0:0:0:
245,333,24405,6,0,P|319:354|394:280,1,180,4|8,0:0|0:0,0:0:0:0:
416,125,24982,2,0,P|371:116|308:165,1,120,0|8,0:0|0:0,0:0:0:0:
170,247,25444,2,0,P|124:283|66:277,1,120,0|8,0:0|0:0,0:0:0:0:
33,110,25905,2,0,L|36:27,1,60,0|0,0:0|0:0,0:0:0:0:
262,48,26251,6,0,L|276:174,1,120,0|0,0:0|0:0,0:0:0:0:
297,202,26597,2,0,L|288:267,1,60,8|0,0:0|0:0,0:0:0:0:
271,299,26828,2,0,P|196:320|133:300,2,120,0|8|0,0:0|0:0|0:0,0:0:0:0:
426,109,27751,6,0,P|403:153|433:231,1,120,2|0,0:0|0:0,0:0:0:0:
394,257,28097,2,0,P|432:239|446:344,1,180,0|8,0:0|0:0,0:0:0:0:
298,365,28674,2,0,L|164:360,1,120,0|8,0:0|0:0,0:0:0:0:
56,243,29136,2,0,L|190:238,1,120,0|8,0:0|0:0,0:0:0:0:
303,128,29597,2,0,L|239:122,1,60,0|0,0:0|0:0,0:0:0:0:
399,187,29944,6,0,P|421:137|390:65,1,120,0|0,0:0|0:0,0:0:0:0:
366,54,30290,2,0,L|302:48,1,60,8|0,0:0|0:0,0:0:0:0:
266,33,30521,2,0,B|220:43|220:43|180:23|127:43,2,120,0|8|0,0:0|0:0|0:0,0:0:0:0:
155,293,31444,6,0,B|219:273|219:273|271:278,1,120,2|0,0:0|0:0,0:0:0:0:
310,261,31790,2,0,P|324:226|242:112,1,180,4|8,0:0|0:0,0:0:0:0:
147,177,32367,2,0,L|132:40,1,120,0|8,0:0|0:0,0:0:0:0:
296,13,32828,2,0,L|282:132,1,120,0|8,0:0|0:0,0:0:0:0:
263,300,33290,2,0,L|273:374,1,60,0|0,0:0|0:0,0:0:0:0:
431,308,33636,6,0,P|452:256|419:187,1,120,0|0,0:0|0:0,0:0:0:0:
395,175,33982,2,0,L|335:185,1,60,8|0,0:0|0:0,0:0:0:0:
298,165,34213,2,0,P|277:110|298:55,2,120,0|8|0,0:0|0:0|0:0,0:0:0:0:
49,268,35136,6,0,P|96:243|181:247,1,120,2|0,0:0|0:0,0:0:0:0:
203,244,35482,2,0,P|257:241|238:135,1,180,0|8,0:0|0:0,0:0:0:0:
479,100,36059,2,0,P|460:167|474:216,1,120,0|8,0:0|0:0,0:0:0:0:
338,384,36521,2,0,P|357:317|343:268,1,120,0|8,0:0|0:0,0:0:0:0:
195,78,36982,2,0,L|188:142,1,60,0|0,0:0|0:0,0:0:0:0:
66,308,37328,6,0,L|208:298,1,120,2|0,0:0|0:0,0:0:0:0:
224,282,37674,2,0,L|295:295,1,60,8|0,0:0|0:0,0:0:0:0:
314,264,37905,2,0,P|334:227|332:204,1,60,0|0,0:0|0:0,0:0:0:0:
314,172,38136,2,0,L|240:172,1,60,8|0,0:0|0:0,0:0:0:0:
232,135,38367,2,0,P|180:151|107:144,1,120,0|8,0:0|0:0,0:0:0:0:
39,247,38828,2,0,L|99:239,1,60,8|0,0:0|0:0,0:0:0:0:
251,352,39174,6,0,P|328:354|381:266,1,180,4|8,0:0|0:0,0:0:0:0:
393,50,39751,2,0,P|416:117|465:148,1,120,0|8,0:0|0:0,0:0:0:0:
262,140,40213,2,0,P|239:73|190:42,1,120,0|8,0:0|0:0,0:0:0:0:
87,155,40674,2,0,L|81:218,1,60,0|0,0:0|0:0,0:0:0:0:
193,339,41021,6,0,L|322:326,1,120,0|0,0:0|0:0,0:0:0:0:
346,301,41367,2,0,L|418:308,1,60,8|0,0:0|0:0,0:0:0:0:
439,282,41597,2,0,P|454:230|444:162,2,120,0|8|0,0:0|0:0|0:0,0:0:0:0:
270,56,42521,6,0,P|213:43|158:84,1,120,2|0,0:0|0:0,0:0:0:0:
143,111,42867,2,0,B|134:185|134:185|154:217|154:217|148:294,1,180,0|8,0:0|0:0,0:0:0:0:
326,142,43444,2,0,B|332:197|332:197|316:217|316:217|321:278,1,120,0|8,0:0|0:0,0:0:0:0:
475,46,43905,2,0,B|469:101|469:101|485:121|485:121|480:182,1,120,0|8,0:0|0:0,0:0:0:0:
447,324,44367,2,0,L|376:320,1,60,0|0,0:0|0:0,0:0:0:0:
168,283,44713,6,0,P|145:238|170:173,1,120,0|0,0:0|0:0,0:0:0:0:
203,154,45059,2,0,L|267:164,1,60,8|0,0:0|0:0,0:0:0:0:
303,154,45290,2,0,L|373:143,2,60,0|0|8,0:0|0:0|0:0,0:0:0:0:
469,273,45751,1,0,0:0:0:0:
152,306,46213,6,0,P|163:244|139:184,1,120,2|0,0:0|0:0,0:0:0:0:
128,152,46559,2,0,B|165:113|165:113|222:144|305:118,1,180,4|8,0:0|0:0,0:0:0:0:
475,212,47136,2,0,B|439:181|439:181|380:202|357:191,1,120,0|8,0:0|0:0,0:0:0:0:
230,331,47597,2,0,B|266:300|266:300|325:321|348:310,1,120,0|8,0:0|0:0,0:0:0:0:
382,100,48059,2,0,L|309:89,1,60,0|0,0:0|0:0,0:0:0:0:
179,135,48405,2,0,P|157:190|191:236,1,120,0|0,0:0|0:0,0:0:0:0:
229,249,48751,2,0,L|296:233,1,60,8|0,0:0|0:0,0:0:0:0:
191,286,48982,2,0,B|141:273|141:273|102:288|58:277,2,120,0|8|0,0:0|0:0|0:0,0:0:0:0:
441,256,49905,6,0,L|440:331,2,60,0|0|8,0:0|0:0|0:0,0:0:0:0:
424,217,50251,2,0,P|393:180|279:229,1,180,0|8,0:0|0:0,0:0:0:0:
197,302,50828,2,0,P|271:342|321:324,1,120,0|8,0:0|0:0,0:0:0:0:
161,162,51290,2,0,P|87:122|37:140,1,120,0|8,0:0|0:0,0:0:0:0:
7,278,51751,2,0,L|17:338,1,60,0|0,0:0|0:0,0:0:0:0:
207,369,52097,6,0,L|341:352,1,120,0|0,0:0|0:0,0:0:0:0:
353,321,52444,2,0,P|394:335|422:331,1,60,8|0,0:0|0:0,0:0:0:0:
437,302,52674,2,0,L|447:231,1,60,0|0,0:0|0:0,0:0:0:0:
428,203,52905,2,0,P|387:189|359:193,1,60,8|0,0:0|0:0,0:0:0:0:
333,170,53136,2,0,P|281:184|200:185,1,120,0|8,0:0|0:0,0:0:0:0:
82,249,53597,2,0,L|79:322,1,60,8|0,0:0|0:0,0:0:0:0:
227,361,53944,6,0,L|326:353,1,90,4|10,0:0|0:0,0:0:0:0:
456,298,54521,2,0,L|390:299,1,60,0|8,0:0|0:0,0:0:0:0:
267,236,54982,2,0,L|326:235,1,60,0|10,0:0|0:0,0:0:0:0:
442,160,55444,1,0,0:0:0:0:
442,160,55559,2,0,P|407:159|372:150,2,60,10|0|0,0:0|0:0|0:0,0:0:0:0:
481,138,56136,6,0,L|491:67,1,60,10|0,0:0|0:0,0:0:0:0:
339,13,56597,1,8,0:0:0:0:
233,143,56828,2,0,L|243:210,1,60,2|8,0:0|0:0,0:0:0:0:
361,321,57290,2,0,L|359:352,1,30,0|10,0:0|0:0,0:0:0:0:
191,343,57636,6,0,P|155:352|103:350,1,90,0|8,0:0|0:0,0:0:0:0:
28,198,58213,2,0,L|31:129,1,60,0|10,0:0|0:0,0:0:0:0:
165,37,58674,2,0,P|197:46|233:51,1,60,0|10,0:0|0:0,0:0:0:0:
361,147,59136,2,0,L|356:186,1,30,0|10,0:0|0:0,0:0:0:0:
458,311,59482,6,0,L|456:213,1,90,0|8,0:0|0:0,0:0:0:0:
382,69,60059,2,0,L|380:105,2,30,0|0|8,0:0|0:0|0:0,0:0:0:0:
301,217,60521,6,0,P|274:188|186:172,1,120,0|8,0:0|0:0,0:0:0:0:
54,257,60982,2,0,L|59:320,2,60,0|0|8,0:0|0:0|0:0,0:0:0:0:
43,215,61328,6,0,P|24:176|70:112,1,120,4|0,0:0|0:0,0:0:0:0:
101,103,61674,2,0,L|166:116,1,60,8|0,0:0|0:0,0:0:0:0:
202,114,61905,2,0,B|256:105|256:105|331:125,1,120,0|8,0:0|0:0,0:0:0:0:
431,261,62367,2,0,B|377:270|377:270|302:250,1,120,0|8,0:0|0:0,0:0:0:0:
203,355,62828,2,0,L|138:358,1,60,0|0,0:0|0:0,0:0:0:0:
21,255,63174,6,0,P|11:163|76:105,1,180,0|8,0:0|0:0,0:0:0:0:
229,53,63751,2,0,L|363:71,1,120,0|8,0:0|0:0,0:0:0:0:
467,187,64213,2,0,P|477:279|352:350,1,240,0|0,0:0|0:0,0:0:0:0:
322,353,64790,2,0,P|263:345|187:344,1,120,0|6,0:0|0:0,0:0:0:0:
318,105,66059,6,0,P|340:153|317:215,1,120,0|8,0:0|0:0,0:0:0:0:
152,242,66521,2,0,P|130:296|152:350,1,120,0|8,0:0|0:0,0:0:0:0:
256,192,66867,12,0,67905,0:0:0:0:
438,279,68713,6,0,L|354:288,1,71.9999978027344,4|0,0:0|0:0,0:0:0:0:
316,294,68944,2,0,L|218:280,1,71.9999978027344,0|8,0:0|0:0,0:0:0:0:
194,281,69174,1,0,0:0:0:0:
194,281,69290,2,0,P|182:231|181:130,2,143.999995605469,0|8|0,0:0|0:0|0:0,0:0:0:0:
16,152,69982,1,8,0:0:0:0:
140,31,70213,2,0,L|211:29,1,71.9999978027344,0|0,0:0|0:0,0:0:0:0:
363,112,70559,6,0,P|383:169|350:249,1,143.999995605469,0|0,0:0|0:0,0:0:0:0:
305,257,70905,2,0,L|233:239,1,71.9999978027344,8|0,0:0|0:0,0:0:0:0:
184,245,71136,2,0,P|155:309|175:377,2,143.999995605469,0|8|0,0:0|0:0|0:0,0:0:0:0:
11,111,71828,1,8,0:0:0:0:
162,28,72059,2,0,L|171:115,1,71.9999978027344,0|0,0:0|0:0,0:0:0:0:
317,189,72405,6,0,P|371:197|436:127,1,143.999995605469,4|0,0:0|0:0,0:0:0:0:
472,172,72751,2,0,L|461:253,1,71.9999978027344,8|0,0:0|0:0,0:0:0:0:
460,293,72982,2,0,B|399:280|399:280|315:292,2,143.999995605469,0|8|0,0:0|0:0|0:0,0:0:0:0:
247,249,73674,1,8,0:0:0:0:
94,322,73905,2,0,P|71:284|72:250,1,71.9999978027344,0|0,0:0|0:0,0:0:0:0:
167,114,74251,6,0,L|324:136,1,143.999995605469,0|0,0:0|0:0,0:0:0:0:
360,136,74597,2,0,P|381:96|375:67,1,71.9999978027344,8|0,0:0|0:0,0:0:0:0:
342,33,74828,2,0,L|199:13,2,143.999995605469,0|8|0,0:0|0:0|0:0,0:0:0:0:
499,89,75521,1,8,0:0:0:0:
413,238,75751,2,0,L|420:322,1,71.9999978027344,0|0,0:0|0:0,0:0:0:0:
252,357,76097,6,0,P|224:331|117:317,1,143.999995605469,4|0,0:0|0:0,0:0:0:0:
85,280,76444,2,0,P|69:245|75:212,1,71.9999978027344,8|0,0:0|0:0,0:0:0:0:
103,172,76674,2,0,L|183:175,1,71.9999978027344
215,144,76905,2,0,P|220:108|204:76,1,71.9999978027344,8|0,0:0|0:0,0:0:0:0:
165,44,77136,2,0,L|17:64,1,143.999995605469,0|8,0:0|0:0,0:0:0:0:
17,242,77597,2,0,L|95:247,1,71.9999978027344,0|0,0:0|0:0,0:0:0:0:
256,327,77944,6,0,P|315:308|410:319,1,143.999995605469,0|0,0:0|0:0,0:0:0:0:
445,303,78290,2,0,P|461:258|457:232,1,71.9999978027344,8|0,0:0|0:0,0:0:0:0:
454,184,78521,2,0,L|283:168,2,143.999995605469,0|8|0,0:0|0:0|0:0,0:0:0:0:
244,229,79213,1,8,0:0:0:0:
129,99,79444,2,0,L|126:14,1,71.9999978027344,0|0,0:0|0:0,0:0:0:0:
139,199,79790,6,0,P|137:265|188:328,1,143.999995605469,4|0,0:0|0:0,0:0:0:0:
229,344,80136,2,0,L|375:321,1,143.999995605469,8|0,0:0|0:0,0:0:0:0:
410,288,80482,2,0,P|416:249|401:208,2,71.9999978027344,0|8|0,0:0|0:0|0:0,0:0:0:0:
420,337,80828,1,8,0:0:0:0:
329,206,81059,1,8,0:0:0:0:
444,86,81290,1,8,0:0:0:0:
444,86,81405,1,8,0:0:0:0:
261,32,81636,6,0,P|184:30|131:118,1,180,4|8,0:0|0:0,0:0:0:0:
119,334,82213,2,0,P|96:267|47:236,1,120,0|8,0:0|0:0,0:0:0:0:
250,244,82675,2,0,P|273:311|322:342,1,120,0|8,0:0|0:0,0:0:0:0:
425,229,83136,2,0,L|431:166,1,60,0|0,0:0|0:0,0:0:0:0:
319,45,83483,6,0,L|190:58,1,120,0|0,0:0|0:0,0:0:0:0:
166,83,83829,2,0,L|94:76,1,60,8|0,0:0|0:0,0:0:0:0:
73,102,84059,2,0,P|58:154|68:222,2,120,0|8|0,0:0|0:0|0:0,0:0:0:0:
242,328,84983,6,0,P|299:341|354:300,1,120,2|0,0:0|0:0,0:0:0:0:
368,272,85329,2,0,B|377:198|377:198|357:166|357:166|363:89,1,180,0|8,0:0|0:0,0:0:0:0:
186,242,85906,2,0,B|180:187|180:187|196:167|196:167|191:106,1,120,0|8,0:0|0:0,0:0:0:0:
37,338,86367,2,0,B|43:283|43:283|27:263|27:263|32:202,1,120,0|8,0:0|0:0,0:0:0:0:
65,60,86829,2,0,L|136:64,1,60,0|0,0:0|0:0,0:0:0:0:
344,101,87175,6,0,P|367:146|342:211,1,120,0|0,0:0|0:0,0:0:0:0:
309,230,87521,2,0,L|245:220,1,60,8|0,0:0|0:0,0:0:0:0:
209,230,87751,2,0,P|160:242|81:225,1,120,0|8,0:0|0:0,0:0:0:0:
74,34,88213,1,0,0:0:0:0:
360,78,88675,6,0,P|349:140|373:200,1,120,2|0,0:0|0:0,0:0:0:0:
384,232,89021,2,0,B|347:271|347:271|290:240|207:266,1,180,4|8,0:0|0:0,0:0:0:0:
37,172,89598,2,0,B|73:203|73:203|132:182|155:193,1,120,0|8,0:0|0:0,0:0:0:0:
282,53,90059,2,0,B|246:84|246:84|187:63|164:74,1,120,0|8,0:0|0:0,0:0:0:0:
127,278,90521,2,0,L|200:289,1,60,0|0,0:0|0:0,0:0:0:0:
333,249,90867,2,0,P|355:194|321:148,1,120,0|0,0:0|0:0,0:0:0:0:
283,135,91213,2,0,L|216:151,1,60,8|0,0:0|0:0,0:0:0:0:
321,98,91444,2,0,B|371:111|371:111|410:96|454:107,1,120,0|8,0:0|0:0,0:0:0:0:
71,128,91905,1,0,0:0:0:0:
71,128,92367,6,0,L|72:53,2,60,2|2|8,0:0|0:0|0:0,0:0:0:0:
88,167,92713,2,0,P|119:204|233:155,1,180,0|8,0:0|0:0,0:0:0:0:
315,82,93290,2,0,P|241:42|191:60,1,120,0|8,0:0|0:0,0:0:0:0:
351,222,93752,2,0,P|425:262|475:244,1,120,0|8,0:0|0:0,0:0:0:0:
505,106,94213,2,0,L|495:46,1,60,0|0,0:0|0:0,0:0:0:0:
305,15,94559,6,0,L|171:32,1,120,0|0,0:0|0:0,0:0:0:0:
159,63,94906,2,0,P|118:49|90:53,1,60,8|0,0:0|0:0,0:0:0:0:
75,82,95136,2,0,L|65:153,1,60,0|0,0:0|0:0,0:0:0:0:
84,181,95367,2,0,P|125:195|153:191,1,60,8|0,0:0|0:0,0:0:0:0:
179,214,95598,2,0,P|231:200|312:199,1,120,0|8,0:0|0:0,0:0:0:0:
430,135,96059,2,0,L|433:62,1,60,0|0,0:0|0:0,0:0:0:0:
285,23,96406,6,0,L|186:31,1,90,4|10,0:0|0:0,0:0:0:0:
56,86,96983,2,0,L|122:85,1,60,0|8,0:0|0:0,0:0:0:0:
245,148,97444,2,0,L|186:149,1,60,2|8,0:0|0:0,0:0:0:0:
70,224,97906,1,0,0:0:0:0:
70,224,98021,2,0,P|105:225|140:234,2,60,10|0|0,0:0|0:0|0:0,0:0:0:0:
31,246,98598,6,0,L|21:317,1,60,10|0,0:0|0:0,0:0:0:0:
173,371,99059,1,8,0:0:0:0:
279,241,99290,2,0,L|269:174,1,60,2|8,0:0|0:0,0:0:0:0:
231,157,99636,1,0,0:0:0:0:
231,157,99751,2,0,L|191:145,1,30
321,41,100098,6,0,P|357:32|409:34,1,90,0|8,0:0|0:0,0:0:0:0:
484,186,100675,2,0,L|481:255,1,60,0|10,0:0|0:0,0:0:0:0:
347,347,101136,2,0,P|315:338|279:333,1,60,0|8,0:0|0:0,0:0:0:0:
151,237,101598,2,0,L|156:198,1,30,0|10,0:0|0:0,0:0:0:0:
54,73,101944,6,0,L|56:171,1,90,0|8,0:0|0:0,0:0:0:0:
130,315,102521,2,0,L|132:279,2,30,0|0|10,0:0|0:0|0:0,0:0:0:0:
211,167,102983,6,0,P|238:196|326:212,1,120,0|8,0:0|0:0,0:0:0:0:
458,127,103444,2,0,L|453:64,2,60,8|0|8,0:0|0:0|0:0,0:0:0:0:
466,212,103790,6,0,P|485:251|439:315,1,120,4|0,0:0|0:0,0:0:0:0:
408,322,104136,2,0,L|343:309,1,60,8|0,0:0|0:0,0:0:0:0:
307,311,104367,2,0,B|253:320|253:320|178:300,1,120,0|8,0:0|0:0,0:0:0:0:
29,143,104829,2,0,B|83:134|83:134|158:154,1,120,0|8,0:0|0:0,0:0:0:0:
283,52,105290,2,0,L|348:49,1,60,0|0,0:0|0:0,0:0:0:0:
491,129,105636,6,0,P|501:221|436:279,1,180,0|8,0:0|0:0,0:0:0:0:
283,331,106213,2,0,L|149:313,1,120,0|8,0:0|0:0,0:0:0:0:
45,197,106675,2,0,P|35:105|160:34,1,240,0|0,0:0|0:0,0:0:0:0:
190,31,107252,2,0,P|252:42|331:47,1,120,0|6,0:0|0:0,0:0:0:0:
194,279,108521,6,0,P|172:231|195:169,1,120,0|8,0:0|0:0,0:0:0:0:
360,142,108983,2,0,P|382:88|360:34,1,120,0|8,0:0|0:0,0:0:0:0:
256,192,109328,12,0,110367,0:0:0:0:
357,234,111174,6,0,L|271:245,1,71.9999978027344,4|0,0:0|0:0,0:0:0:0:
242,269,111405,2,0,L|166:264,1,71.9999978027344,0|8,0:0|0:0,0:0:0:0:
124,246,111636,1,0,0:0:0:0:
124,246,111751,2,0,P|104:174|121:99,2,143.999995605469,0|8|0,0:0|0:0|0:0,0:0:0:0:
288,74,112444,5,8,0:0:0:0:
351,266,112674,2,0,L|355:187,1,71.9999978027344,0|0,0:0|0:0,0:0:0:0:
288,74,113021,2,0,P|241:61|151:86,1,143.999995605469,0|0,0:0|0:0,0:0:0:0:
116,122,113367,2,0,L|124:208,1,71.9999978027344,8|0,0:0|0:0,0:0:0:0:
140,242,113598,2,0,P|187:255|277:230,2,143.999995605469,0|8|0,0:0|0:0|0:0,0:0:0:0:
364,194,114290,5,8,0:0:0:0:
393,0,114521,2,0,L|405:87,1,71.9999978027344,0|0,0:0|0:0,0:0:0:0:
364,194,114867,2,0,P|310:224|216:219,1,143.999995605469,4|0,0:0|0:0,0:0:0:0:
180,230,115213,2,0,P|166:285|181:313,1,71.9999978027344,8|0,0:0|0:0,0:0:0:0:
204,336,115444,6,0,L|372:344,2,143.999995605469,0|8|0,0:0|0:0|0:0,0:0:0:0:
91,195,116136,1,8,0:0:0:0:
213,73,116367,2,0,L|295:64,1,71.9999978027344,0|0,0:0|0:0,0:0:0:0:
448,125,116713,2,0,P|480:174|481:265,1,143.999995605469,0|0,0:0|0:0,0:0:0:0:
443,287,117059,2,0,L|372:295,1,71.9999978027344,8|0,0:0|0:0,0:0:0:0:
321,292,117290,6,0,P|289:243|288:152,2,143.999995605469,0|8|0,0:0|0:0|0:0,0:0:0:0:
449,124,117982,1,8,0:0:0:0:
312,31,118213,2,0,L|216:38,1,71.9999978027344,0|0,0:0|0:0,0:0:0:0:
48,231,118559,6,0,B|101:259|101:259|139:231|201:242,1,143.999995605469,4|0,0:0|0:0,0:0:0:0:
231,251,118905,2,0,L|315:246,1,71.9999978027344,8|0,0:0|0:0,0:0:0:0:
345,218,119136,2,0,P|352:150|317:76,2,143.999995605469,0|8|0,0:0|0:0|0:0,0:0:0:0:
248,345,119828,1,8,0:0:0:0:
158,137,120059,2,0,L|168:51,1,71.9999978027344,0|0,0:0|0:0,0:0:0:0:
248,345,120405,6,0,P|210:321|100:317,1,143.999995605469,0|0,0:0|0:0,0:0:0:0:
69,290,120751,2,0,P|57:248|60:202,1,71.9999978027344,8|0,0:0|0:0,0:0:0:0:
79,175,120982,2,0,L|232:154,2,143.999995605469,0|8|0,0:0|0:0|0:0,0:0:0:0:
251,253,121674,1,8,0:0:0:0:
319,62,121905,2,0,L|333:159,1,71.9999978027344,0|0,0:0|0:0,0:0:0:0:
436,356,122251,6,0,P|456:316|382:274,1,143.999995605469,4|0,0:0|0:0,0:0:0:0:
338,287,122598,2,0,L|171:276,1,143.999995605469,8|0,0:0|0:0,0:0:0:0:
148,259,122944,2,0,P|134:216|141:181,2,71.9999978027344,0|8|0,0:0|0:0|0:0,0:0:0:0:
160,309,123290,5,8,0:0:0:0:
237,161,123521,1,8,0:0:0:0:
431,265,123751,1,8,0:0:0:0:
431,265,123867,1,8,0:0:0:0:
376,39,124097,6,0,L|370:141,1,90,4|8,0:0|0:0,0:0:0:0:
187,170,124674,2,0,L|191:238,1,60,0|8,0:0|0:0,0:0:0:0:
420,332,125136,6,0,P|436:281|394:215,1,120,0|8,0:0|0:0,0:0:0:0:
383,189,125482,2,0,B|382:152|382:152|409:60,1,120,0|0,0:0|0:0,0:0:0:0:
269,34,125944,6,0,B|138:130|156:-17|21:72,1,240,4|0,0:0|0:0,0:0:0:0:
23,94,126521,2,0,L|35:282,1,180,4|0,0:0|0:0,0:0:0:0:
55,310,126982,2,0,B|182:216|164:363|275:288,1,240,6|0,0:0|0:0,0:0:0:0:
481,97,127790,6,0,L|328:82,1,143.999995605469,4|0,0:0|0:0,0:0:0:0:
293,107,128136,2,0,L|281:178,2,71.9999978027344,8|0|0,0:0|0:0|0:0,0:0:0:0:
74,36,128597,1,8,0:0:0:0:
127,185,128828,2,0,L|115:256,2,71.9999978027344,0|0|8,0:0|0:0|0:0,0:0:0:0:
265,361,129290,2,0,P|347:375|416:334,1,143.999995605469,0|8,0:0|0:0,0:0:0:0:
433,312,129636,6,0,L|417:152,1,143.999995605469,0|0,0:0|0:0,0:0:0:0:
430,119,129982,2,0,L|444:34,2,71.9999978027344,8|0|0,0:0|0:0|0:0,0:0:0:0:
205,25,130444,1,8,0:0:0:0:
266,192,130674,2,0,L|280:107,2,71.9999978027344,0|0|8,0:0|0:0|0:0,0:0:0:0:
90,318,131136,6,0,L|165:310,1,71.9999978027344,0|0,0:0|0:0,0:0:0:0:
204,336,131367,2,0,L|279:328,1,71.9999978027344,8|0,0:0|0:0,0:0:0:0:
322,346,131597,6,0,P|384:336|416:255,1,143.999995605469,4|8,0:0|0:0,0:0:0:0:
404,218,131944,1,0,0:0:0:0:
246,92,132405,1,0,0:0:0:0:
246,92,132521,2,0,P|197:124|219:209,1,143.999995605469,0|8,0:0|0:0,0:0:0:0:
249,230,132867,1,0,0:0:0:0:
419,122,133328,6,0,B|422:84|407:46|407:46|445:67|499:56,1,143.999995605469,0|0,0:0|0:0,0:0:0:0:
502,100,133674,2,0,L|514:182,1,71.9999978027344,8|0,0:0|0:0,0:0:0:0:
490,216,133905,2,0,P|455:247|359:229,1,143.999995605469,0|8,0:0|0:0,0:0:0:0:
331,196,134251,1,0,0:0:0:0:
86,278,134597,6,0,L|79:193,1,71.9999978027344,8|8,0:0|0:0,0:0:0:0:
65,179,134828,6,0,P|92:183|125:183,1,60,0|8,0:0|0:0,0:0:0:0:
173,168,135174,6,0,P|226:159|326:189,1,143.999995605469,4|0,0:0|0:0,0:0:0:0:
356,206,135521,1,8,0:0:0:0:
388,331,135751,2,0,L|294:347,2,71.9999978027344,0|0|8,0:0|0:0|0:0,0:0:0:0:
433,353,136097,2,0,P|416:283|456:225,1,143.999995605469,0|0,0:0|0:0,0:0:0:0:
498,202,136444,1,8,0:0:0:0:
318,38,136674,2,0,P|342:84|306:168,1,143.999995605469,0|8,0:0|0:0,0:0:0:0:
260,175,137021,6,0,L|107:172,1,143.999995605469,0|0,0:0|0:0,0:0:0:0:
65,176,137367,1,8,0:0:0:0:
64,352,137597,2,0,L|141:346,1,71.9999978027344,0|0,0:0|0:0,0:0:0:0:
299,304,137944,2,0,P|367:303|414:178,1,215.999993408203,0|8,0:0|0:0,0:0:0:0:
266,44,138521,6,0,L|260:137,1,71.9999978027344,0|0,0:0|0:0,0:0:0:0:
116,285,138867,2,0,P|116:224|54:146,1,143.999995605469,4|0,0:0|0:0,0:0:0:0:
30,126,139213,2,0,P|103:131|181:116,1,143.999995605469,8|0,0:0|0:0,0:0:0:0:
220,101,139559,1,0,0:0:0:0:
399,251,139790,6,0,P|351:237|257:278,1,143.999995605469,0|0,0:0|0:0,0:0:0:0:
221,293,140136,2,0,L|136:292,1,71.9999978027344,8|0,0:0|0:0,0:0:0:0:
99,282,140367,2,0,P|73:219|78:137,1,143.999995605469,0|8,0:0|0:0,0:0:0:0:
87,94,140713,1,0,0:0:0:0:
256,192,140828,12,0,141751,0:0:0:0:
407,64,149597,6,0,L|401:138,1,60,0|0,0:0|0:0,0:0:0:0:
329,273,149944,2,0,P|299:278|204:250,1,120,4|0,0:0|0:0,0:0:0:0:
173,242,150290,2,0,L|99:247,1,60,8|0,0:0|0:0,0:0:0:0:
74,228,150521,2,0,P|56:199|47:163,3,60,0|0|8|0,0:0|0:0|0:0|0:0,0:0:0:0:
67,136,150982,6,0,B|91:99|91:99|75:17,1,120,0|8,0:0|0:0,0:0:0:0:
244,30,151444,2,0,L|243:105,1,60,0|0,0:0|0:0,0:0:0:0:
350,199,151790,2,0,P|410:226|471:215,1,120,0|0,0:0|0:0,0:0:0:0:
500,235,152136,2,0,L|506:303,1,60,8|0,0:0|0:0,0:0:0:0:
477,326,152367,2,0,L|343:354,2,120,0|8|0,0:0|0:0|0:0,0:0:0:0:
283,286,153059,1,8,0:0:0:0:
231,97,153290,2,0,L|245:35,1,60,0|0,0:0|0:0,0:0:0:0:
78,153,153636,6,0,P|76:217|111:278,1,120,0|0,0:0|0:0,0:0:0:0:
126,298,153982,1,8,0:0:0:0:
402,185,154328,1,0,0:0:0:0:
402,185,154444,2,0,L|391:114,2,60,0|0|0,0:0|0:0|0:0,0:0:0:0:
375,308,155482,6,0,P|333:283|294:280,1,71.9999978027344,4|0,0:0|0:0,0:0:0:0:
260,287,155713,2,0,L|189:328,1,71.9999978027344,0|8,0:0|0:0,0:0:0:0:
152,345,155944,1,0,0:0:0:0:
152,345,156059,2,0,P|109:344|53:269,2,143.999995605469,0|8|2,0:0|0:0|0:0,0:0:0:0:
298,168,156751,1,8,0:0:0:0:
106,61,156982,2,0,L|190:52,1,71.9999978027344,0|0,0:0|0:0,0:0:0:0:
371,218,157328,6,0,P|326:247|232:222,1,143.999995605469,0|0,0:0|0:0,0:0:0:0:
192,216,157674,2,0,L|114:221,1,71.9999978027344,8|0,0:0|0:0,0:0:0:0:
71,234,157905,2,0,P|56:285|103:369,2,143.999995605469,0|8|2,0:0|0:0|0:0,0:0:0:0:
298,168,158597,1,8,0:0:0:0:
98,103,158828,2,0,L|183:113,1,71.9999978027344,0|0,0:0|0:0,0:0:0:0:
366,227,159174,6,0,P|386:168|345:90,1,143.999995605469,6|2,0:0|0:0,0:0:0:0:
307,74,159521,2,0,L|226:62,1,71.9999978027344,8|0,0:0|0:0,0:0:0:0:
190,85,159751,2,0,P|170:144|211:222,2,143.999995605469,0|8|0,0:0|0:0|0:0,0:0:0:0:
66,217,160444,6,0,B|96:257|96:257|106:361,1,143.999995605469,8|0,0:0|0:0,0:0:0:0:
148,375,160790,2,0,L|303:354,1,143.999995605469,8|4,0:0|0:0,0:0:0:0:
341,353,161136,2,0,L|417:369,2,71.9999978027344,0|0|8,0:0|0:0|0:0,0:0:0:0:
407,195,161597,2,0,L|483:186,2,71.9999978027344,0|0|8,0:0|0:0|0:0,0:0:0:0:
289,89,162059,6,0,P|243:70|146:117,1,143.999995605469,0|8,0:0|0:0,0:0:0:0:
129,142,162405,2,0,L|120:223,2,71.9999978027344,0|0|8,0:0|0:0|0:0,0:0:0:0:
366,294,162867,6,0,P|319:318|230:306,1,143.999995605469,4|0,0:0|0:0,0:0:0:0:
182,292,163213,2,0,L|103:302,1,71.9999978027344,8|0,0:0|0:0,0:0:0:0:
71,268,163444,2,0,P|53:198|76:112,2,143.999995605469,0|8|0,0:0|0:0|0:0,0:0:0:0:
231,111,164136,1,8,0:0:0:0:
303,343,164367,2,0,L|384:336,1,71.9999978027344,0|8,0:0|0:0,0:0:0:0:
440,90,164713,6,0,P|373:71|313:108,1,143.999995605469,0|0,0:0|0:0,0:0:0:0:
300,157,165059,2,0,L|317:237,1,71.9999978027344,8|0,0:0|0:0,0:0:0:0:
362,246,165290,2,0,L|354:334,1,71.9999978027344,0|0,0:0|0:0,0:0:0:0:
317,351,165521,2,0,L|237:362,1,71.9999978027344,8|0,0:0|0:0,0:0:0:0:
205,330,165751,2,0,L|126:328,1,71.9999978027344,0|8,0:0|0:0,0:0:0:0:
103,44,166097,6,0,P|176:61|251:58,1,143.999995605469,0|0,0:0|0:0,0:0:0:0:
266,105,166444,1,8,0:0:0:0:
241,148,166559,2,0,P|160:138|86:145,1,143.999995605469,14|0,0:0|0:0,0:0:0:0:
51,162,166905,2,0,L|39:242,1,71.9999978027344,8|0,0:0|0:0,0:0:0:0:
81,263,167136,2,0,L|97:342,1,71.9999978027344,0|0,0:0|0:0,0:0:0:0:
137,361,167367,1,8,0:0:0:0:
137,361,167482,2,0,P|213:381|262:268,1,215.999993408203,8|8,0:0|0:0,0:0:0:0:
216,95,168059,2,0,L|134:104,1,71.9999978027344,0|8,0:0|0:0,0:0:0:0:
27,241,168405,6,0,P|115:219|183:234,1,143.999995605469,6|0,0:0|0:0,0:0:0:0:
212,247,168751,2,0,P|255:243|293:229,1,71.9999978027344,8|0,0:0|0:0,0:0:0:0:
321,201,168982,2,0,L|312:109,1,71.9999978027344
287,86,169213,1,8,0:0:0:0:
287,86,169328,2,0,P|206:73|138:115,1,143.999995605469,8|0,0:0|0:0,0:0:0:0:
110,126,169674,2,0,B|111:120|112:87|97:39,1,71.9999978027344
23,20,169905,5,8,0:0:0:0:
23,20,170021,1,8,0:0:0:0:
23,20,170136,1,8,0:0:0:0:
18,121,170251,6,0,L|36:274,1,143.999995605469,6|0,0:0|0:0,0:0:0:0:
66,303,170597,2,0,L|82:221,1,71.9999978027344,8|0,0:0|0:0,0:0:0:0:
121,204,170828,2,0,P|157:186|204:181,1,71.9999978027344
239,200,171059,1,8,0:0:0:0:
239,200,171174,2,0,B|279:246|279:246|292:290|269:340,1,143.999995605469,8|0,0:0|0:0,0:0:0:0:
244,357,171521,6,0,L|210:362,10,30,12|0|0|0|0|0|0|0|0|0|0,0:0|0:0|0:0|0:0|0:0|0:0|0:0|0:0|0:0|0:0|0:0,0:0:0:0:
