osu file format v14

[General]
AudioFilename: audio.mp3
AudioLeadIn: 0
PreviewTime: 149900
Countdown: 0
SampleSet: Soft
StackLeniency: 0.7
Mode: 0
LetterboxInBreaks: 0
WidescreenStoryboard: 1

[Editor]
Bookmarks: 10877,19604,28331,37059,45786,54513,63240,71968,80695,89422,98150,106877,115604,124331,133059,141786,150513,159240,167968,170150,178877
DistanceSpacing: 1
BeatDivisor: 4
GridSize: 32
TimelineZoom: 2

[Metadata]
Title:Heisei Cataclysm
TitleUnicode:ヘイセイカタクリズム
Artist:Zips
ArtistUnicode:じっぷす
Creator:Nevo
Version:Noffy's Hard
Source:ヘイセイプロジェクト
Tags:vocaloid vocaloid2 IA jippusu heisei project japanese novelty noffy shiratoi synderes frostwich glaceon zelq Silent Rock IA/VT -Colorful-
BeatmapID:2358898
BeatmapSetID:1060960

[Difficulty]
HPDrainRate:4
CircleSize:3.5
OverallDifficulty:6
ApproachRate:8
SliderMultiplier:1.5
SliderTickRate:1

[Events]
//Background and Video events
Video,-1101,"PV.avi"
0,0,"api.png",0,0
//Break Periods
2,141859,145473
//Storyboard Layer 0 (Background)
//Storyboard Layer 1 (Fail)
//Storyboard Layer 2 (Pass)
//Storyboard Layer 3 (Foreground)
//Storyboard Layer 4 (Overlay)
//Storyboard Sound Samples

[TimingPoints]
2223,272.727272727273,4,1,1,70,1,0
4677,-100,4,1,4,70,0,0
5495,-100,4,1,1,70,0,0
8768,-100,4,1,4,70,0,0
9177,-100,4,1,1,70,0,0
9450,-100,4,1,4,70,0,0
9859,-100,4,1,1,70,0,0
13268,-100,4,1,4,70,0,0
14223,-100,4,1,1,70,0,0
19677,-100,4,2,1,60,0,0
28404,-100,4,2,1,70,0,0
37132,-100,4,2,1,60,0,0
41495,-100,4,2,1,70,0,0
47904,-100,4,2,3,60,0,0
49950,-100,4,2,1,60,0,0
52404,-100,4,2,1,70,0,0
54041,-100,4,2,3,60,0,0
54586,-83.3333333333333,4,1,1,80,0,1
72041,-100,4,2,1,60,0,0
80768,-100,4,2,1,70,0,0
89495,-100,4,2,1,60,0,0
93859,-100,4,2,1,70,0,0
100268,-100,4,2,3,60,0,0
102313,-100,4,2,1,60,0,0
104768,-100,4,2,1,70,0,0
106404,-100,4,2,3,60,0,0
106950,-83.3333333333333,4,1,1,80,0,1
124404,-83.3333333333333,4,1,1,70,0,0
141859,-83.3333333333333,4,2,3,50,0,0
146223,-133.333333333333,4,2,2,70,0,0
146495,-133.333333333333,4,2,2,60,0,0
149495,-133.333333333333,4,2,3,70,0,0
150586,-83.3333333333333,4,1,1,80,0,1
167768,-83.3333333333333,4,2,3,80,0,1
168041,-83.3333333333333,4,1,1,80,0,1
170223,-100,4,1,1,80,0,0

[Colours]
Combo1 : 255,125,190
Combo2 : 79,238,251
Combo3 : 132,130,123

[HitObjects]
221,87,2223,6,0,P|228:166|219:252,1,150,4|10,3:1|0:2,0:0:0:0:
79,315,2768,1,2,3:2:0:0:
79,315,2904,2,0,L|169:332,1,75,2|8,0:2|0:2,0:0:0:0:
232,351,3177,1,2,0:2:0:0:
293,200,3450,1,2,0:2:0:0:
293,200,3586,2,0,L|203:217,1,75,10|0,0:2|0:0,0:0:0:0:
141,242,3859,1,2,3:2:0:0:
60,257,3995,2,0,P|53:178|62:92,1,150,2|0,0:2|0:0,0:0:0:0:
143,44,4404,6,0,P|203:88|308:99,1,150,2|10,3:2|0:2,0:0:0:0:
357,117,4813,2,0,P|305:103|160:204,1,225,2|10,0:2|0:2,0:0:0:0:
134,347,5495,1,0,3:2:0:0:
195,291,5632,2,0,L|287:271,1,75,2|8,0:2|0:2,0:0:0:0:
348,259,5904,2,0,L|275:239,1,75,2|8,0:2|3:2,0:0:0:0:
208,192,6177,2,0,L|368:159,1,150,2|8,3:2|0:2,0:0:0:0:
441,93,6586,6,0,P|434:172|443:258,1,150,4|10,3:1|0:2,0:0:0:0:
297,324,7132,1,2,3:2:0:0:
297,324,7268,2,0,L|280:234,1,75,2|8,0:2|0:2,0:0:0:0:
261,171,7541,1,2,0:2:0:0:
407,91,7813,1,2,0:2:0:0:
407,91,7950,2,0,L|390:181,1,75,10|0,0:2|0:0,0:0:0:0:
365,243,8223,1,2,3:2:0:0:
283,250,8359,2,0,P|204:243|118:252,1,150,2|0,0:2|0:0,0:0:0:0:
70,302,8768,6,0,L|105:136,1,150,0|10,3:0|0:2,0:0:0:0:
101,72,9177,2,0,P|124:192|212:266,1,225,0|10,0:0|0:2,0:0:0:0:
442,302,9859,2,0,L|407:136,1,150,8|10,3:2|0:2,0:0:0:0:
411,81,10268,2,0,P|388:201|300:275,1,225,2|8,0:2|0:0,0:0:0:0:
181,119,10950,6,0,P|255:112|330:119,1,150,4|10,3:1|0:2,0:0:0:0:
435,254,11495,1,2,3:2:0:0:
435,254,11632,2,0,P|452:209|454:162,1,75,2|8,0:2|0:2,0:0:0:0:
449,100,11904,1,2,0:2:0:0:
302,171,12177,1,2,0:2:0:0:
302,171,12313,2,0,P|309:218|331:260,1,75,10|0,0:2|0:0,0:0:0:0:
367,311,12586,1,2,3:2:0:0:
445,271,12723,2,0,P|390:225|320:242,1,150,2|0,0:2|0:0,0:0:0:0:
242,272,13132,6,0,B|191:281|191:281|90:262,1,150,0|10,3:0|0:2,0:0:0:0:
12,252,13541,2,0,P|117:242|184:129,1,225,2|10,0:2|0:2,0:0:0:0:
309,255,14223,1,0,3:2:0:0:
362,192,14359,2,0,L|339:120,1,75,2|8,0:2|0:2,0:0:0:0:
419,101,14632,2,0,L|438:28,1,75,2|0,0:2|3:0,0:0:0:0:
511,67,14904,2,0,L|463:220,1,150,2|8,0:2|0:2,0:0:0:0:
413,311,15313,6,0,P|338:304|263:310,1,150,4|10,3:1|0:2,0:0:0:0:
107,365,15859,1,2,3:2:0:0:
107,365,15995,2,0,L|98:282,1,75,2|8,0:2|0:2,0:0:0:0:
87,208,16268,1,2,0:2:0:0:
215,320,16541,1,2,0:2:0:0:
215,320,16677,2,0,L|224:237,1,75,10|0,0:2|0:0,0:0:0:0:
235,163,16950,1,2,0:0:0:0:
259,84,17086,2,0,P|325:67|410:106,1,150,0|0,3:0|0:0,0:0:0:0:
372,174,17495,5,4,3:1:0:0:
334,258,17632,2,0,L|350:359,2,75,8|0|8,0:2|3:0|0:2,0:0:0:0:
276,198,18041,1,4,3:1:0:0:
203,238,18177,2,0,L|215:313,2,75,8|0|8,0:2|3:0|0:2,0:0:0:0:
191,157,18586,6,0,P|203:118|227:80,1,75,4|8,3:1|0:2,0:0:0:0:
284,35,18859,2,0,P|323:25|368:27,1,75,4|8,3:2|0:2,0:0:0:0:
437,49,19132,1,12,0:0:0:0:
385,207,19677,6,0,L|370:385,1,150,2|2,3:2|3:2,0:0:0:0:
269,276,20223,1,2,3:2:0:0:
269,276,20359,1,2,0:0:0:0:
385,207,20632,2,0,B|332:189|358:128|270:113,1,150,2|2,0:0|0:0,0:0:0:0:
199,112,21041,1,2,3:2:0:0:
199,112,21313,1,2,3:2:0:0:
199,112,21586,1,2,3:2:0:0:
178,296,21859,6,0,L|31:194,1,150,2|2,3:2|3:2,0:0:0:0:
176,161,22404,1,2,3:2:0:0:
176,161,22541,1,2,0:0:0:0:
178,296,22813,2,0,B|220:259|260:312|317:243,1,150,2|0,0:0|0:0,0:0:0:0:
353,182,23223,1,2,3:2:0:0:
353,182,23495,1,2,3:2:0:0:
353,182,23768,1,10,0:2:0:0:
204,72,24041,6,0,L|366:-3,1,150,2|2,3:2|3:2,0:0:0:0:
322,138,24586,1,2,3:2:0:0:
322,138,24723,1,2,0:0:0:0:
204,72,24995,2,0,B|215:127|149:135|180:219,1,150,2|2,0:0|0:2,0:0:0:0:
222,291,25404,1,2,3:2:0:0:
222,291,25677,1,2,3:2:0:0:
222,291,25950,1,8,3:0:0:0:
330,166,26223,6,0,B|376:187|367:256|367:256|355:327,1,150,2|2,3:2|3:2,0:0:0:0:
313,368,26632,2,0,B|266:346|275:277|275:277|287:206,1,150,2|0,0:0|0:0,0:0:0:0:
330,166,27041,1,2,3:2:0:0:
182,218,27313,6,0,B|135:196|144:127|144:127|156:56,1,150,2|2,3:2|3:2,0:0:0:0:
199,16,27723,2,0,B|245:37|236:106|236:106|224:177,1,150,2|0,0:0|0:0,0:0:0:0:
182,218,28132,1,8,0:0:0:0:
312,318,28404,6,0,P|338:288|348:254,1,75,4|0,3:1|0:0,0:0:0:0:
385,181,28677,2,0,P|396:216|420:244,1,75,10|0,0:0|0:0,0:0:0:0:
485,192,28950,1,2,3:2:0:0:
485,192,29086,2,0,L|485:102,1,75,2|8,0:0|0:0,0:0:0:0:
435,50,29359,2,0,B|380:39|372:104|293:75,1,150,2|0,0:0|0:0,0:0:0:0:
259,186,29768,2,0,B|338:215|346:150|401:161,2,150,10|2|10,0:0|3:2|0:0,0:0:0:0:
411,255,30586,6,0,P|381:281|347:291,1,75,2|0,3:2|0:0,0:0:0:0:
306,363,30859,2,0,P|270:351|242:327,1,75,10|0,0:0|0:0,0:0:0:0:
168,363,31132,1,2,3:2:0:0:
168,363,31268,2,0,P|159:326|167:290,1,75,2|8,0:0|0:0,0:0:0:0:
95,248,31541,2,0,B|40:184|99:154|70:106,1,150,2|0,0:0|0:0,0:0:0:0:
152,38,31950,2,0,B|207:102|148:132|177:179,1,150,10|2,0:0|3:2,0:0:0:0:
263,201,32359,1,2,0:0:0:0:
344,190,32495,1,12,0:0:0:0:
375,352,32768,6,0,P|410:340|438:316,1,75,4|0,3:1|0:0,0:0:0:0:
414,236,33041,2,0,P|385:260|350:271,1,75,10|0,0:0|0:0,0:0:0:0:
267,286,33313,2,0,P|207:242|196:170,1,150,2|10,3:2|0:0,0:0:0:0:
202,87,33723,2,0,B|146:88|150:22|67:38,1,150,2|2,0:0|0:0,0:0:0:0:
62,123,34132,2,0,B|117:122|113:188|196:172,2,150,10|2|10,0:0|3:2|0:0,0:0:0:0:
209,272,34950,6,0,P|252:265|288:240,1,75,4|0,3:2|0:0,0:0:0:0:
224,104,35223,2,0,P|202:142|198:185,1,75,8|0,0:0|3:0,0:0:0:0:
342,224,35495,2,0,P|328:183|297:152,1,75,0|0,0:0|3:0,0:0:0:0:
175,237,35768,2,0,P|216:253|259:249,1,75,8|0,0:0|0:0,0:0:0:0:
272,100,36041,6,0,P|234:122|209:157,1,75,0|0,3:0|0:0,0:0:0:0:
315,263,36313,2,0,P|323:220|312:178,1,75,8|8,0:0|0:0,0:0:0:0:
163,191,36586,2,0,P|190:225|230:243,1,75,4|8,3:2|0:0,0:0:0:0:
316,121,36859,1,10,0:1:0:0:
316,121,37132,6,0,L|233:142,1,75,4|0,3:1|0:0,0:0:0:0:
142,169,37541,1,2,0:0:0:0:
40,138,37813,1,2,0:0:0:0:
98,45,38086,2,0,P|150:96|141:168,1,150,2|2,3:2|0:0,0:0:0:0:
93,225,38495,1,2,0:0:0:0:
61,329,38768,6,0,L|134:311,1,75,10|2,0:0|0:0,0:0:0:0:
259,335,39177,2,0,P|207:283|216:211,1,150,10|0,0:0|0:0,0:0:0:0:
280,174,39586,6,0,P|248:145|217:138,2,75,2|0|10,0:0|0:0|0:0,0:0:0:0:
305,245,39995,1,0,0:0:0:0:
340,349,40268,1,2,3:2:0:0:
451,349,40541,1,2,0:0:0:0:
484,245,40813,1,2,3:2:0:0:
396,180,41086,1,2,0:0:0:0:
396,180,41495,5,4,3:1:0:0:
457,124,41632,2,0,L|469:41,1,75,2|8,0:0|0:0,0:0:0:0:
391,19,41904,2,0,L|380:93,1,75,2|0,0:0|0:0,0:0:0:0:
300,115,42177,2,0,L|310:40,1,75,2|0,3:2|0:0,0:0:0:0:
210,107,42450,6,0,P|185:119|124:125,1,75,2|0,0:0|3:0,0:0:0:0:
62,158,42723,2,0,B|145:142|141:208|197:207,1,150,2|2,0:0|0:0,0:0:0:0:
274,179,43132,1,2,0:3:0:0:
352,204,43268,2,0,P|389:199|423:184,1,75,2|8,3:2|0:0,0:0:0:0:
492,138,43541,1,8,0:0:0:0:
492,138,43950,6,0,L|474:315,1,150,2|2,0:0|0:0,0:0:0:0:
425,351,44359,1,0,0:0:0:0:
266,303,44632,2,0,L|255:221,1,75,0|0,0:0|3:0,0:0:0:0:
114,240,44904,2,0,L|183:268,1,75,0|8,0:0|0:0,0:0:0:0:
241,139,45177,2,0,L|181:184,1,75,8|0,0:0|3:0,0:0:0:0:
325,169,45450,2,0,L|302:-1,1,150
393,30,45859,5,4,3:1:0:0:
453,85,45995,2,0,L|443:175,1,75,2|8,0:0|0:0,0:0:0:0:
405,232,46268,2,0,L|395:322,1,75,2|0,0:0|3:0,0:0:0:0:
462,356,46541,1,2,0:0:0:0:
319,336,46813,2,0,B|265:320|251:385|175:348,1,150,2|2,0:0|0:0,0:0:0:0:
118,288,47223,1,10,0:0:0:0:
63,349,47359,1,2,0:0:0:0:
22,277,47495,2,0,P|20:225|38:182,1,75,2|2,0:3|3:2,0:0:0:0:
26,203,47904,1,0,0:0:0:0:
46,46,48313,6,0,B|90:35|115:58|115:58|137:23|180:27,1,150,0|2,0:0|0:0,0:0:0:0:
254,42,48723,1,0,0:0:0:0:
354,74,48995,1,2,0:0:0:0:
354,179,49268,1,2,0:0:0:0:
254,211,49541,1,2,0:0:0:0:
192,127,49813,1,0,0:0:0:0:
462,169,50223,6,0,P|388:164|414:88,1,150,4|0,0:1|0:0,0:0:0:0:
483,330,50768,2,0,P|389:330|331:301,1,150,8|0,0:0|3:0,0:0:0:0:
41,235,51313,2,0,B|98:206|138:254|187:230,2,150,2|0|8,0:3|3:0|0:0,0:0:0:0:
159,331,52132,1,4,3:2:0:0:
159,331,52404,5,4,3:1:0:0:
188,230,52677,1,0,3:0:0:0:
264,261,52813,2,0,L|333:289,1,75,8|0,0:0|3:0,0:0:0:0:
391,160,53086,2,0,L|331:205,1,75,8|8,0:0|0:0,0:0:0:0:
411,308,53359,2,0,L|388:138,1,150,8|8,0:0|0:0,0:0:0:0:
378,77,53768,1,8,0:0:0:0:
256,192,54041,5,2,0:0:0:0:
256,192,54313,1,2,0:0:0:0:
256,192,54586,6,0,L|71:161,1,179.999994506836,4|8,3:1|3:2,0:0:0:0:
32,241,54995,1,8,0:0:0:0:
32,241,55132,2,0,P|37:293|81:345,1,89.9999972534181,0|8,3:0|0:0,0:0:0:0:
123,266,55404,2,0,P|170:287|238:275,1,89.9999972534181,0|8,3:0|0:0,0:0:0:0:
192,181,55677,6,0,L|219:95,1,89.9999972534181,0|8,3:0|0:0,0:0:0:0:
290,38,55950,2,0,L|317:123,1,89.9999972534181,0|8,3:0|0:0,0:0:0:0:
301,212,56223,2,0,P|335:114|422:126,1,179.999994506836,0|0,3:0|3:0,0:0:0:0:
385,290,56768,6,0,B|347:307|347:307|313:292|313:292|256:318,1,134.999995880127,4|0,3:1|3:0,0:0:0:0:
218,329,57041,2,0,B|251:244|183:278|210:179,1,134.999995880127,0|0,3:0|3:0,0:0:0:0:
202,155,57313,2,0,B|164:138|164:138|130:153|130:153|73:127,1,134.999995880127,0|0,3:0|3:0,0:0:0:0:
42,102,57586,2,0,B|75:187|7:153|34:252,1,134.999995880127,8|0,3:2|3:0,0:0:0:0:
70,249,57859,2,0,L|147:296,1,89.9999972534181,0|8,3:0|0:0,0:0:0:0:
225,340,58132,2,0,P|335:335|269:246,1,269.999991760254,0|8,3:0|0:0,0:0:0:0:
269,246,58677,1,4,3:2:0:0:
217,100,58950,6,0,P|322:111|419:75,1,179.999994506836,4|0,3:1|3:0,0:0:0:0:
466,39,59359,1,8,0:0:0:0:
488,125,59495,1,0,3:0:0:0:
464,212,59632,1,8,0:0:0:0:
392,265,59768,2,0,P|353:277|287:275,1,89.9999972534181,0|8,3:0|0:0,0:0:0:0:
213,276,60041,6,0,L|240:362,1,89.9999972534181,0|8,3:0|0:0,0:0:0:0:
142,219,60313,2,0,L|115:304,1,89.9999972534181,0|8,3:0|0:0,0:0:0:0:
129,131,60586,2,0,P|45:148|31:232,1,179.999994506836,0|0,3:0|3:0,0:0:0:0:
93,380,61132,6,0,L|145:207,1,179.999994506836,4|0,3:1|3:0,0:0:0:0:
233,319,61541,1,8,0:0:0:0:
233,319,61677,2,0,L|199:142,1,179.999994506836,0|8,3:0|3:2,0:0:0:0:
145,206,62086,1,8,0:0:0:0:
145,206,62223,2,0,L|197:33,1,179.999994506836,0|0,3:0|3:0,0:0:0:0:
256,192,62768,5,0,3:0:0:0:
256,192,63041,1,4,3:2:0:0:
256,192,63313,6,0,L|441:161,1,179.999994506836,4|8,3:1|3:2,0:0:0:0:
489,90,63723,1,8,0:0:0:0:
399,84,63859,2,0,L|299:98,1,89.9999972534181,0|8,3:0|0:0,0:0:0:0:
255,23,64132,2,0,L|344:10,1,89.9999972534181,0|8,3:0|0:0,0:0:0:0:
446,2,64404,6,0,P|478:25|496:89,1,89.9999972534181,0|8,3:0|0:0,0:0:0:0:
482,160,64677,2,0,P|447:188|403:194,1,89.9999972534181,0|8,3:0|0:0,0:0:0:0:
383,106,64950,2,0,P|349:204|262:192,1,179.999994506836,0|0,3:0|3:0,0:0:0:0:
117,273,65495,6,0,B|129:215|129:215|116:167|116:167|120:141,1,134.999995880127,4|0,3:1|3:0,0:0:0:0:
137,98,65768,2,0,B|99:98|78:69|78:69|53:94|18:98,1,134.999995880127,0|0,3:0|3:0,0:0:0:0:
33,141,66041,2,0,B|37:167|37:167|24:215|24:215|36:272,1,134.999995880127,0|0,3:0|3:0,0:0:0:0:
19,314,66313,2,0,B|56:313|77:342|77:342|102:317|137:313,1,134.999995880127,8|0,3:2|0:0,0:0:0:0:
175,290,66586,2,0,L|194:203,1,89.9999972534181,0|8,3:0|0:0,0:0:0:0:
219,115,66859,2,0,P|294:34|319:142,1,269.999991760254,0|8,3:0|0:0,0:0:0:0:
319,142,67404,1,4,3:2:0:0:
185,262,67677,6,0,B|153:255|125:266|125:266|75:238|52:134,1,179.999994506836,4|0,3:1|3:0,0:0:0:0:
64,78,68086,1,8,0:0:0:0:
144,118,68223,1,0,3:0:0:0:
222,74,68359,1,8,0:0:0:0:
296,24,68495,2,0,P|346:24|409:50,1,89.9999972534181,0|8,3:0|0:0,0:0:0:0:
386,149,68768,6,0,L|350:236,1,89.9999972534181,0|8,3:0|0:0,0:0:0:0:
503,294,69041,2,0,L|445:217,1,89.9999972534181,0|8,3:0|0:0,0:0:0:0:
325,318,69313,2,0,L|541:288,1,179.999994506836,4|0,3:2|3:0,0:0:0:0:
307,35,69859,6,0,L|238:201,1,179.999994506836,4|4,3:1|3:2,0:0:0:0:
201,283,70268,1,8,0:0:0:0:
201,283,70404,2,0,L|166:199,1,89.9999972534181,8|8,3:2|0:0,0:0:0:0:
133,115,70677,1,12,3:2:0:0:
96,32,70813,1,8,0:0:0:0:
96,32,70950,2,0,L|27:198,1,179.999994506836,0|4,3:0|3:2,0:0:0:0:
0,282,71359,1,8,0:0:0:0:
37,363,71495,1,4,3:1:0:0:
37,363,72041,6,0,L|192:345,1,150,2|2,3:2|3:2,0:0:0:0:
324,330,72586,1,2,3:2:0:0:
324,330,72723,1,2,0:0:0:0:
257,212,72995,2,0,B|246:165|201:177|209:259|260:306,1,150,2|2,0:0|0:0,0:0:0:0:
324,330,73404,1,2,3:2:0:0:
324,330,73677,1,2,3:2:0:0:
324,330,73950,1,2,3:2:0:0:
180,55,74223,6,0,L|118:198,1,150,2|2,3:2|3:2,0:0:0:0:
65,320,74768,1,2,3:2:0:0:
65,320,74904,1,2,0:0:0:0:
200,321,75177,2,0,B|245:335|257:290|182:256|116:276,1,150,2|0,0:0|0:0,0:0:0:0:
65,320,75586,1,2,3:2:0:0:
65,320,75859,1,2,3:2:0:0:
65,320,76132,1,10,0:2:0:0:
460,309,76404,6,0,L|366:183,1,150,2|2,3:2|3:2,0:0:0:0:
287,76,76950,1,2,3:2:0:0:
287,76,77086,1,2,0:0:0:0:
219,193,77359,2,0,B|184:225|216:258|284:210|299:142,1,150,2|2,0:0|0:2,0:0:0:0:
287,76,77768,1,2,3:2:0:0:
287,76,78041,1,2,3:2:0:0:
287,76,78313,1,8,3:0:0:0:
230,266,78586,6,0,B|251:312|320:303|320:303|391:291,1,150,2|2,3:2|3:2,0:0:0:0:
432,249,78995,2,0,B|410:202|341:211|341:211|270:223,1,150,2|0,0:0|0:0,0:0:0:0:
230,266,79404,1,0,3:0:0:0:
282,118,79677,6,0,B|260:71|191:80|191:80|120:92,1,150,2|2,3:2|3:2,0:0:0:0:
80,135,80086,2,0,B|101:181|170:172|170:172|241:160,1,150,2|0,0:0|0:0,0:0:0:0:
282,118,80495,1,8,0:0:0:0:
417,122,80768,6,0,L|430:204,1,75,4|0,3:1|0:0,0:0:0:0:
348,218,81041,2,0,L|361:300,1,75,10|0,0:0|0:0,0:0:0:0:
339,374,81313,1,2,3:2:0:0:
339,374,81450,2,0,P|305:357|283:327,1,75,2|8,0:0|0:0,0:0:0:0:
225,267,81723,2,0,B|170:256|162:321|83:292,1,150,2|0,0:0|0:0,0:0:0:0:
39,191,82132,2,0,B|118:220|126:155|181:166,2,150,10|2|10,0:0|3:2|0:0,0:0:0:0:
180,64,82950,6,0,P|227:77|262:110,1,75,2|0,3:2|0:0,0:0:0:0:
284,18,83223,2,0,P|318:53|331:99,1,75,10|0,0:0|0:0,0:0:0:0:
396,30,83495,1,2,3:2:0:0:
396,30,83632,2,0,P|408:66|405:103,1,75,0|8,0:0|0:0,0:0:0:0:
417,181,83904,2,0,B|406:228|361:216|369:134|420:87,1,150,2|2,0:0|0:0,0:0:0:0:
492,129,84313,2,0,P|500:173|480:246,1,75,10|2,0:0|0:0,0:0:0:0:
459,275,84586,2,0,P|424:290|387:293,1,75,2|2,3:2|0:0,0:0:0:0:
307,273,84859,1,12,0:0:0:0:
125,313,85132,6,0,P|90:301|62:277,1,75,4|0,3:1|0:0,0:0:0:0:
71,194,85405,2,0,P|106:205|135:229,1,75,10|0,0:0|0:0,0:0:0:0:
205,273,85677,2,0,P|265:229|276:157,1,150,2|10,3:2|0:0,0:0:0:0:
271,75,86086,2,0,B|326:64|334:129|413:100,1,150,2|2,0:0|0:0,0:0:0:0:
504,173,86495,2,0,B|449:162|441:227|362:198,2,150,10|2|10,0:0|3:2|0:0,0:0:0:0:
504,173,87177,1,2,0:0:0:0:
493,72,87313,6,0,L|419:62,1,75,4|0,3:2|0:0,0:0:0:0:
288,103,87586,2,0,L|362:113,1,75,8|0,0:0|3:0,0:0:0:0:
243,167,87859,2,0,L|168:156,1,75,0|0,0:0|3:0,0:0:0:0:
52,151,88132,6,0,L|41:225,1,75,8|0,0:0|0:0,0:0:0:0:
125,316,88405,2,0,L|135:241,1,75,0|0,3:0|0:0,0:0:0:0:
243,167,88678,2,0,L|232:241,1,75,8|8,0:0|0:0,0:0:0:0:
147,134,88950,2,0,L|158:59,1,75,4|8,3:2|0:0,0:0:0:0:
50,100,89223,1,10,0:1:0:0:
44,249,89495,6,0,P|81:245|116:229,1,75,4|2,3:1|0:0,0:0:0:0:
193,159,89904,1,2,0:0:0:0:
261,238,90177,1,2,0:0:0:0:
248,342,90450,2,0,B|331:358|383:293,1,150,2|2,3:2|0:0,0:0:0:0:
421,230,90859,1,2,0:0:0:0:
462,133,91132,2,0,P|425:129|389:113,1,75,10|2,0:0|0:0,0:0:0:0:
307,16,91541,2,0,P|315:88|264:139,1,150,10|0,0:0|0:0,0:0:0:0:
190,156,91950,6,0,P|158:127|127:120,2,75,2|0|10,0:0|0:0|0:0,0:0:0:0:
215,227,92359,1,2,0:0:0:0:
250,331,92632,1,2,3:2:0:0:
361,331,92905,1,2,0:0:0:0:
394,227,93177,1,2,3:2:0:0:
306,162,93450,1,2,0:0:0:0:
306,162,93859,5,4,3:1:0:0:
294,243,93995,2,0,L|308:327,1,75,0|8,0:0|0:0,0:0:0:0:
224,303,94268,2,0,L|211:229,1,75,0|2,0:0|0:3,0:0:0:0:
131,209,94541,2,0,L|143:282,1,75,2|8,3:2|0:0,0:0:0:0:
62,298,94813,6,0,P|27:268|15:218,1,75,2|0,0:0|0:0,0:0:0:0:
1,160,95086,2,0,B|84:176|80:110|136:111,1,150,2|2,0:0|0:0,0:0:0:0:
213,138,95495,1,2,0:3:0:0:
291,113,95631,2,0,P|328:118|362:133,1,75,2|8,3:2|0:0,0:0:0:0:
445,161,95904,1,8,0:0:0:0:
445,161,96313,6,0,L|424:8,1,150,2|2,0:0|0:0,0:0:0:0:
346,42,96723,1,2,0:0:0:0:
195,204,96995,2,0,P|228:208|277:193,1,75,0|0,0:0|3:0,0:0:0:0:
258,58,97267,2,0,P|237:93|230:127,1,75,0|8,0:0|0:0,0:0:0:0:
359,179,97540,2,0,P|336:138|314:119,1,75,8|0,0:0|3:0,0:0:0:0:
329,263,97813,2,0,L|503:250,1,150
437,334,98223,5,4,3:1:0:0:
355,340,98359,2,0,L|255:349,1,75,2|8,0:0|0:0,0:0:0:0:
254,269,98632,2,0,L|339:262,1,75,2|0,0:0|0:0,0:0:0:0:
410,254,98904,1,2,0:0:0:0:
173,279,99177,2,0,B|95:285|95:285|51:285|23:256,1,150,2|2,0:0|0:0,0:0:0:0:
5,182,99586,1,10,0:0:0:0:
19,100,99723,1,2,0:0:0:0:
96,72,99859,2,0,L|182:67,1,75,2|2,0:3|3:2,0:0:0:0:
170,67,100268,1,0,0:0:0:0:
173,314,100677,6,0,B|218:314|218:314|265:282|265:282|316:282,1,150,2|2,0:0|0:0,0:0:0:0:
389,282,101087,1,2,0:0:0:0:
489,250,101359,1,2,0:0:0:0:
489,145,101632,1,0,0:0:0:0:
389,113,101905,1,2,0:0:0:0:
327,197,102177,1,2,0:0:0:0:
50,102,102586,6,0,B|75:107|101:87|101:87|75:137|99:199,1,150,4|0,0:1|0:0,0:0:0:0:
454,113,103131,2,0,P|360:113|302:142,1,150,8|0,0:0|3:0,0:0:0:0:
79,313,103677,2,0,B|136:284|176:332|225:308,2,150,0|0|8,0:0|3:0|0:0,0:0:0:0:
353,331,104495,1,4,3:2:0:0:
269,75,104768,5,4,3:1:0:0:
269,75,105041,1,0,3:0:0:0:
282,157,105177,2,0,P|285:197|257:248,1,75,8|0,0:0|3:0,0:0:0:0:
204,298,105450,2,0,P|187:262|188:226,1,75,8|8,0:0|3:0,0:0:0:0:
183,117,105723,2,0,P|132:160|41:163,1,150,8|8,0:0|0:0,0:0:0:0:
91,63,106132,1,8,0:0:0:0:
256,192,106404,5,2,0:0:0:0:
256,192,106676,1,2,0:0:0:0:
256,192,106950,6,0,P|347:146|459:168,1,179.999994506836,4|8,3:1|3:2,0:0:0:0:
475,224,107359,1,8,0:0:0:0:
445,308,107495,2,0,P|411:278|392:236,1,89.9999972534181,0|8,3:0|0:0,0:0:0:0:
422,150,107768,2,0,P|435:108|431:64,1,89.9999972534181,0|8,3:0|0:0,0:0:0:0:
323,81,108041,6,0,P|318:125|332:167,1,89.9999972534181,0|8,3:0|0:0,0:0:0:0:
393,237,108313,2,0,P|374:277|341:307,1,89.9999972534181,0|8,3:0|0:0,0:0:0:0:
260,266,108586,2,0,L|80:260,1,179.999994506836,0|0,3:0|3:0,0:0:0:0:
6,69,109132,6,0,B|77:69|77:69|108:53|108:53|152:52,1,134.999995880127,4|0,3:1|3:0,0:0:0:0:
124,95,109404,2,0,B|195:95|195:95|226:79|226:79|270:78,1,134.999995880127,0|0,3:0|3:0,0:0:0:0:
248,123,109677,2,0,B|319:123|319:123|350:107|350:107|394:106,1,134.999995880127,0|0,3:0|3:0,0:0:0:0:
365,149,109950,2,0,B|436:149|436:149|467:133|467:133|511:132,1,134.999995880127,8|0,3:2|0:0,0:0:0:0:
509,175,110223,2,0,P|511:236|491:278,1,89.9999972534181,0|8,3:0|0:0,0:0:0:0:
456,341,110495,2,0,P|345:335|411:246,1,269.999991760254,0|8,3:0|3:0,0:0:0:0:
409,245,111041,1,4,3:2:0:0:
209,316,111313,6,0,P|125:298|111:214,1,179.999994506836,4|0,3:1|3:0,0:0:0:0:
157,137,111723,1,8,0:0:0:0:
243,162,111859,1,0,3:0:0:0:
316,109,111995,1,8,0:0:0:0:
376,41,112132,2,0,P|415:20|459:23,1,89.9999972534181,0|8,3:0|0:0,0:0:0:0:
439,135,112404,6,0,L|412:221,1,89.9999972534181,0|8,3:0|0:0,0:0:0:0:
341,278,112676,2,0,L|314:193,1,89.9999972534181,0|8,3:0|0:0,0:0:0:0:
229,266,112950,2,0,P|244:349|327:365,1,179.999994506836,0|0,3:0|3:0,0:0:0:0:
412,220,113495,6,0,L|239:168,1,179.999994506836,4|0,3:1|3:0,0:0:0:0:
351,80,113904,1,8,0:0:0:0:
351,80,114040,2,0,L|174:114,1,179.999994506836,0|8,3:0|3:2,0:0:0:0:
238,168,114449,1,8,0:0:0:0:
238,168,114586,2,0,L|65:116,1,179.999994506836,0|0,3:0|3:0,0:0:0:0:
256,288,115132,5,0,3:0:0:0:
256,288,115404,1,4,3:2:0:0:
256,288,115677,6,0,L|429:236,1,179.999994506836,4|8,3:1|3:2,0:0:0:0:
509,196,116086,1,8,0:0:0:0:
507,105,116223,1,0,3:0:0:0:
464,22,116359,1,8,0:0:0:0:
380,54,116495,2,0,P|408:98|420:139,1,89.9999972534181,0|8,3:0|0:0,0:0:0:0:
428,236,116768,6,0,P|405:268|341:286,1,89.9999972534181,0|8,3:0|0:0,0:0:0:0:
270,272,117041,2,0,P|242:237|236:193,1,89.9999972534181,0|8,3:0|0:0,0:0:0:0:
324,173,117314,2,0,P|226:139|238:52,1,179.999994506836,0|0,3:0|3:0,0:0:0:0:
84,190,117859,6,0,B|84:228|113:249|113:249|88:274|84:309,1,134.999995880127,4|0,3:1|3:0,0:0:0:0:
119,335,118132,2,0,B|156:335|156:335|177:313|177:313|198:334|198:334|239:334,1,134.999995880127,0|0,3:0|3:0,0:0:0:0:
277,315,118404,2,0,B|310:318|335:343|335:343|356:314|394:314,1,134.999995880127,0|0,3:0|3:0,0:0:0:0:
439,310,118677,2,0,B|439:271|439:271|460:250|460:250|438:229|438:229|438:192,1,134.999995880127,8|0,3:2|0:0,0:0:0:0:
428,148,118950,2,0,P|383:149|336:117,1,89.9999972534181,0|8,3:0|0:0,0:0:0:0:
288,56,119223,2,0,P|180:81|261:156,1,269.999991760254,0|8,3:0|0:0,0:0:0:0:
259,156,119768,1,4,3:2:0:0:
108,337,120041,6,0,B|124:278|124:278|77:245|59:181,1,179.999994506836,4|0,3:1|3:0,0:0:0:0:
74,92,120450,1,8,0:0:0:0:
148,41,120586,1,0,3:0:0:0:
230,78,120723,1,8,0:0:0:0:
256,163,120859,2,0,L|227:256,1,89.9999972534181,0|8,3:0|0:0,0:0:0:0:
299,305,121132,6,0,P|339:330|387:342,1,89.9999972534181,0|8,3:0|0:0,0:0:0:0:
444,188,121405,2,0,P|402:210|367:246,1,89.9999972534181,0|8,3:0|0:0,0:0:0:0:
468,366,121677,2,0,L|438:150,1,179.999994506836,4|0,3:2|3:0,0:0:0:0:
414,9,122223,6,0,L|241:142,1,179.999994506836,4|4,3:1|3:2,0:0:0:0:
204,177,122632,1,8,0:0:0:0:
204,177,122768,6,0,B|245:222|308:217|341:175|341:175|388:176,1,179.999994506836,8|12,3:2|3:2,0:0:0:0:
454,181,123177,1,8,0:0:0:0:
408,258,123313,2,0,B|341:311|274:319|217:296,1,179.999994506836,0|4,3:0|3:2,0:0:0:0:
160,260,123723,1,8,0:0:0:0:
108,186,123859,1,4,3:1:0:0:
256,192,124404,6,0,B|336:224|354:166|448:201,1,179.999994506836,4|8,3:1|3:2,0:0:0:0:
389,275,124813,1,8,0:2:0:0:
301,296,124950,2,0,P|248:290|206:265,2,89.9999972534181,0|8|0,3:0|0:2|3:0,0:0:0:0:
393,279,125359,1,8,0:2:0:0:
367,173,125495,6,0,L|340:87,1,89.9999972534181,0|8,3:0|0:2,0:0:0:0:
268,32,125768,2,0,L|241:117,1,89.9999972534181,0|8,3:0|0:2,0:0:0:0:
211,203,126041,2,0,P|177:105|90:117,1,179.999994506836,0|0,3:0|3:0,0:0:0:0:
74,277,126586,5,4,3:1:0:0:
157,310,126723,2,0,L|161:382,2,44.999998626709,8|0|8,0:2|0:0|3:2,0:0:0:0:
243,286,126995,2,0,L|247:358,2,44.999998626709,8|0|0,0:2|0:0|3:0,0:0:0:0:
326,250,127268,2,0,L|330:322,2,44.999998626709,8|0|8,0:2|0:0|3:2,0:0:0:0:
416,280,127541,1,8,0:2:0:0:
416,280,127677,2,0,L|409:181,1,89.9999972534181,0|8,3:0|0:2,3:0:0:0:
325,154,127950,2,0,B|256:134|169:161|233:206|137:241|50:189,1,269.999991760254,0|8,3:0|0:2,0:0:0:0:
130,120,128495,1,4,3:2:0:0:
255,249,128768,6,0,P|181:293|77:294,1,179.999994506836,4|8,3:1|3:2,0:0:0:0:
113,209,129177,1,8,0:2:0:0:
42,153,129313,2,0,P|33:96|61:44,1,89.9999972534181,0|8,3:0|0:2,0:0:0:0:
187,62,129586,2,0,P|148:84|125:122,1,89.9999972534181,0|8,3:0|0:2,0:0:0:0:
217,153,129859,6,0,P|257:133|302:134,1,89.9999972534181,0|8,3:0|0:2,0:0:0:0:
361,249,130132,2,0,P|322:225|278:224,1,89.9999972534181,0|8,3:0|0:2,0:0:0:0:
290,312,130404,2,0,B|335:324|377:375|377:375|408:321|459:308|459:308|487:306|518:311,1,269.999991760254,0|8,3:0|0:2,0:0:0:0:
491,221,130950,6,0,P|401:174|410:101,1,179.999994506836,4|8,3:1|3:2,0:0:0:0:
447,26,131359,1,8,0:2:0:0:
406,107,131495,2,0,P|320:161|261:117,1,179.999994506836,0|8,3:0|3:2,0:0:0:0:
204,56,131904,1,8,0:2:0:0:
264,123,132041,2,0,P|268:224|200:253,2,179.999994506836,0|0|4,0:0|0:0|3:1,0:0:0:0:
264,123,132859,1,4,3:2:0:0:
16,170,133132,6,0,B|95:141|113:199|193:167,1,179.999994506836,4|8,3:1|3:2,0:0:0:0:
147,88,133541,1,8,0:2:0:0:
232,59,133678,2,0,P|285:65|327:90,2,89.9999972534181,0|8|0,3:0|0:2|3:0,0:0:0:0:
147,88,134087,1,8,0:2:0:0:
192,167,134223,6,0,L|165:253,1,89.9999972534181,0|8,3:0|0:2,0:0:0:0:
296,307,134495,2,0,L|269:222,1,89.9999972534181,0|8,3:0|0:2,0:0:0:0:
312,134,134768,2,0,P|395:150|411:234,1,179.999994506836,0|0,3:0|3:0,0:0:0:0:
296,307,135314,5,4,3:1:0:0:
221,256,135451,2,0,L|223:211,2,44.999998626709,8|8|8,0:2|0:2|3:2,0:0:0:0:
145,207,135723,2,0,L|147:162,2,44.999998626709,8|8|0,0:2|0:2|3:0,0:0:0:0:
71,154,135996,2,0,L|73:109,2,44.999998626709,8|8|8,3:2|0:2|0:2,0:0:0:0:
69,247,136268,1,8,0:2:0:0:
69,247,136404,2,0,P|102:305|130:329,1,89.9999972534181,0|8,3:0|0:2,3:0:0:0:
200,278,136678,2,0,B|268:301|355:274|291:229|387:194|474:246,1,269.999991760254,0|8,3:0|0:2,0:0:0:0:
392,302,137223,1,4,3:2:0:0:
435,127,137496,6,0,P|345:124|268:79,1,179.999994506836,4|8,3:1|3:2,0:0:0:0:
213,8,137905,1,8,0:2:0:0:
136,55,138041,2,0,L|150:157,1,89.9999972534181,0|8,3:0|0:2,0:0:0:0:
58,144,138313,2,0,L|45:246,1,89.9999972534181,0|8,3:0|0:2,0:0:0:0:
148,322,138586,6,0,L|137:233,1,89.9999972534181,0|8,3:0|0:2,0:0:0:0:
259,163,138859,2,0,L|247:252,1,89.9999972534181,0|8,3:0|0:2,0:0:0:0:
240,342,139132,2,0,P|377:301|388:175,1,269.999991760254,4|8,3:1|0:2,0:0:0:0:
363,105,139677,6,0,B|306:130|306:130|255:108|255:108|169:147,1,179.999994506836,4|4,3:1|3:2,0:0:0:0:
119,178,140087,1,8,0:2:0:0:
63,248,140223,2,0,B|120:273|120:273|171:251|171:251|227:276,1,179.999994506836,0|12,3:0|0:2,0:0:0:0:
307,318,140632,1,0,3:0:0:0:
307,318,140768,6,0,L|423:268,1,89.9999972534181,4|8,3:1|0:2,0:0:0:0:
460,225,141041,2,0,L|344:175,1,89.9999972534181,4|8,3:2|0:2,0:0:0:0:
307,133,141313,2,0,L|378:97,1,44.999998626709,4|0,3:1|0:0,0:0:0:0:
256,192,146223,12,2,149495,0:0:0:0:
256,192,150041,5,2,0:0:0:0:
256,192,150313,1,2,0:0:0:0:
256,192,150586,6,0,B|299:10,1,179.999994506836,4|0,3:1|3:0,0:0:0:0:
378,56,150995,1,8,0:0:0:0:
385,146,151132,2,0,L|401:268,1,89.9999972534181,0|8,3:0|0:0,0:0:0:0:
402,325,151405,2,0,P|363:301|319:293,1,89.9999972534181,0|8,3:0|0:0,0:0:0:0:
219,325,151677,6,0,P|171:324|126:305,1,89.9999972534181,0|8,3:0|0:0,0:0:0:0:
162,153,151950,2,0,P|185:193|191:242,1,89.9999972534181,0|8,3:0|0:0,0:0:0:0:
41,286,152223,2,0,L|167:146,1,179.999994506836,0|0,3:0|3:0,0:0:0:0:
321,69,152768,6,0,B|383:92|383:92|446:65,1,134.999995880127,4|0,3:1|3:0,0:0:0:0:
459,109,153041,2,0,B|484:173|434:178|463:240,1,134.999995880127,0|0,3:0|3:0,0:0:0:0:
446,281,153313,2,0,B|383:254|383:254|320:277,1,134.999995880127,0|0,3:0|3:0,0:0:0:0:
293,240,153586,2,0,B|322:178|272:173|298:107,1,134.999995880127,8|0,3:2|0:0,0:0:0:0:
321,69,153859,2,0,L|237:36,1,89.9999972534181,0|8,3:0|0:0,0:0:0:0:
146,33,154132,2,0,P|95:131|205:120,1,269.999991760254,0|8,3:0|0:0,0:0:0:0:
205,121,154678,1,4,3:2:0:0:
372,57,154950,6,0,B|399:107|399:107|392:172|392:172|453:243,1,179.999994506836,4|0,3:1|3:0,0:0:0:0:
484,287,155359,1,8,0:0:0:0:
423,353,155495,1,0,3:0:0:0:
363,282,155632,1,8,0:0:0:0:
308,353,155768,2,0,L|246:280,1,89.9999972534181,0|8,3:0|0:0,0:0:0:0:
168,323,156041,6,0,P|115:334|63:319,1,89.9999972534181,0|8,3:0|0:0,0:0:0:0:
17,199,156313,2,0,P|51:227|95:239,1,89.9999972534181,0|8,3:0|0:0,0:0:0:0:
246,147,156586,2,0,B|202:143|177:192|177:192|155:150|98:149,1,179.999994506836,0|0,3:0|3:0,0:0:0:0:
419,4,157132,6,0,L|367:177,1,179.999994506836,4|0,3:1|3:0,0:0:0:0:
245,28,157541,1,8,0:0:0:0:
245,28,157677,2,0,L|279:205,1,179.999994506836,0|8,3:0|3:2,0:0:0:0:
367,176,158086,1,8,0:0:0:0:
367,176,158223,2,0,L|315:349,1,179.999994506836,0|0,3:0|3:0,0:0:0:0:
256,192,158768,5,0,3:0:0:0:
256,192,159041,1,4,3:2:0:0:
256,192,159313,6,0,L|204:19,1,179.999994506836,4|8,3:1|3:2,0:0:0:0:
118,49,159723,1,8,0:0:0:0:
36,86,159859,2,0,P|62:122|102:141,1,89.9999972534181,0|8,3:0|0:0,0:0:0:0:
140,223,160132,2,0,P|114:259|74:278,1,89.9999972534181,0|8,3:0|0:0,0:0:0:0:
230,193,160404,6,0,P|255:229|296:248,1,89.9999972534181,0|8,3:0|0:0,0:0:0:0:
386,248,160677,2,0,P|426:228|452:192,1,89.9999972534181,0|8,3:0|0:0,0:0:0:0:
402,116,160950,2,0,P|337:173|286:103,1,179.999994506836,0|0,3:0|3:0,0:0:0:0:
345,37,161495,6,0,L|344:208,1,134.999995880127,4|0,3:1|3:0,0:0:0:0:
342,217,161768,2,0,B|299:244|299:244|267:235|267:235|206:285,1,134.999995880127,0|0,3:0|3:0,0:0:0:0:
192,296,162041,2,0,L|192:161,1,134.999995880127,0|0,3:0|3:0,0:0:0:0:
193,116,162313,2,0,B|150:143|150:143|118:134|118:134|57:184,1,134.999995880127,8|0,3:2|0:0,0:0:0:0:
39,190,162586,2,0,L|39:100,1,89.9999972534181,0|8,3:0|0:0,0:0:0:0:
113,49,162859,2,0,P|236:25|293:150,1,269.999991760254,0|8,3:0|0:0,0:0:0:0:
295,136,163405,1,4,3:2:0:0:
169,193,163677,6,0,P|190:289|144:393,1,179.999994506836,4|0,3:1|3:0,0:0:0:0:
75,364,164086,1,8,0:0:0:0:
14,296,164223,1,0,3:0:0:0:
26,207,164359,1,8,0:0:0:0:
94,148,164495,2,0,P|136:162|168:193,1,89.9999972534181,0|8,3:0|0:0,0:0:0:0:
189,280,164768,6,0,L|278:284,1,89.9999972534181,0|8,3:0|0:0,0:0:0:0:
357,190,165041,2,0,L|267:194,1,89.9999972534181,0|8,3:0|0:0,0:0:0:0:
220,111,165313,2,0,B|300:134|313:57|390:73,1,179.999994506836,4|0,3:2|3:0,0:0:0:0:
274,335,165859,6,0,B|193:358|180:281|103:297,1,179.999994506836,4|0,3:1|3:0,0:0:0:0:
118,207,166268,1,8,0:0:0:0:
118,207,166404,2,0,B|193:191|206:268|287:245,1,179.999994506836,4|8,3:2|3:2,0:0:0:0:
301,156,166813,1,8,0:0:0:0:
301,156,166950,2,0,B|220:179|207:102|130:118,2,179.999994506836,0|4|4,3:0|0:2|3:1,0:0:0:0:
238,335,168041,6,0,B|319:358|332:281|409:297,1,179.999994506836,4|0,3:1|3:0,0:0:0:0:
394,207,168450,1,8,0:0:0:0:
394,207,168586,2,0,B|318:191|305:268|224:245,1,179.999994506836,4|8,3:2|3:1,0:0:0:0:
211,156,168995,1,8,0:0:0:0:
211,156,169132,2,0,B|292:179|305:102|382:118,2,179.999994506836,0|4|4,3:0|3:2|3:1,0:0:0:0:
256,288,170223,5,4,3:1:0:0:
