osu file format v14

[General]
AudioFilename: audio.mp3
AudioLeadIn: 0
PreviewTime: 1692
Countdown: 0
SampleSet: Normal
StackLeniency: 0.7
Mode: 0
LetterboxInBreaks: 0
WidescreenStoryboard: 1

[Editor]
DistanceSpacing: 0.7
BeatDivisor: 2
GridSize: 4
TimelineZoom: 1

[Metadata]
Title:Dat Boi!!!!
TitleUnicode:Dat Boi!!!!
Artist:ZimoNitrome
ArtistUnicode:ZimoNitrome
Creator:Tatsumaki
Version:Normal
Source:
Tags:meme here come dat boi o shit waddup frog Ascendance MBomb Magic Bomb Murutattack youtube
BeatmapID:970103
BeatmapSetID:452146

[Difficulty]
HPDrainRate:4
CircleSize:4
OverallDifficulty:4
ApproachRate:4
SliderMultiplier:1.3
SliderTickRate:1

[Events]
//Background and Video events
0,0,"97cNEWFIXED.jpg",0,0
Video,1118,"sdfds+(12).flv"
//Break Periods
//Storyboard Layer 0 (Background)
//Storyboard Layer 1 (Fail)
//Storyboard Layer 2 (Pass)
//Storyboard Layer 3 (Foreground)
//Storyboard Sound Samples

[TimingPoints]
1692.90150728017,428.571428571429,4,1,0,70,1,0

[Colours]
Combo1 : 26,116,242
Combo2 : 164,32,240
Combo3 : 37,185,239
Combo4 : 23,209,116
Combo5 : 226,45,124

[HitObjects]
72,296,1692,6,0,P|140:320|212:280,1,130,2|0,0:0|0:0,0:0:0:0:
136,228,2550,2,0,P|204:204|276:244,1,130
336,268,3407,1,0,0:0:0:0:
428,260,3835,6,0,P|412:212|344:176,1,130
256,172,4692,2,0,P|195:191|164:246,1,130
164,340,5550,5,0,0:0:0:0:
252,320,5978,1,0,0:0:0:0:
332,276,6407,2,0,P|340:208|324:144,1,130,0|2,0:0|0:0,0:0:0:0:
296,64,7264,5,0,0:0:0:0:
208,92,7692,1,0,0:0:0:0:
120,120,8121,2,0,P|112:188|128:252,1,130,0|6,0:0|0:0,0:0:0:0:
180,320,8978,5,2,0:0:0:0:
272,320,9407,1,0,0:0:0:0:
364,320,9835,1,0,0:0:0:0:
408,320,10050,1,0,0:0:0:0:
452,320,10264,1,2,0:0:0:0:
452,228,10692,5,2,0:0:0:0:
376,180,11121,1,0,0:0:0:0:
300,128,11550,1,0,0:0:0:0:
260,104,11764,1,0,0:0:0:0:
224,80,11978,1,2,0:0:0:0:
132,80,12407,5,0,0:0:0:0:
132,172,12835,1,2,0:0:0:0:
132,264,13264,1,0,0:0:0:0:
132,308,13478,1,0,0:0:0:0:
132,352,13692,1,2,0:0:0:0:
224,352,14121,5,0,0:0:0:0:
296,296,14550,1,2,0:0:0:0:
232,228,14978,2,0,L|276:172,2,65,0|0|6,0:0|0:0|0:0,0:0:0:0:
172,296,15835,6,0,B|144:328|144:328|56:328,1,130
60,236,16692,2,0,L|60:148,2,65
144,196,17550,5,0,0:0:0:0:
224,148,17978,1,0,0:0:0:0:
300,96,18407,2,0,L|376:40,2,65
300,188,19264,6,0,L|300:320,1,130
216,284,20121,2,0,L|216:352,2,65
136,236,20978,5,0,0:0:0:0:
136,144,21407,1,0,0:0:0:0:
216,100,21835,2,0,L|216:0,2,65,0|0|4,0:0|0:0|0:0,0:0:0:0:
404,296,23550,5,0,0:0:0:0:
416,252,23764,1,0,0:0:0:0:
428,208,23978,1,0,0:0:0:0:
276,108,24835,5,2,0:0:0:0:
184,108,25264,2,0,L|84:108,2,65
200,288,26550,5,0,0:0:0:0:
300,288,26978,1,0,0:0:0:0:
348,304,27192,1,0,0:0:0:0:
396,288,27406,1,0,0:0:0:0:
396,104,28264,5,2,0:0:0:0:
304,104,28692,2,0,L|224:104,1,65
192,104,29121,1,0,0:0:0:0:
184,244,29978,5,2,0:0:0:0:
132,160,30407,1,0,0:0:0:0:
104,116,30621,1,0,0:0:0:0:
76,72,30835,1,0,0:0:0:0:
256,72,31692,5,2,0:0:0:0:
348,72,32121,2,0,L|348:140,2,65
212,192,33407,5,2,0:0:0:0:
276,268,33835,1,0,0:0:0:0:
312,304,34050,1,0,0:0:0:0:
348,340,34264,1,0,0:0:0:0:
252,184,35121,5,2,0:0:0:0:
252,100,35550,2,0,L|252:28,2,65,0|0|4,0:0|0:0|0:0,0:0:0:0:
