osu file format v14

[General]
AudioFilename: audio.mp3
AudioLeadIn: 0
PreviewTime: 239
Countdown: 0
SampleSet: Normal
StackLeniency: 0.7
Mode: 1
LetterboxInBreaks: 0
EpilepsyWarning: 1
WidescreenStoryboard: 1

[Editor]
DistanceSpacing: 1
BeatDivisor: 6
GridSize: 32
TimelineZoom: 4.393404

[Metadata]
Title:The Vicious Cycle of Cat
TitleUnicode:The Vicious Cycle of Cat
Artist:Zimba TS
ArtistUnicode:Zimba TS
Creator:ZTH
Version:Muzukashii
Source:Rabbids Go Home
Tags:meow iyaz replay bãtutã din moldova fanfare vagabontu ubisoft video game novelty instrumental
BeatmapID:4226630
BeatmapSetID:2019194

[Difficulty]
HPDrainRate:7.8
CircleSize:5
OverallDifficulty:4.8
ApproachRate:5
SliderMultiplier:1.3
SliderTickRate:1

[Events]
//Background and Video events
Video,200,"output.mp4"
0,0,"The_Vicious_Cycle_of_Cat.png",0,-63
//Break Periods
//Storyboard Layer 0 (Background)
//Storyboard Layer 1 (Fail)
//Storyboard Layer 2 (Pass)
//Storyboard Layer 3 (Foreground)
//Storyboard Layer 4 (Overlay)
//Storyboard Sound Samples

[TimingPoints]
239,273.972602739726,4,1,0,90,1,0
239,-91.25,4,1,0,90,0,0
1334,269.058295964126,4,1,0,90,1,0
1334,-92.9166666666665,4,1,0,90,0,0
2410,265.486725663717,4,1,0,90,1,0
2410,-94.1666666666666,4,1,0,90,0,0
3471,275.229357798166,4,1,0,90,1,0
3471,-90.833333333333,4,1,0,90,0,0
4571,259.74025974026,4,1,0,90,1,0
4571,-96.2499999999999,4,1,0,90,0,0
5350,296.296296296297,4,1,0,90,1,8
5350,-84.3749999999998,4,1,0,90,0,8
5646,265.486725663717,4,1,0,90,1,0
5646,-94.1666666666666,4,1,0,90,0,0
6442,275.229357798166,4,1,0,90,1,8
6442,-90.833333333333,4,1,0,90,0,8
6704,269.662921348315,4,1,0,90,1,8
6704,-92.7083333333332,4,1,0,90,0,8
6806,480,3,1,0,70,1,0
6806,-52.0833333333333,3,1,0,70,0,0
9206,269.058295964125,4,1,0,90,1,0
9206,-92.9166666666669,4,1,0,90,0,0
9407,262.008733624455,4,1,0,90,1,8
9407,-95.4166666666664,4,1,0,90,0,8
10193,265.486725663717,4,1,0,90,1,0
10193,-94.1666666666666,4,1,0,90,0,0
11122,302.267002518892,4,1,0,90,1,8
11122,-82.7083333333332,4,1,0,90,0,8
11273,281.03044496487,4,1,0,90,1,0
11273,-88.9583333333337,4,1,0,90,0,0
12397,262.008733624454,4,1,0,90,1,0
12397,-95.4166666666667,4,1,0,90,0,0
12659,281.03044496487,4,1,0,90,1,8
12659,-88.9583333333337,4,1,0,90,0,8
13468,276.497695852535,4,1,0,90,1,8
13468,-90.4166666666665,4,1,0,90,0,8
13609,355.029585798817,4,1,0,70,1,0
13609,-70.4166666666666,4,1,0,70,0,0
13964,383.386581469649,4,1,0,70,1,8
13964,-65.2083333333333,4,1,0,70,0,8
14376,560.747663551402,4,1,0,70,1,8
14376,-44.5833333333333,4,1,0,70,0,8
15498,560.747663551402,3,1,0,70,1,0
15498,-44.5833333333333,3,1,0,70,0,0
18526,283.018867924528,4,1,0,90,1,0
18526,-88.3333333333334,4,1,0,90,0,0
19517,270.27027027027,4,1,0,90,1,0
19517,-92.5000000000001,4,1,0,90,0,0
20462,301.507537688442,4,1,0,90,1,8
20462,-82.9166666666667,4,1,0,90,0,8
20612,283.018867924528,4,1,0,90,1,0
20612,-88.3333333333334,4,1,0,90,0,0
22310,266.666666666667,4,1,0,90,1,8
22310,-93.7499999999999,4,1,0,90,0,8
22843,284.36018957346,4,1,0,90,1,0
22843,-87.9166666666666,4,1,0,90,0,0
23980,277.777777777778,4,1,0,90,1,0
23980,-89.9999999999999,4,1,0,90,0,0
24813,287.081339712919,4,1,0,90,1,8
24813,-87.0833333333332,4,1,0,90,0,8
25100,273.972602739726,4,1,0,90,1,0
25100,-91.25,4,1,0,90,0,8
25921,277.777777777778,4,1,0,90,1,8
25921,-89.9999999999999,4,1,0,90,0,8
26198,272.727272727273,4,1,0,90,1,0
26198,-91.6666666666666,4,1,0,90,0,0
26743,260.869565217391,4,1,0,90,1,8
26743,-95.8333333333334,4,1,0,90,0,8
27264,267.857142857143,4,1,0,90,1,0
27264,-93.3333333333333,4,1,0,90,0,0
28335,271.493212669683,4,1,0,90,1,0
28335,-92.0833333333334,4,1,0,90,0,0
29420,275.229357798165,4,1,0,90,1,0
29420,-90.8333333333334,4,1,0,90,0,0
30520,265.486725663717,4,1,0,90,1,0
30520,-94.1666666666666,4,1,0,90,0,0
31581,272.727272727273,4,1,0,90,1,0
31581,-91.6666666666666,4,1,0,90,0,0
33761,280.373831775701,4,1,0,90,1,0
33761,-89.1666666666666,4,1,0,90,0,0
34882,246.913580246914,4,1,0,90,1,0
34882,-101.25,4,1,0,90,0,0
35128,260.869565217391,4,1,0,90,1,8
35128,-95.8333333333334,4,1,0,90,0,8
35388,276.497695852535,4,1,0,90,1,8
35388,-90.4166666666665,4,1,0,90,0,8
35664,375,4,1,0,90,1,8
35664,-66.6666666666667,4,1,0,90,0,8
36039,271.493212669683,4,1,0,90,1,0
36039,-92.0833333333334,4,1,0,90,0,0
37123,257.510729613734,4,1,0,90,1,0
37123,-97.0833333333333,4,1,0,90,0,0
37509,285.714285714286,4,1,0,90,1,8
37509,-87.4999999999999,4,1,0,90,0,8
37651,260.869565217391,4,1,0,90,1,8
37651,-95.8333333333334,4,1,0,90,0,8
37911,361.44578313253,4,1,0,90,1,8
37911,-69.1666666666667,4,1,0,90,0,8
38272,275.229357798165,4,1,0,90,1,0
38272,-90.8333333333334,4,1,0,90,0,0
38822,280.373831775701,4,1,0,90,1,8
38822,-89.1666666666666,4,1,0,90,0,8
39365,269.058295964126,4,1,0,90,1,0
39365,-92.9166666666665,4,1,0,90,0,0
39903,269.058295964126,4,1,0,90,1,8
39903,-92.9166666666665,4,1,0,90,0,8
40514,270.880361173815,4,1,0,90,1,0
40514,-92.2916666666666,4,1,0,90,0,0
41055,275.229357798165,4,1,0,90,1,8
41055,-90.8333333333334,4,1,0,90,0,8
41605,257.510729613734,4,1,0,90,1,0
41605,-97.0833333333333,4,1,0,90,0,0
42120,292.682926829268,4,1,0,90,1,8
42120,-85.4166666666668,4,1,0,90,0,8
42412,345.821325648415,4,1,0,90,1,8
42412,-72.2916666666667,4,1,0,90,0,8
42757,275.229357798165,4,1,0,90,1,0
42757,-90.8333333333334,4,1,0,90,0,0
43857,264.31718061674,4,1,0,90,1,0
43857,-94.5833333333334,4,1,0,90,0,0
44649,275.229357798165,4,1,0,90,1,8
44649,-90.8333333333334,4,1,0,90,0,8
44924,266.666666666667,4,1,0,90,1,0
44924,-93.7499999999999,4,1,0,90,0,0
47057,269.058295964126,4,1,0,90,1,0
47057,-92.9166666666665,4,1,0,90,0,0
49209,266.666666666667,4,1,0,90,1,0
49209,-93.7499999999999,4,1,0,90,0,0
51309,266.666666666667,4,1,0,90,1,0
51309,-93.7499999999999,4,1,0,90,0,0
51375,277.777777777778,4,1,0,90,1,8
51375,-89.9999999999999,4,1,0,90,0,8
52486,250,4,1,0,90,1,0
52486,-100,4,1,0,90,0,0
52736,262.008733624454,4,1,0,90,1,8
52736,-95.4166666666667,4,1,0,90,0,8
52998,297.029702970297,4,1,0,90,1,8
52998,-84.1666666666667,4,1,0,90,0,8
53295,286.396181384248,4,1,0,90,1,8
53295,-87.2916666666667,4,1,0,90,0,8
53581,273.972602739726,4,1,0,90,1,0
53581,-91.25,4,1,0,90,0,0
55635,292.682926829268,4,1,0,90,1,8
55635,-85.4166666666668,4,1,0,90,0,8
55781,276.497695852534,4,1,0,90,1,0
55781,-90.4166666666669,4,1,0,90,0,0
56886,274.285714285714,4,1,0,90,1,0
56886,-91.1458333333334,4,1,0,90,0,0
57983,281.690140845071,4,1,0,90,1,0
57983,-88.7499999999998,4,1,0,90,0,0
59109,272.727272727273,4,1,0,90,1,0
59109,-91.6666666666666,4,1,0,90,0,0
60199,281.690140845071,4,1,0,90,1,0
60199,-88.7499999999998,4,1,0,90,0,0
60762,272.108843537415,4,1,0,90,1,8
60762,-91.875,4,1,0,90,0,8
61306,270.270270270271,4,1,0,90,1,0
61306,-92.4999999999997,4,1,0,90,0,0
62387,264.31718061674,4,1,0,90,1,0
62387,-94.5833333333334,4,1,0,90,0,0
63444,271.493212669684,4,1,0,90,1,0
63444,-92.0833333333331,4,1,0,90,0,0
64529,270.270270270271,4,1,0,90,1,0
64529,-92.4999999999997,4,1,0,90,0,0
65339,254.237288135593,4,1,0,90,1,8
65339,-98.3333333333334,4,1,0,90,0,8
65593,265.486725663717,4,1,0,90,1,0
65593,-94.1666666666666,4,1,0,90,0,0
66654,269.058295964126,4,1,0,90,1,0
66654,-92.9166666666665,4,1,0,90,0,0
68268,285.714285714286,4,1,0,90,1,8
68268,-87.4999999999999,4,1,0,90,0,8
68839,281.69014084507,4,1,0,90,1,0
68839,-88.7500000000001,4,1,0,90,0,0
69308,-75.187969924812,4,1,0,90,0,0

[HitObjects]
214,186,239,5,8,0:0:0:0:
252,181,375,1,0,0:0:0:0:
252,180,512,1,8,0:0:0:0:
238,209,786,1,8,0:0:0:0:
216,223,855,1,8,0:0:0:0:
276,190,923,1,8,0:0:0:0:
216,197,1060,1,0,0:0:0:0:
220,214,1197,1,8,0:0:0:0:
220,214,1334,1,0,0:0:0:0:
238,209,1468,1,8,0:0:0:0:
238,209,1603,1,0,0:0:0:0:
200,206,1737,1,8,0:0:0:0:
200,206,1872,1,0,0:0:0:0:
195,213,2410,5,0,0:0:0:0:
195,213,2542,1,8,0:0:0:0:
178,205,2675,1,0,0:0:0:0:
197,212,2940,1,0,0:0:0:0:
197,212,3073,1,8,0:0:0:0:
183,204,3140,1,8,0:0:0:0:
187,190,3206,1,8,0:0:0:0:
178,205,3339,1,8,0:0:0:0:
195,213,3471,1,0,0:0:0:0:
167,190,3608,1,8,0:0:0:0:
198,203,3746,1,0,0:0:0:0:
145,184,3883,1,8,0:0:0:0:
170,219,4021,1,0,0:0:0:0:
182,214,4571,5,0,0:0:0:0:
181,226,4700,1,8,0:0:0:0:
185,226,4830,1,0,0:0:0:0:
204,232,5090,1,0,0:0:0:0:
197,238,5155,1,0,0:0:0:0:
197,238,5220,1,0,0:0:0:0:
197,238,5350,1,0,0:0:0:0:
126,164,5498,1,8,0:0:0:0:
200,240,5646,1,0,0:0:0:0:
182,236,5778,1,8,0:0:0:0:
214,224,5845,1,8,0:0:0:0:
164,219,5911,1,8,0:0:0:0:
141,215,6044,1,8,0:0:0:0:
202,227,6176,1,0,0:0:0:0:
193,234,6806,5,0,0:0:0:0:
185,243,6986,1,8,0:0:0:0:
186,243,7106,1,0,0:0:0:0:
202,245,7226,1,8,0:0:0:0:
208,245,7346,1,0,0:0:0:0:
208,245,7466,1,8,0:0:0:0:
208,245,7726,1,8,0:0:0:0:
203,148,7846,1,0,0:0:0:0:
204,259,7966,1,8,0:0:0:0:
213,226,8246,5,0,0:0:0:0:
192,216,8366,1,8,0:0:0:0:
212,249,8486,1,0,0:0:0:0:
212,249,8606,1,8,0:0:0:0:
212,249,8726,1,0,0:0:0:0:
212,235,9206,5,0,0:0:0:0:
218,244,9273,1,0,0:0:0:0:
224,244,9407,1,8,0:0:0:0:
214,258,9538,1,0,0:0:0:0:
209,240,9669,1,8,0:0:0:0:
211,240,9734,1,8,0:0:0:0:
209,225,9865,1,8,0:0:0:0:
214,239,9931,1,8,0:0:0:0:
212,241,10062,1,0,0:0:0:0:
227,229,10193,1,8,0:0:0:0:
213,264,10458,5,0,0:0:0:0:
213,264,10591,1,8,0:0:0:0:
226,271,10723,1,0,0:0:0:0:
238,189,10790,1,0,0:0:0:0:
244,224,10923,1,0,0:0:0:0:
234,278,11055,1,8,0:0:0:0:
220,262,11273,5,0,0:0:0:0:
264,275,11554,1,8,0:0:0:0:
208,188,11835,1,0,0:0:0:0:
239,225,12003,1,8,0:0:0:0:
201,184,12172,1,8,0:0:0:0:
211,216,12340,1,0,0:0:0:0:
254,279,12659,5,8,0:0:0:0:
225,228,12940,1,0,0:0:0:0:
199,132,13080,1,8,0:0:0:0:
194,191,13221,1,0,0:0:0:0:
259,283,13291,1,0,0:0:0:0:
197,205,13361,1,0,0:0:0:0:
254,291,13502,1,8,0:0:0:0:
256,192,14187,8,0,15177,0:0:0:0:
256,192,15898,12,0,17020,0:0:0:0:
256,192,17811,12,0,18301,0:0:0:0:
208,266,18526,5,8,0:0:0:0:
217,266,18667,1,0,0:0:0:0:
217,266,18809,1,8,0:0:0:0:
247,254,18879,1,8,0:0:0:0:
243,276,18950,1,8,0:0:0:0:
247,218,19092,1,0,0:0:0:0:
228,251,19233,1,8,0:0:0:0:
267,293,19375,1,8,0:0:0:0:
257,289,19652,5,8,0:0:0:0:
236,281,19787,1,0,0:0:0:0:
272,250,19854,1,0,0:0:0:0:
255,303,19922,1,0,0:0:0:0:
258,294,20057,1,8,0:0:0:0:
260,294,20192,1,0,0:0:0:0:
262,288,20612,5,0,0:0:0:0:
225,241,20753,1,8,0:0:0:0:
285,299,20895,1,0,0:0:0:0:
286,299,21036,1,8,0:0:0:0:
257,279,21178,1,0,0:0:0:0:
261,294,21248,1,0,0:0:0:0:
257,279,21319,1,0,0:0:0:0:
257,279,21461,1,0,0:0:0:0:
257,279,21602,1,8,0:0:0:0:
234,232,21885,5,0,0:0:0:0:
203,228,22027,1,8,0:0:0:0:
224,223,22097,1,8,0:0:0:0:
239,195,22168,1,8,0:0:0:0:
262,303,22310,1,0,0:0:0:0:
257,279,22443,1,8,0:0:0:0:
222,233,22843,5,0,0:0:0:0:
262,278,22985,1,8,0:0:0:0:
272,274,23127,1,0,0:0:0:0:
272,274,23269,1,8,0:0:0:0:
272,275,23411,1,0,0:0:0:0:
273,275,23482,1,0,0:0:0:0:
272,275,23553,1,0,0:0:0:0:
272,275,23696,1,8,0:0:0:0:
268,296,23980,5,0,0:0:0:0:
274,280,24118,1,8,0:0:0:0:
274,280,24188,1,8,0:0:0:0:
274,280,24257,1,8,0:0:0:0:
245,237,24396,1,0,0:0:0:0:
245,237,24535,1,8,0:0:0:0:
279,246,25100,5,8,0:0:0:0:
257,260,25236,1,0,0:0:0:0:
270,242,25373,1,8,0:0:0:0:
265,238,25510,1,0,0:0:0:0:
263,257,25579,1,0,0:0:0:0:
279,246,25647,1,0,0:0:0:0:
248,255,25784,1,8,0:0:0:0:
248,255,25921,1,8,0:0:0:0:
248,248,26198,5,0,0:0:0:0:
246,254,26334,1,8,0:0:0:0:
248,255,26470,1,0,0:0:0:0:
258,243,26538,1,0,0:0:0:0:
258,243,26607,1,0,0:0:0:0:
258,243,26743,1,8,0:0:0:0:
239,248,27264,5,0,0:0:0:0:
241,245,27397,1,8,0:0:0:0:
238,226,27464,1,8,0:0:0:0:
239,248,27531,1,8,0:0:0:0:
239,248,27665,1,0,0:0:0:0:
239,248,27799,1,8,0:0:0:0:
239,248,27933,1,0,0:0:0:0:
239,248,28067,1,8,0:0:0:0:
239,248,28335,5,0,0:0:0:0:
192,256,28402,1,0,0:0:0:0:
239,255,28470,1,0,0:0:0:0:
239,248,28606,1,8,0:0:0:0:
239,248,28742,1,8,0:0:0:0:
239,248,28877,1,0,0:0:0:0:
257,253,29420,5,8,0:0:0:0:
225,265,29557,1,8,0:0:0:0:
248,240,29695,1,0,0:0:0:0:
264,218,29832,1,8,0:0:0:0:
256,224,29901,1,8,0:0:0:0:
150,195,29970,1,8,0:0:0:0:
212,223,30108,1,0,0:0:0:0:
204,219,30245,1,8,0:0:0:0:
225,228,30520,5,0,0:0:0:0:
225,228,30652,1,8,0:0:0:0:
225,228,30785,1,0,0:0:0:0:
225,220,30918,1,8,0:0:0:0:
198,217,31050,1,0,0:0:0:0:
204,221,31117,1,0,0:0:0:0:
204,221,31183,1,0,0:0:0:0:
189,211,31316,1,8,0:0:0:0:
174,209,31581,5,8,0:0:0:0:
203,226,31717,1,8,0:0:0:0:
228,240,31853,1,0,0:0:0:0:
228,240,31990,1,8,0:0:0:0:
204,236,32058,1,8,0:0:0:0:
202,206,32126,1,8,0:0:0:0:
194,223,32262,1,0,0:0:0:0:
205,246,32399,1,8,0:0:0:0:
231,226,32671,5,0,0:0:0:0:
189,218,32807,1,8,0:0:0:0:
192,224,32943,1,0,0:0:0:0:
192,224,33011,1,0,0:0:0:0:
224,192,33080,1,0,0:0:0:0:
192,224,33216,1,8,0:0:0:0:
224,224,33761,5,0,0:0:0:0:
213,225,34041,1,0,0:0:0:0:
183,228,34181,1,8,0:0:0:0:
183,228,34461,1,0,0:0:0:0:
213,250,34602,1,8,0:0:0:0:
234,244,34835,1,8,0:0:0:0:
239,242,35258,1,8,0:0:0:0:
256,250,35664,1,8,0:0:0:0:
256,250,36039,5,0,0:0:0:0:
266,267,36310,1,0,0:0:0:0:
273,276,36446,1,8,0:0:0:0:
273,276,36717,1,0,0:0:0:0:
273,276,36853,1,8,0:0:0:0:
259,274,37124,1,0,0:0:0:0:
262,281,37230,1,8,0:0:0:0:
262,281,37380,1,0,0:0:0:0:
262,281,37556,1,8,0:0:0:0:
212,247,37651,1,0,0:0:0:0:
218,248,37911,1,8,0:0:0:0:
265,276,38272,5,0,0:0:0:0:
256,275,38547,1,0,0:0:0:0:
262,289,38684,1,8,0:0:0:0:
262,288,38962,1,0,0:0:0:0:
262,288,39102,1,8,0:0:0:0:
268,283,39365,1,0,0:0:0:0:
272,279,39533,1,8,0:0:0:0:
272,287,39634,1,8,0:0:0:0:
272,287,39802,1,0,0:0:0:0:
272,287,39903,1,0,0:0:0:0:
291,277,40071,1,8,0:0:0:0:
291,277,40172,1,8,0:0:0:0:
278,281,40514,5,0,0:0:0:0:
278,281,40784,1,0,0:0:0:0:
278,281,40920,1,8,0:0:0:0:
278,281,41192,1,0,0:0:0:0:
278,281,41330,1,8,0:0:0:0:
278,281,41605,1,0,0:0:0:0:
291,230,41701,1,8,0:0:0:0:
239,249,41894,1,8,0:0:0:0:
254,239,41991,1,0,0:0:0:0:
256,271,42193,1,8,0:0:0:0:
256,271,42302,1,8,0:0:0:0:
252,262,42412,1,8,0:0:0:0:
259,263,42757,5,0,0:0:0:0:
259,263,42894,1,8,0:0:0:0:
287,270,43169,1,8,0:0:0:0:
287,270,43307,1,0,0:0:0:0:
272,249,43445,1,8,0:0:0:0:
287,270,43582,1,8,0:0:0:0:
287,270,43651,1,8,0:0:0:0:
287,270,43720,1,8,0:0:0:0:
287,270,43857,1,0,0:0:0:0:
287,270,43989,1,8,0:0:0:0:
281,266,44253,5,8,0:0:0:0:
281,266,44385,1,0,0:0:0:0:
256,242,44517,1,8,0:0:0:0:
275,242,44649,1,0,0:0:0:0:
278,245,44717,1,0,0:0:0:0:
278,245,44786,1,0,0:0:0:0:
293,211,44924,1,0,0:0:0:0:
277,247,45057,1,8,0:0:0:0:
300,255,45324,1,8,0:0:0:0:
300,255,45457,1,0,0:0:0:0:
300,255,45590,1,8,0:0:0:0:
267,241,45724,1,0,0:0:0:0:
267,241,45790,1,0,0:0:0:0:
267,241,45857,1,0,0:0:0:0:
256,192,45990,8,0,46924,0:0:0:0:
290,262,47326,5,8,0:0:0:0:
245,249,47415,1,8,0:0:0:0:
249,242,47595,1,0,0:0:0:0:
249,242,47729,1,8,0:0:0:0:
249,242,47864,1,0,0:0:0:0:
229,208,47998,1,8,0:0:0:0:
249,242,48133,1,0,0:0:0:0:
249,242,48222,1,0,0:0:0:0:
249,242,48402,1,8,0:0:0:0:
233,251,48671,1,0,0:0:0:0:
233,251,48761,1,0,0:0:0:0:
206,237,48940,1,8,0:0:0:0:
206,237,49209,5,0,0:0:0:0:
218,239,49275,1,0,0:0:0:0:
218,239,49342,1,0,0:0:0:0:
225,228,49475,1,8,0:0:0:0:
215,201,49742,1,0,0:0:0:0:
183,196,49809,1,0,0:0:0:0:
232,217,49875,1,0,0:0:0:0:
236,220,50009,1,8,0:0:0:0:
237,225,50275,5,0,0:0:0:0:
213,232,50342,1,0,0:0:0:0:
247,227,50542,1,0,0:0:0:0:
258,226,50609,1,0,0:0:0:0:
259,230,50809,1,8,0:0:0:0:
258,226,50875,1,8,0:0:0:0:
249,248,51075,1,8,0:0:0:0:
249,213,51142,1,8,0:0:0:0:
250,248,51309,5,0,0:0:0:0:
262,195,51479,1,0,0:0:0:0:
284,226,51652,1,8,0:0:0:0:
246,243,51930,1,0,0:0:0:0:
243,236,52208,1,8,0:0:0:0:
230,203,52300,1,8,0:0:0:0:
255,255,52486,5,0,0:0:0:0:
239,251,52736,1,8,0:0:0:0:
243,221,52867,1,8,0:0:0:0:
242,204,52998,1,0,0:0:0:0:
267,206,53183,1,8,0:0:0:0:
99,142,53581,5,0,0:0:0:0:
326,219,53717,1,8,0:0:0:0:
252,243,53854,1,0,0:0:0:0:
256,256,53991,1,8,0:0:0:0:
243,242,54128,1,0,0:0:0:0:
243,232,54197,1,0,0:0:0:0:
288,256,54265,1,0,0:0:0:0:
244,242,54402,1,8,0:0:0:0:
249,210,54676,5,0,0:0:0:0:
252,235,54813,1,8,0:0:0:0:
257,237,54950,1,0,0:0:0:0:
226,207,55019,1,0,0:0:0:0:
290,271,55087,1,0,0:0:0:0:
290,271,55224,1,8,0:0:0:0:
211,218,55781,5,0,0:0:0:0:
211,218,55919,1,8,0:0:0:0:
211,218,56057,1,0,0:0:0:0:
207,217,56195,1,8,0:0:0:0:
207,217,56333,1,0,0:0:0:0:
224,230,56403,1,0,0:0:0:0:
215,231,56472,1,0,0:0:0:0:
211,218,56610,1,8,0:0:0:0:
221,210,56748,1,8,0:0:0:0:
225,228,56886,1,0,0:0:0:0:
225,228,57160,5,8,0:0:0:0:
214,148,57228,1,8,0:0:0:0:
199,236,57297,1,8,0:0:0:0:
199,236,57434,1,0,0:0:0:0:
217,222,57571,1,0,0:0:0:0:
206,182,57708,1,8,0:0:0:0:
211,218,57983,5,0,0:0:0:0:
224,160,58053,1,0,0:0:0:0:
224,160,58123,1,0,0:0:0:0:
224,224,58264,1,8,0:0:0:0:
192,64,58405,2,0,L|416:64,1,219.718309859155
224,160,59039,5,0,0:0:0:0:
224,160,59109,1,0,0:0:0:0:
224,160,59177,1,0,0:0:0:0:
224,160,59313,1,8,0:0:0:0:
160,128,59518,2,0,L|416:128,1,248.181825067189
192,256,60199,5,0,0:0:0:0:
192,224,60339,1,8,0:0:0:0:
160,224,60480,1,0,0:0:0:0:
160,256,60621,1,8,0:0:0:0:
207,223,60691,1,8,0:0:0:0:
160,256,60762,1,8,0:0:0:0:
160,256,60898,1,0,0:0:0:0:
160,256,61034,1,8,0:0:0:0:
192,256,61306,5,8,0:0:0:0:
192,256,61441,1,0,0:0:0:0:
256,256,61508,1,0,0:0:0:0:
192,256,61576,1,0,0:0:0:0:
256,256,61711,1,8,0:0:0:0:
256,256,61846,1,0,0:0:0:0:
214,216,62116,1,8,0:0:0:0:
214,216,62387,5,0,0:0:0:0:
228,209,62519,1,8,0:0:0:0:
228,209,62585,1,8,0:0:0:0:
212,195,62651,1,8,0:0:0:0:
212,195,62783,1,0,0:0:0:0:
214,216,62915,1,8,0:0:0:0:
227,216,63047,1,0,0:0:0:0:
227,216,63179,1,8,0:0:0:0:
217,219,63444,5,0,0:0:0:0:
262,221,63579,1,8,0:0:0:0:
244,211,63647,1,8,0:0:0:0:
246,219,63715,1,8,0:0:0:0:
247,219,63851,1,0,0:0:0:0:
247,219,63986,1,8,0:0:0:0:
251,221,64529,5,0,0:0:0:0:
251,219,64596,1,0,0:0:0:0:
251,221,64664,1,0,0:0:0:0:
247,219,64799,1,0,0:0:0:0:
264,221,64934,1,12,0:0:0:0:
233,228,65339,5,0,0:0:0:0:
251,221,65466,1,8,0:0:0:0:
252,225,65593,1,0,0:0:0:0:
252,225,65659,1,0,0:0:0:0:
252,225,65725,1,0,0:0:0:0:
249,184,65858,1,8,0:0:0:0:
242,221,65991,1,8,0:0:0:0:
220,226,66123,1,0,0:0:0:0:
234,226,66256,1,0,0:0:0:0:
234,226,66389,1,8,0:0:0:0:
239,239,66654,5,0,0:0:0:0:
235,235,66923,1,8,0:0:0:0:
200,187,67091,1,0,0:0:0:0:
180,201,67192,1,8,0:0:0:0:
213,216,67360,1,0,0:0:0:0:
226,228,67461,1,8,0:0:0:0:
235,235,67730,5,0,0:0:0:0:
223,218,67898,1,8,0:0:0:0:
235,235,67999,1,8,0:0:0:0:
242,219,68167,1,0,0:0:0:0:
239,226,68268,1,0,0:0:0:0:
254,234,68446,1,8,0:0:0:0:
243,229,68553,1,8,0:0:0:0:
256,239,68839,5,0,0:0:0:0:
238,268,69355,1,12,0:0:0:0:
