osu file format v14

[General]
AudioFilename: audio.mp3
AudioLeadIn: 0
PreviewTime: 239
Countdown: 0
SampleSet: Normal
StackLeniency: 0.7
Mode: 1
LetterboxInBreaks: 0
EpilepsyWarning: 1
WidescreenStoryboard: 1

[Editor]
DistanceSpacing: 1
BeatDivisor: 4
GridSize: 32
TimelineZoom: 4.393405

[Metadata]
Title:The Vicious Cycle of Cat
TitleUnicode:The Vicious Cycle of Cat
Artist:Zimba TS
ArtistUnicode:Zimba TS
Creator:ZTH
Version:Inner Oni
Source:Rabbids Go Home
Tags:meow iyaz replay bãtutã din moldova fanfare vagabontu ubisoft video game novelty instrumental
BeatmapID:4219016
BeatmapSetID:2019194

[Difficulty]
HPDrainRate:7
CircleSize:5
OverallDifficulty:6
ApproachRate:5
SliderMultiplier:1.35
SliderTickRate:1

[Events]
//Background and Video events
Video,200,"output.mp4"
0,0,"The_Vicious_Cycle_of_Cat.png",0,-63
//Break Periods
//Storyboard Layer 0 (Background)
//Storyboard Layer 1 (Fail)
//Storyboard Layer 2 (Pass)
//Storyboard Layer 3 (Foreground)
//Storyboard Layer 4 (Overlay)
//Storyboard Sound Samples

[TimingPoints]
239,273.972602739726,4,1,0,90,1,0
239,-98.6486486486486,4,1,0,90,0,8
1334,269.058295964126,4,1,0,90,1,0
1334,-100.45045045045,4,1,0,90,0,0
2410,265.486725663717,4,1,0,90,1,0
2410,-101.801801801802,4,1,0,90,0,0
3471,275.229357798166,4,1,0,90,1,0
3471,-98.1981981981979,4,1,0,90,0,0
4571,259.74025974026,4,1,0,90,1,0
4571,-104.054054055024,4,1,0,90,0,0
4632,-103.813022549713,4,1,0,90,0,0
4697,-103.569365206372,4,1,0,90,0,0
4827,-103.085465785789,4,1,0,90,0,0
4957,-102.606067111051,4,1,0,90,0,0
5022,-102.368035976358,4,1,0,90,0,0
5087,-102.131106680703,4,1,0,90,0,0
5152,-101.895271591181,4,1,0,90,0,0
5217,-101.660523145227,4,1,0,90,0,0
5350,296.296296296297,4,1,0,90,1,8
5350,-88.7092506356115,4,1,0,90,0,8
5495,-88.2484557073691,4,1,0,90,0,8
5569,-88.0198487717448,4,1,0,90,0,8
5646,265.486725663717,4,1,0,90,1,0
5646,-97.9806797025539,4,1,0,90,0,0
5775,-97.5311645585906,4,1,0,90,0,0
5908,-97.0823963562842,4,1,0,90,0,0
5974,-96.8612290455186,4,1,0,90,0,0
6041,-96.6377390549292,4,1,0,90,0,0
6107,-96.4185908011395,4,1,0,90,0,0
6173,-96.2004342363969,4,1,0,90,0,0
6306,-95.7638012037798,4,1,0,90,0,0
6373,-95.5453410511982,4,1,0,90,0,0
6442,275.229357798166,4,1,0,90,1,8
6442,-91.9565611271732,4,1,0,90,0,8
6507,-91.7446221983061,4,1,0,90,0,8
6576,-91.5305627882923,4,1,0,90,0,8
6704,269.662921348315,4,1,0,90,1,8
6704,-93.0267470313512,4,1,0,90,0,8
6751,-92.8703890458717,4,1,0,90,0,8
6806,480,3,1,0,70,1,0
6806,-52.0833333333855,3,1,0,70,0,0
9206,269.058295964125,4,1,0,90,1,0
9206,-92.9166666666669,4,1,0,90,0,0
9407,262.008733624455,4,1,0,90,1,8
9407,-95.4166666666664,4,1,0,90,0,8
10193,265.486725663717,4,1,0,90,1,0
10193,-94.1666666666666,4,1,0,90,0,0
11122,302.267002518892,4,1,0,90,1,8
11122,-82.7061450665784,4,1,0,90,0,0
11219,-71.4285714285714,4,1,0,90,0,0
11273,281.03044496487,4,1,0,90,1,0
11273,-77.2980620748228,4,1,0,90,0,0
11410,-78.6236857277259,4,1,0,90,0,0
11457,-79.0789698069723,4,1,0,90,0,0
11551,-80.0055417187025,4,1,0,90,0,0
11691,-81.4265091580451,4,1,0,90,0,0
11738,-81.9149331170048,4,1,0,90,0,0
11855,-83.1566312675119,4,1,0,90,0,0
11902,-83.6660963877065,4,1,0,90,0,0
12019,-84.9618715253545,4,1,0,90,0,0
12066,-85.4937673577477,4,1,0,90,0,0
12183,-86.8472306932265,4,1,0,90,0,0
12230,-87.4030718919168,4,1,0,90,0,0
12347,-88.8181634869288,4,1,0,90,0,0
12397,262.008733624454,4,1,0,90,1,0
12397,-95.8899736041765,4,1,0,90,0,0
12481,-97.0662059205055,4,1,0,90,0,0
12525,-97.6721381132418,4,1,0,90,0,0
12659,281.03044496487,4,1,0,90,1,8
12659,-92.7856101826224,4,1,0,90,0,0
12796,-94.7022439599101,4,1,0,90,0,0
12866,-95.6905640608708,4,1,0,90,0,0
12937,-96.7143009776676,4,1,0,90,0,0
13007,-97.7452917746578,4,1,0,90,0,0
13077,-98.7985004907705,4,1,0,90,0,0
13218,-100.990395474517,4,1,0,90,0,0
13280,-101.985295692109,4,1,0,90,0,0
13342,-102.999993330384,4,1,0,90,0,0
13405,-104.051950788407,4,1,0,90,0,0
13468,276.497695852535,4,1,0,90,1,8
13468,-106.796512849399,4,1,0,90,0,8
13511,-107.606845153081,4,1,0,90,0,8
13557,-108.429568476781,4,1,0,90,0,8
13609,355.029585798817,4,1,0,70,1,0
13609,-85.1385390428212,4,1,0,70,0,0
13964,383.386581469649,4,1,0,70,1,8
13964,-65.2083333333333,4,1,0,70,0,0
14184,-55.5555555555556,4,1,0,70,0,0
14280,-56.9455303622622,4,1,0,70,0,0
14376,560.747663551402,4,1,0,70,1,8
14376,-39.901115480189,4,1,0,70,0,8
14533,-41.6824152784117,4,1,0,70,0,8
14613,-42.6340685952704,4,1,0,70,0,8
14693,-43.6301916932908,4,1,0,70,0,8
14773,-44.6739761835609,4,1,0,70,0,8
14853,-45.7689265802168,4,1,0,70,0,8
15013,-48.1281495998156,4,1,0,70,0,8
15093,-49.4013810707102,4,1,0,70,0,8
15174,-50.7610521093536,4,1,0,70,0,8
15498,560.747663551402,3,1,0,70,1,0
15498,-56.9755058572951,3,1,0,70,0,0
15895,-36.3636363636364,3,1,0,70,0,0
15975,-37.2079524016834,3,1,0,70,0,0
16055,-38.0924082602882,3,1,0,70,0,0
16135,-39.019936082788,3,1,0,70,0,0
16215,-39.993760723756,3,1,0,70,0,0
16406,-42.5277823851385,3,1,0,70,0,0
16511,-44.0625537033855,3,1,0,70,0,0
16616,-45.7122481725798,3,1,0,70,0,0
16709,-47.2801032638761,3,1,0,70,0,0
16803,-48.9780324737345,3,1,0,70,0,0
16896,-50.7823331352743,3,1,0,70,0,0
17177,-57.1428571428571,3,1,0,70,0,0
17702,-38.4615384615385,3,1,0,70,0,0
17808,-39.5435244161359,3,1,0,70,0,0
17913,-40.6770406770407,3,1,0,70,0,0
18018,-41.8774592467678,3,1,0,70,0,0
18158,-43.5927442949093,3,1,0,70,0,0
18228,-44.5041816009558,3,1,0,70,0,0
18298,-45.4545454545455,3,1,0,70,0,0
18526,283.018867924528,4,1,0,90,1,0
18526,-95.4954954954956,4,1,0,90,0,0
19517,270.27027027027,4,1,0,90,1,0
19517,-100,4,1,0,90,0,0
20462,301.507537688442,4,1,0,90,1,8
20462,-89.6396396396397,4,1,0,90,0,0
20612,283.018867924528,4,1,0,90,1,0
20612,-95.4954954954956,4,1,0,90,0,0
22310,266.666666666667,4,1,0,90,1,8
22310,-101.351351351351,4,1,0,90,0,0
22843,284.36018957346,4,1,0,90,1,0
22843,-95.045045045045,4,1,0,90,0,0
23980,277.777777777778,4,1,0,90,1,0
23980,-97.2972972972972,4,1,0,90,0,0
24063,-97.157524902773,4,1,0,90,0,0
24150,-97.0165352665124,4,1,0,90,0,0
24237,-96.8759542300671,4,1,0,90,0,0
24324,-96.7357800197723,4,1,0,90,0,0
24411,-96.5960108722138,4,1,0,90,0,0
24497,-96.4582446556842,4,1,0,90,0,0
24584,-96.3192757781501,4,1,0,90,0,0
24671,-96.1807067537425,4,1,0,90,0,0
24758,-96.0425358592032,4,1,0,90,0,0
24813,287.081339712919,4,1,0,90,1,8
24813,-92.8503209815327,4,1,0,90,0,0
24917,-92.6867004465394,4,1,0,90,0,0
25007,-92.5495215488887,4,1,0,90,0,0
25100,273.972602739726,4,1,0,90,1,0
25100,-96.8344106972424,4,1,0,90,0,8
25182,-96.6994435758524,4,1,0,90,0,8
25268,-96.5632709646613,4,1,0,90,0,8
25353,-96.4290580866235,4,1,0,90,0,8
25439,-96.29364539382,4,1,0,90,0,8
25507,-96.1868438363737,4,1,0,90,0,8
25576,-96.0787135594408,4,1,0,90,0,8
25644,-95.9723879786373,4,1,0,90,0,8
25730,-95.8382539354869,4,1,0,90,0,8
25816,-95.7044943089974,4,1,0,90,0,8
25921,277.777777777778,4,1,0,90,1,8
25921,-94.2374785322334,4,1,0,90,0,0
26004,-94.1063531441398,4,1,0,90,0,0
26091,-93.9740738147005,4,1,0,90,0,0
26161,-93.8679118407465,4,1,0,90,0,0
26198,272.727272727273,4,1,0,90,1,0
26198,-95.553775321231,4,1,0,90,0,0
26246,-95.4752362840045,4,1,0,90,0,0
26331,-95.344624402891,4,1,0,90,0,0
26416,-95.2143693924882,4,1,0,90,0,0
26501,-95.0844697921752,4,1,0,90,0,0
26587,-94.9534021837283,4,1,0,90,0,0
26655,-94.8500228598946,4,1,0,90,0,0
26743,260.869565217391,4,1,0,90,1,8
26743,-99.0266200495722,4,1,0,90,0,0
26821,-98.8985349876357,4,1,0,90,0,0
26903,-98.769205689348,4,1,0,90,0,0
26984,-98.6417852339353,4,1,0,90,0,0
27066,-98.5131261288878,4,1,0,90,0,0
27131,-98.4113784708015,4,1,0,90,0,0
27196,-98.3098407726437,4,1,0,90,0,0
27264,267.857142857143,4,1,0,90,1,0
27264,-95.6465511925371,4,1,0,90,0,0
27350,-95.5117581029479,4,1,0,90,0,0
27439,-95.3773444019993,4,1,0,90,0,0
27528,-95.2433084902013,4,1,0,90,0,0
27612,-95.1171478031963,4,1,0,90,0,0
27696,-94.9913209026553,4,1,0,90,0,0
27779,-94.8673184968055,4,1,0,90,0,0
27863,-94.7421512729211,4,1,0,90,0,0
27947,-94.6173139032103,4,1,0,90,0,0
28031,-94.4928050854878,4,1,0,90,0,0
28114,-94.3700999565941,4,1,0,90,0,0
28198,-94.2462404906088,4,1,0,90,0,0
28282,-94.1227057261685,4,1,0,90,0,0
28335,271.493212669683,4,1,0,90,1,0
28335,-92.7897375661587,4,1,0,90,0,0
28365,-92.7420178733816,4,1,0,90,0,0
28467,-92.5948304626894,4,1,0,90,0,0
28535,-92.4969647986479,4,1,0,90,0,0
28603,-92.3993057892533,4,1,0,90,0,0
28688,-92.2775216397364,4,1,0,90,0,0
28773,-92.1560580955881,4,1,0,90,0,0
28824,-92.0833333334256,4,1,0,90,0,0
29420,275.229357798165,4,1,0,90,1,0
29420,-90.8333333333334,4,1,0,90,0,0
30520,265.486725663717,4,1,0,90,1,0
30520,-94.1666666666666,4,1,0,90,0,0
31581,272.727272727273,4,1,0,90,1,0
31581,-91.6666666666666,4,1,0,90,0,0
33761,280.373831775701,4,1,0,90,1,0
33761,-133.333333333333,4,1,0,90,0,0
33898,-125.009290226682,4,1,0,90,0,0
34038,-117.663518712837,4,1,0,90,0,0
34178,-111.133135117278,4,1,0,90,0,0
34318,-105.28951486698,4,1,0,90,0,0
34458,-100.029735355337,4,1,0,90,0,0
34599,-95.2380952380952,4,1,0,90,0,0
34832,-82.3076923075594,4,1,0,90,0,0
34882,246.913580246914,4,1,0,90,1,0
34882,-93.4615384612437,4,1,0,90,0,0
35128,260.869565217391,4,1,0,90,1,8
35128,-95.8333333333334,4,1,0,90,0,0
35211,-88.4615384612597,4,1,0,90,0,0
35388,276.497695852535,4,1,0,90,1,8
35388,-83.4615384612752,4,1,0,90,0,0
35664,375,4,1,0,90,1,8
35664,-61.5384615382676,4,1,0,90,0,0
36039,271.493212669683,4,1,0,90,1,0
36039,-133.333333333333,4,1,0,90,0,0
36307,-117.664064758601,4,1,0,90,0,0
36443,-111.111111111111,4,1,0,90,0,0
36578,-105.290389341612,4,1,0,90,0,0
36714,-100.012286521686,4,1,0,90,0,0
36850,-95.2380952380952,4,1,0,90,0,0
37123,257.510729613734,4,1,0,90,1,0
37123,-89.2857142857143,4,1,0,90,0,0
37509,285.714285714286,4,1,0,90,1,8
37509,-80.7692307689542,4,1,0,90,0,0
37651,260.869565217391,4,1,0,90,1,8
37651,-88.4615384612358,4,1,0,90,0,0
37911,361.44578313253,4,1,0,90,1,8
37911,-63.8461538459353,4,1,0,90,0,0
38272,275.229357798165,4,1,0,90,1,0
38272,-133.333333333333,4,1,0,90,0,0
38544,-117.730496453901,4,1,0,90,0,0
38681,-111.245141401957,4,1,0,90,0,0
38822,280.373831775701,4,1,0,90,1,8
38822,-103.462938692296,4,1,0,90,0,0
38959,-98.2243088850915,4,1,0,90,0,0
39099,-93.4906072520751,4,1,0,90,0,0
39365,269.058295964126,4,1,0,90,1,0
39365,-85.7692307693198,4,1,0,90,0,0
39903,269.058295964126,4,1,0,90,1,8
39903,-85.7692307693198,4,1,0,90,0,0
40514,270.880361173815,4,1,0,90,1,0
40514,-133.333333333333,4,1,0,90,0,0
40781,-117.748917748918,4,1,0,90,0,0
40917,-111.201962387572,4,1,0,90,0,0
41055,275.229357798165,4,1,0,90,1,8
41055,-103.72027570814,4,1,0,90,0,0
41189,-98.4922853578768,4,1,0,90,0,0
41327,-93.7332043426852,4,1,0,90,0,0
41605,257.510729613734,4,1,0,90,1,0
41605,-83.2142857141074,4,1,0,90,0,0
42120,292.682926829268,4,1,0,90,1,8
42120,-73.2142857141027,4,1,0,90,0,0
42412,345.821325648415,4,1,0,90,1,8
42412,-61.9642857141297,4,1,0,90,0,0
42757,275.229357798165,4,1,0,90,1,0
42757,-90.8333333333334,4,1,0,90,0,0
43857,264.31718061674,4,1,0,90,1,0
43857,-94.5833333333334,4,1,0,90,0,0
44649,275.229357798165,4,1,0,90,1,8
44649,-90.8333333333334,4,1,0,90,0,0
44924,266.666666666667,4,1,0,90,1,0
44924,-93.7499999999999,4,1,0,90,0,0
47057,269.058295964126,4,1,0,90,1,0
47057,-92.9166666666665,4,1,0,90,0,0
49209,266.666666666667,4,1,0,90,1,0
49209,-93.7499999999999,4,1,0,90,0,0
51309,266.666666666667,4,1,0,90,1,0
51309,-74.0740740740741,4,1,0,90,0,0
51375,277.777777777778,4,1,0,90,1,8
51375,-71.5768092594808,4,1,0,90,0,8
51476,-72.3231441562969,4,1,0,90,0,8
51580,-73.085207192257,4,1,0,90,0,8
51632,-73.4722929535323,4,1,0,90,0,8
51684,-73.8635008402114,4,1,0,90,0,8
51736,-74.258897050325,4,1,0,90,0,8
51788,-74.6585492069819,4,1,0,90,0,8
51927,-75.7482766288056,4,1,0,90,0,8
52066,-76.8702869070095,4,1,0,90,0,8
52205,-78.0260361654937,4,1,0,90,0,8
52274,-78.6127582646964,4,1,0,90,0,8
52344,-79.2170694365326,4,1,0,90,0,8
52486,250,4,1,0,90,1,0
52486,-89.3833639463329,4,1,0,90,0,0
52623,-90.8010129280028,4,1,0,90,0,0
52701,-91.6105261740722,4,1,0,90,0,0
52736,262.008733624454,4,1,0,90,1,8
52782,-88.2285424737699,4,1,0,90,0,8
52864,-89.0711573022314,4,1,0,90,0,8
52998,297.029702970297,4,1,0,90,1,8
52998,-79.786645887644,4,1,0,90,0,8
53069,-80.4911167570079,4,1,0,90,0,8
53180,-81.5714614257156,4,1,0,90,0,8
53295,286.396181384248,4,1,0,90,1,8
53295,-85.7615590019201,4,1,0,90,0,8
53435,-87.2916666663941,4,1,0,90,0,8
53581,273.972602739726,4,1,0,90,1,0
53581,-91.25,4,1,0,90,0,0
55635,292.682926829268,4,1,0,90,1,8
55635,-85.4166666666668,4,1,0,90,0,0
55781,276.497695852534,4,1,0,90,1,0
55781,-90.4166666666669,4,1,0,90,0,0
56886,274.285714285714,4,1,0,90,1,0
56886,-91.1458333333334,4,1,0,90,0,0
57983,281.690140845071,4,1,0,90,1,0
57983,-88.7499999999998,4,1,0,90,0,0
58405,-80,4,1,0,90,0,0
59039,-88.4955752212389,4,1,0,90,0,0
59109,272.727272727273,4,1,0,90,1,0
59109,-91.6666666666666,4,1,0,90,0,0
59518,-66.6666666666667,4,1,0,90,0,0
59995,-91.743119266055,4,1,0,90,0,0
60199,281.690140845071,4,1,0,90,1,0
60199,-88.7499999999998,4,1,0,90,0,0
60762,272.108843537415,4,1,0,90,1,8
60762,-91.875,4,1,0,90,0,0
61306,270.270270270271,4,1,0,90,1,0
61306,-92.4999999999997,4,1,0,90,0,0
62116,-50,4,1,0,90,0,0
62387,264.31718061674,4,1,0,90,1,0
62387,-94.5833333333334,4,1,0,90,0,0
63444,271.493212669684,4,1,0,90,1,0
63444,-92.0833333333331,4,1,0,90,0,0
64529,270.270270270271,4,1,0,90,1,0
64529,-92.4999999999997,4,1,0,90,0,0
64934,-66.6666666666667,4,1,0,90,0,0
65204,-92.5925925925926,4,1,0,90,0,0
65339,254.237288135593,4,1,0,90,1,8
65339,-98.3333333333334,4,1,0,90,0,0
65593,265.486725663717,4,1,0,90,1,0
65593,-94.1666666666666,4,1,0,90,0,0
66654,269.058295964126,4,1,0,90,1,0
66654,-92.9166666666665,4,1,0,90,0,0
68268,285.714285714286,4,1,0,90,1,8
68268,-87.4999999999999,4,1,0,90,0,0
68839,281.69014084507,4,1,0,90,1,0
68839,-88.7500000000001,4,1,0,90,0,0
69355,-50,4,1,0,90,0,0

[HitObjects]
214,186,239,5,8,0:0:0:0:
252,181,375,1,0,0:0:0:0:
252,180,444,1,0,0:0:0:0:
252,180,512,1,8,0:0:0:0:
202,221,581,1,8,0:0:0:0:
238,209,649,1,0,0:0:0:0:
238,209,786,1,8,0:0:0:0:
216,223,855,1,0,0:0:0:0:
276,190,923,1,8,0:0:0:0:
216,197,1060,1,0,0:0:0:0:
171,187,1129,1,0,0:0:0:0:
220,214,1197,1,8,0:0:0:0:
220,214,1334,5,0,0:0:0:0:
238,209,1468,1,8,0:0:0:0:
238,209,1603,1,0,0:0:0:0:
200,206,1737,1,8,0:0:0:0:
200,206,1872,1,0,0:0:0:0:
217,205,2006,1,8,0:0:0:0:
182,206,2141,1,0,0:0:0:0:
183,204,2208,1,0,0:0:0:0:
182,205,2275,1,8,0:0:0:0:
195,213,2410,5,0,0:0:0:0:
195,213,2542,1,8,0:0:0:0:
178,205,2675,1,0,0:0:0:0:
178,205,2808,1,8,0:0:0:0:
197,212,2940,1,0,0:0:0:0:
183,204,3016,1,8,0:0:0:0:
197,212,3092,1,8,0:0:0:0:
197,212,3168,1,8,0:0:0:0:
187,190,3244,1,0,0:0:0:0:
178,205,3358,1,8,0:0:0:0:
195,213,3471,5,0,0:0:0:0:
198,203,3562,1,8,0:0:0:0:
192,213,3654,1,8,0:0:0:0:
198,203,3746,1,0,0:0:0:0:
200,192,3837,1,8,0:0:0:0:
105,182,3929,1,0,0:0:0:0:
170,219,4021,1,0,0:0:0:0:
148,195,4113,1,8,0:0:0:0:
191,216,4204,1,8,0:0:0:0:
148,195,4296,1,0,0:0:0:0:
182,214,4571,5,0,0:0:0:0:
186,228,4635,1,0,0:0:0:0:
181,226,4700,1,8,0:0:0:0:
185,226,4830,1,0,0:0:0:0:
185,226,4960,1,8,0:0:0:0:
185,226,5025,1,8,0:0:0:0:
204,232,5090,1,0,0:0:0:0:
197,238,5155,1,0,0:0:0:0:
197,238,5220,1,8,0:0:0:0:
197,238,5350,1,0,0:0:0:0:
141,215,5498,1,8,0:0:0:0:
182,227,5572,1,8,0:0:0:0:
200,240,5646,5,0,0:0:0:0:
182,236,5778,1,8,0:0:0:0:
214,224,5911,1,0,0:0:0:0:
164,219,5977,1,0,0:0:0:0:
141,215,6044,1,8,0:0:0:0:
164,219,6110,1,8,0:0:0:0:
165,219,6176,1,0,0:0:0:0:
202,227,6309,1,8,0:0:0:0:
181,196,6376,1,8,0:0:0:0:
202,227,6442,1,0,0:0:0:0:
202,227,6510,1,0,0:0:0:0:
202,227,6579,1,8,0:0:0:0:
240,218,6704,1,0,0:0:0:0:
190,186,6754,1,0,0:0:0:0:
193,234,6806,5,8,0:0:0:0:
185,243,6986,1,8,0:0:0:0:
186,243,7106,1,0,0:0:0:0:
202,245,7226,1,8,0:0:0:0:
202,244,7286,1,8,0:0:0:0:
208,245,7346,1,0,0:0:0:0:
208,245,7466,1,8,0:0:0:0:
208,245,7586,5,0,0:0:0:0:
208,253,7646,1,0,0:0:0:0:
208,245,7706,1,8,0:0:0:0:
203,148,7826,1,0,0:0:0:0:
204,259,7946,1,8,0:0:0:0:
215,256,8006,1,0,0:0:0:0:
211,249,8066,1,0,0:0:0:0:
212,249,8126,1,8,0:0:0:0:
213,226,8246,5,0,0:0:0:0:
192,216,8366,1,8,0:0:0:0:
212,249,8486,1,0,0:0:0:0:
217,242,8546,1,8,0:0:0:0:
212,249,8606,1,0,0:0:0:0:
212,249,8726,1,8,0:0:0:0:
215,249,8786,1,8,0:0:0:0:
212,249,8846,1,0,0:0:0:0:
215,249,8966,1,8,0:0:0:0:
223,261,9206,5,0,0:0:0:0:
175,233,9306,1,8,0:0:0:0:
254,250,9357,1,8,0:0:0:0:
224,244,9407,1,0,0:0:0:0:
214,258,9538,1,8,0:0:0:0:
275,230,9669,1,0,0:0:0:0:
225,254,9712,1,8,0:0:0:0:
225,254,9843,1,0,0:0:0:0:
225,254,9887,1,8,0:0:0:0:
225,254,10018,1,0,0:0:0:0:
225,254,10062,1,8,0:0:0:0:
225,254,10193,5,0,0:0:0:0:
236,252,10325,1,8,0:0:0:0:
213,264,10458,1,0,0:0:0:0:
213,264,10524,1,0,0:0:0:0:
213,264,10591,1,8,0:0:0:0:
226,271,10723,1,0,0:0:0:0:
188,206,10790,1,0,0:0:0:0:
226,204,10856,1,8,0:0:0:0:
234,278,10923,1,0,0:0:0:0:
226,204,10989,1,0,0:0:0:0:
182,192,11055,1,8,0:0:0:0:
220,262,11222,5,0,0:0:0:0:
190,186,11273,1,0,0:0:0:0:
236,263,11413,1,0,0:0:0:0:
199,193,11460,1,0,0:0:0:0:
264,275,11554,1,8,0:0:0:0:
203,200,11694,1,0,0:0:0:0:
194,196,11741,1,0,0:0:0:0:
195,178,11858,1,0,0:0:0:0:
185,196,11905,1,0,0:0:0:0:
239,225,12022,1,8,0:0:0:0:
194,193,12186,1,8,0:0:0:0:
202,208,12350,5,0,0:0:0:0:
166,204,12397,1,8,0:0:0:0:
199,196,12484,1,0,0:0:0:0:
126,170,12528,1,8,0:0:0:0:
254,279,12659,1,0,0:0:0:0:
180,187,12799,1,8,0:0:0:0:
180,187,12869,1,0,0:0:0:0:
160,186,12940,1,8,0:0:0:0:
203,221,13080,1,0,0:0:0:0:
194,191,13221,1,8,0:0:0:0:
259,283,13283,1,8,0:0:0:0:
197,205,13345,1,0,0:0:0:0:
216,213,13408,1,0,0:0:0:0:
254,291,13468,1,8,0:0:0:0:
188,215,13537,1,8,0:0:0:0:
208,232,13609,1,0,0:0:0:0:
170,255,13845,5,8,0:0:0:0:
199,248,14187,1,8,0:0:0:0:
199,248,14283,1,8,0:0:0:0:
199,248,14376,1,0,0:0:0:0:
214,250,14536,1,8,0:0:0:0:
241,236,14616,1,0,0:0:0:0:
220,245,14696,1,0,0:0:0:0:
220,245,14776,1,8,0:0:0:0:
106,197,14856,1,0,0:0:0:0:
214,259,15016,1,8,0:0:0:0:
214,259,15096,1,8,0:0:0:0:
231,247,15177,1,0,0:0:0:0:
208,265,15498,5,8,0:0:0:0:
212,266,15898,1,0,0:0:0:0:
244,246,15978,1,0,0:0:0:0:
230,263,16058,1,8,0:0:0:0:
230,263,16138,1,8,0:0:0:0:
230,263,16218,1,0,0:0:0:0:
230,263,16409,1,8,0:0:0:0:
251,264,16514,1,0,0:0:0:0:
230,263,16619,1,8,0:0:0:0:
230,263,16712,1,8,0:0:0:0:
224,257,16806,1,8,0:0:0:0:
225,257,16899,1,0,0:0:0:0:
230,263,17180,5,8,0:0:0:0:
181,213,17705,1,0,0:0:0:0:
208,266,17811,1,0,0:0:0:0:
208,266,17916,1,8,0:0:0:0:
208,266,18021,1,8,0:0:0:0:
208,266,18161,1,0,0:0:0:0:
208,266,18231,1,0,0:0:0:0:
208,266,18301,1,8,0:0:0:0:
208,266,18526,5,8,0:0:0:0:
217,266,18667,1,0,0:0:0:0:
217,266,18809,1,8,0:0:0:0:
243,276,18879,1,8,0:0:0:0:
243,276,18950,1,0,0:0:0:0:
243,276,19044,1,8,0:0:0:0:
247,218,19139,1,0,0:0:0:0:
243,276,19233,1,0,0:0:0:0:
267,293,19327,1,8,0:0:0:0:
257,289,19516,5,8,0:0:0:0:
158,210,19607,1,0,0:0:0:0:
257,289,19697,1,8,0:0:0:0:
236,281,19787,1,8,0:0:0:0:
255,303,19877,1,0,0:0:0:0:
261,292,19967,1,8,0:0:0:0:
258,294,20057,1,0,0:0:0:0:
192,224,20125,1,0,0:0:0:0:
224,224,20192,1,8,0:0:0:0:
192,224,20327,1,0,0:0:0:0:
128,224,20462,1,8,0:0:0:0:
262,288,20612,5,0,0:0:0:0:
278,276,20682,1,0,0:0:0:0:
287,304,20753,1,8,0:0:0:0:
285,299,20895,1,0,0:0:0:0:
283,275,20965,1,0,0:0:0:0:
286,299,21036,1,8,0:0:0:0:
257,279,21178,1,0,0:0:0:0:
261,294,21248,1,8,0:0:0:0:
257,279,21319,1,8,0:0:0:0:
261,294,21390,1,8,0:0:0:0:
257,279,21461,1,0,0:0:0:0:
257,279,21602,1,8,0:0:0:0:
257,279,21744,5,0,0:0:0:0:
185,186,21814,1,0,0:0:0:0:
203,228,21885,1,8,0:0:0:0:
205,202,21956,1,0,0:0:0:0:
262,215,22027,1,0,0:0:0:0:
217,227,22097,1,0,0:0:0:0:
186,220,22168,1,8,0:0:0:0:
192,192,22310,1,0,0:0:0:0:
256,256,22398,1,8,0:0:0:0:
256,256,22487,1,8,0:0:0:0:
192,256,22576,1,0,0:0:0:0:
272,233,22710,1,8,0:0:0:0:
272,275,22843,1,0,0:0:0:0:
273,275,22922,1,0,0:0:0:0:
273,275,23001,1,8,0:0:0:0:
273,275,23080,1,8,0:0:0:0:
273,275,23159,1,0,0:0:0:0:
272,274,23237,1,0,0:0:0:0:
207,215,23316,1,8,0:0:0:0:
273,275,23395,1,8,0:0:0:0:
272,275,23474,1,0,0:0:0:0:
273,275,23553,1,0,0:0:0:0:
273,275,23632,1,0,0:0:0:0:
273,275,23711,1,0,0:0:0:0:
273,275,23790,1,8,0:0:0:0:
268,296,23980,5,0,0:0:0:0:
272,274,24066,1,8,0:0:0:0:
272,274,24153,1,8,0:0:0:0:
272,275,24240,1,8,0:0:0:0:
273,275,24327,1,8,0:0:0:0:
273,275,24414,1,0,0:0:0:0:
273,273,24587,5,8,0:0:0:0:
273,273,24674,1,8,0:0:0:0:
273,273,24761,1,0,0:0:0:0:
225,251,24920,5,8,0:0:0:0:
272,274,25010,1,8,0:0:0:0:
272,274,25100,1,8,0:0:0:0:
253,250,25185,1,8,0:0:0:0:
253,250,25271,1,0,0:0:0:0:
253,250,25442,5,8,0:0:0:0:
249,253,25510,1,8,0:0:0:0:
249,253,25579,1,8,0:0:0:0:
249,253,25647,1,8,0:0:0:0:
242,255,25733,1,0,0:0:0:0:
242,255,25921,5,8,0:0:0:0:
242,255,26007,1,8,0:0:0:0:
242,255,26094,1,0,0:0:0:0:
242,260,26249,5,8,0:0:0:0:
234,259,26334,1,8,0:0:0:0:
234,259,26419,1,8,0:0:0:0:
234,259,26504,1,8,0:0:0:0:
234,259,26590,1,0,0:0:0:0:
234,259,26743,5,8,0:0:0:0:
234,259,26824,1,8,0:0:0:0:
234,259,26906,1,8,0:0:0:0:
234,259,26987,1,8,0:0:0:0:
234,259,27069,1,0,0:0:0:0:
234,259,27264,5,8,0:0:0:0:
234,259,27353,1,8,0:0:0:0:
234,259,27442,1,8,0:0:0:0:
234,259,27531,1,8,0:0:0:0:
234,259,27615,1,0,0:0:0:0:
234,259,27782,5,8,0:0:0:0:
234,259,27866,1,8,0:0:0:0:
234,259,27950,1,0,0:0:0:0:
234,259,28117,5,8,0:0:0:0:
234,259,28201,1,8,0:0:0:0:
234,259,28285,1,8,0:0:0:0:
234,259,28368,1,8,0:0:0:0:
234,259,28470,1,0,0:0:0:0:
234,259,28606,5,8,0:0:0:0:
234,259,28691,1,8,0:0:0:0:
239,237,28776,1,0,0:0:0:0:
242,242,28844,1,0,0:0:0:0:
244,235,29013,1,0,0:0:0:0:
217,224,29081,1,0,0:0:0:0:
257,253,29285,1,0,0:0:0:0:
257,253,29420,5,8,0:0:0:0:
230,239,29511,1,8,0:0:0:0:
214,209,29603,1,0,0:0:0:0:
248,240,29695,1,8,0:0:0:0:
249,240,29750,1,0,0:0:0:0:
249,240,29805,1,0,0:0:0:0:
264,218,29860,1,8,0:0:0:0:
256,224,29971,1,0,0:0:0:0:
150,195,30039,1,8,0:0:0:0:
212,223,30108,1,0,0:0:0:0:
204,219,30245,1,8,0:0:0:0:
189,221,30314,1,0,0:0:0:0:
204,210,30383,1,8,0:0:0:0:
225,228,30520,5,0,0:0:0:0:
195,224,30586,1,0,0:0:0:0:
225,228,30652,1,8,0:0:0:0:
225,228,30785,1,0,0:0:0:0:
225,221,30851,1,8,0:0:0:0:
225,220,30918,1,8,0:0:0:0:
198,217,31050,1,0,0:0:0:0:
204,221,31117,1,0,0:0:0:0:
204,221,31183,1,8,0:0:0:0:
189,211,31316,1,8,0:0:0:0:
210,242,31375,1,0,0:0:0:0:
201,217,31434,1,0,0:0:0:0:
174,218,31493,1,8,0:0:0:0:
174,209,31581,5,0,0:0:0:0:
155,206,31717,1,8,0:0:0:0:
228,240,31808,1,0,0:0:0:0:
234,231,31853,1,0,0:0:0:0:
228,240,31899,1,8,0:0:0:0:
183,225,31990,1,0,0:0:0:0:
197,234,32081,1,8,0:0:0:0:
174,218,32177,1,0,0:0:0:0:
204,236,32228,1,8,0:0:0:0:
204,236,32279,1,8,0:0:0:0:
194,223,32331,1,0,0:0:0:0:
203,216,32416,1,0,0:0:0:0:
205,246,32501,1,8,0:0:0:0:
228,227,32671,5,0,0:0:0:0:
192,224,32739,1,8,0:0:0:0:
189,218,32807,1,0,0:0:0:0:
192,224,32875,1,0,0:0:0:0:
192,224,32943,1,8,0:0:0:0:
192,224,33052,1,0,0:0:0:0:
192,224,33107,1,8,0:0:0:0:
192,224,33161,1,8,0:0:0:0:
192,224,33216,1,0,0:0:0:0:
188,205,33301,1,8,0:0:0:0:
220,219,33352,1,8,0:0:0:0:
220,219,33403,1,0,0:0:0:0:
224,224,33489,1,8,0:0:0:0:
224,224,33761,5,0,0:0:0:0:
213,225,34041,1,0,0:0:0:0:
183,228,34181,1,8,0:0:0:0:
183,228,34321,1,0,0:0:0:0:
183,228,34461,1,0,0:0:0:0:
213,250,34602,1,8,0:0:0:0:
234,244,34835,1,8,0:0:0:0:
219,236,34881,1,8,0:0:0:0:
219,236,34927,1,8,0:0:0:0:
239,242,35258,1,8,0:0:0:0:
239,242,35316,1,8,0:0:0:0:
239,242,35374,1,8,0:0:0:0:
257,250,35664,1,8,0:0:0:0:
257,250,35734,1,8,0:0:0:0:
256,250,35804,1,8,0:0:0:0:
256,250,36039,5,0,0:0:0:0:
266,267,36310,1,0,0:0:0:0:
273,276,36446,1,8,0:0:0:0:
273,276,36581,1,0,0:0:0:0:
273,276,36717,1,0,0:0:0:0:
273,276,36853,1,8,0:0:0:0:
259,274,37124,1,0,0:0:0:0:
276,283,37235,1,8,0:0:0:0:
262,281,37283,1,8,0:0:0:0:
262,281,37380,1,0,0:0:0:0:
208,193,37444,1,8,0:0:0:0:
276,282,37509,1,0,0:0:0:0:
212,247,37651,1,8,0:0:0:0:
207,227,37737,1,0,0:0:0:0:
276,282,37824,1,0,0:0:0:0:
218,248,37911,1,8,0:0:0:0:
265,276,38272,5,0,0:0:0:0:
256,275,38547,1,0,0:0:0:0:
262,289,38684,1,8,0:0:0:0:
262,288,38822,1,0,0:0:0:0:
262,288,38962,1,0,0:0:0:0:
262,288,39102,1,8,0:0:0:0:
268,283,39365,1,0,0:0:0:0:
272,279,39418,1,0,0:0:0:0:
272,279,39472,1,0,0:0:0:0:
272,279,39526,1,8,0:0:0:0:
272,287,39687,1,0,0:0:0:0:
272,287,39741,1,0,0:0:0:0:
272,287,39795,1,8,0:0:0:0:
272,287,39849,1,8,0:0:0:0:
272,287,39903,1,0,0:0:0:0:
291,277,40064,1,8,0:0:0:0:
291,277,40118,1,8,0:0:0:0:
291,277,40172,1,0,0:0:0:0:
278,281,40514,5,0,0:0:0:0:
278,281,40784,1,0,0:0:0:0:
278,281,40920,1,8,0:0:0:0:
278,281,41055,1,0,0:0:0:0:
278,281,41192,1,0,0:0:0:0:
278,281,41330,1,8,0:0:0:0:
278,281,41605,1,0,0:0:0:0:
257,292,41669,1,0,0:0:0:0:
291,230,41733,1,8,0:0:0:0:
264,260,41798,1,0,0:0:0:0:
239,249,41862,1,8,0:0:0:0:
256,271,41926,1,8,0:0:0:0:
254,239,41991,1,0,0:0:0:0:
256,271,42193,1,8,0:0:0:0:
256,271,42248,1,8,0:0:0:0:
256,271,42302,1,0,0:0:0:0:
252,262,42357,1,0,0:0:0:0:
252,262,42412,1,8,0:0:0:0:
259,263,42757,5,4,0:0:0:0:
259,263,42894,1,8,0:0:0:0:
287,270,43032,1,0,0:0:0:0:
287,270,43101,1,0,0:0:0:0:
287,270,43169,1,8,0:0:0:0:
287,270,43307,1,0,0:0:0:0:
287,270,43445,1,8,0:0:0:0:
287,270,43582,1,0,0:0:0:0:
287,270,43651,1,0,0:0:0:0:
287,270,43720,1,8,0:0:0:0:
287,270,43857,1,0,0:0:0:0:
277,260,43923,1,8,0:0:0:0:
287,270,43989,1,8,0:0:0:0:
277,260,44055,1,8,0:0:0:0:
277,260,44121,1,0,0:0:0:0:
281,266,44253,1,8,0:0:0:0:
281,266,44385,1,0,0:0:0:0:
296,267,44517,1,8,0:0:0:0:
296,266,44649,1,0,0:0:0:0:
296,266,44717,1,0,0:0:0:0:
296,266,44786,1,8,0:0:0:0:
276,247,44924,5,0,0:0:0:0:
277,247,45057,1,8,0:0:0:0:
300,255,45190,1,0,0:0:0:0:
300,255,45324,1,8,0:0:0:0:
300,255,45390,1,8,0:0:0:0:
300,255,45457,1,0,0:0:0:0:
300,255,45590,1,8,0:0:0:0:
267,241,45724,1,0,0:0:0:0:
267,241,45790,1,0,0:0:0:0:
267,241,45857,1,8,0:0:0:0:
135,201,45990,2,0,L|192:205,18,36
290,262,47326,5,0,0:0:0:0:
245,249,47415,1,8,0:0:0:0:
245,249,47505,1,8,0:0:0:0:
249,242,47595,1,0,0:0:0:0:
249,242,47684,1,8,0:0:0:0:
249,242,47774,1,8,0:0:0:0:
249,242,47864,1,0,0:0:0:0:
249,242,47953,1,8,0:0:0:0:
249,242,48133,1,0,0:0:0:0:
249,242,48222,1,8,0:0:0:0:
249,242,48312,1,8,0:0:0:0:
249,242,48402,1,0,0:0:0:0:
206,237,48536,1,8,0:0:0:0:
206,237,48671,1,0,0:0:0:0:
233,251,48761,1,8,0:0:0:0:
233,251,48850,1,0,0:0:0:0:
206,237,48940,1,8,0:0:0:0:
206,237,49030,1,0,0:0:0:0:
206,237,49209,5,0,0:0:0:0:
218,239,49285,1,0,0:0:0:0:
218,239,49361,1,8,0:0:0:0:
218,239,49437,1,0,0:0:0:0:
218,239,49513,1,8,0:0:0:0:
218,239,49589,1,8,0:0:0:0:
218,239,49666,1,0,0:0:0:0:
219,239,49825,1,8,0:0:0:0:
219,239,49909,1,0,0:0:0:0:
219,239,49992,1,0,0:0:0:0:
219,239,50075,1,0,0:0:0:0:
218,239,50159,1,8,0:0:0:0:
244,237,50275,1,0,0:0:0:0:
250,254,50342,1,0,0:0:0:0:
250,254,50409,1,8,0:0:0:0:
227,240,50542,1,0,0:0:0:0:
227,240,50609,1,8,0:0:0:0:
229,240,50675,1,8,0:0:0:0:
229,240,50809,1,0,0:0:0:0:
249,249,50875,1,0,0:0:0:0:
249,250,50942,1,8,0:0:0:0:
249,248,51075,1,0,0:0:0:0:
249,248,51142,1,8,0:0:0:0:
250,248,51209,1,8,0:0:0:0:
250,248,51309,5,0,0:0:0:0:
246,249,51375,1,0,0:0:0:0:
246,243,51479,1,8,0:0:0:0:
246,243,51583,1,0,0:0:0:0:
239,244,51635,1,0,0:0:0:0:
247,240,51687,1,0,0:0:0:0:
239,244,51739,1,0,0:0:0:0:
246,243,51791,1,8,0:0:0:0:
246,243,51930,1,0,0:0:0:0:
230,238,52069,1,8,0:0:0:0:
261,266,52208,1,0,0:0:0:0:
230,238,52277,1,0,0:0:0:0:
234,228,52347,1,8,0:0:0:0:
255,255,52486,5,0,0:0:0:0:
250,246,52626,1,8,0:0:0:0:
239,251,52704,1,0,0:0:0:0:
248,235,52785,1,0,0:0:0:0:
215,238,52867,1,8,0:0:0:0:
248,238,52998,1,0,0:0:0:0:
242,204,53072,1,0,0:0:0:0:
232,243,53183,1,8,0:0:0:0:
256,256,53438,5,0,0:0:0:0:
268,238,53509,1,0,0:0:0:0:
256,256,53581,1,8,0:0:0:0:
256,256,53649,1,8,0:0:0:0:
256,256,53717,1,8,0:0:0:0:
256,256,53786,1,8,0:0:0:0:
256,256,53854,1,0,0:0:0:0:
256,256,53991,1,8,0:0:0:0:
288,256,54128,1,0,0:0:0:0:
288,256,54265,1,8,0:0:0:0:
252,246,54334,1,0,0:0:0:0:
301,268,54402,1,8,0:0:0:0:
252,246,54471,1,0,0:0:0:0:
252,246,54539,1,8,0:0:0:0:
252,246,54676,5,0,0:0:0:0:
252,235,54813,1,8,0:0:0:0:
257,237,54950,1,0,0:0:0:0:
207,213,55019,1,0,0:0:0:0:
290,271,55087,1,8,0:0:0:0:
290,271,55156,1,8,0:0:0:0:
290,271,55224,1,0,0:0:0:0:
207,213,55293,1,0,0:0:0:0:
228,237,55361,1,8,0:0:0:0:
218,200,55498,1,0,0:0:0:0:
218,200,55544,1,0,0:0:0:0:
218,200,55590,1,8,0:0:0:0:
215,192,55635,1,8,0:0:0:0:
211,218,55781,5,0,0:0:0:0:
183,243,55850,1,8,0:0:0:0:
211,218,55919,1,0,0:0:0:0:
211,218,56057,1,8,0:0:0:0:
224,192,56103,1,8,0:0:0:0:
218,200,56149,1,0,0:0:0:0:
207,217,56195,1,0,0:0:0:0:
207,217,56333,1,8,0:0:0:0:
217,227,56472,1,0,0:0:0:0:
236,218,56518,1,8,0:0:0:0:
211,218,56610,1,0,0:0:0:0:
220,219,56656,1,0,0:0:0:0:
257,236,56748,1,8,0:0:0:0:
225,228,56886,5,0,0:0:0:0:
257,236,56931,1,0,0:0:0:0:
232,222,57023,1,8,0:0:0:0:
228,206,57114,1,0,0:0:0:0:
225,228,57160,1,0,0:0:0:0:
192,192,57251,1,8,0:0:0:0:
194,161,57388,1,0,0:0:0:0:
199,236,57434,1,8,0:0:0:0:
217,222,57526,1,0,0:0:0:0:
224,192,57571,1,0,0:0:0:0:
192,192,57663,1,8,0:0:0:0:
224,160,57754,1,0,0:0:0:0:
224,224,57800,1,0,0:0:0:0:
234,193,57846,1,8,0:0:0:0:
211,218,57983,5,0,0:0:0:0:
224,160,58053,1,0,0:0:0:0:
224,160,58123,1,8,0:0:0:0:
224,160,58194,1,8,0:0:0:0:
224,224,58264,1,0,0:0:0:0:
185,66,58405,2,0,L|494:73,1,295.3125
224,160,59039,5,8,0:0:0:0:
224,160,59109,1,0,0:0:0:0:
224,160,59177,1,0,0:0:0:0:
224,160,59245,1,8,0:0:0:0:
224,160,59313,1,0,0:0:0:0:
224,160,59381,1,0,0:0:0:0:
216,108,59518,2,0,L|479:117,1,253.125009655953
192,256,59995,5,8,0:0:0:0:
192,256,60063,1,0,0:0:0:0:
192,256,60131,1,0,0:0:0:0:
192,256,60199,1,8,0:0:0:0:
192,224,60339,1,0,0:0:0:0:
192,224,60410,1,8,0:0:0:0:
160,224,60480,1,0,0:0:0:0:
160,256,60551,1,0,0:0:0:0:
160,256,60621,1,8,0:0:0:0:
160,256,60762,1,0,0:0:0:0:
160,256,60898,1,8,0:0:0:0:
224,224,60966,1,0,0:0:0:0:
160,256,61034,1,0,0:0:0:0:
192,256,61102,1,0,0:0:0:0:
192,256,61170,1,8,0:0:0:0:
192,256,61306,5,0,0:0:0:0:
192,256,61441,1,8,0:0:0:0:
192,256,61508,1,8,0:0:0:0:
192,256,61576,1,0,0:0:0:0:
256,256,61711,1,0,0:0:0:0:
256,256,61778,1,8,0:0:0:0:
256,256,61846,1,0,0:0:0:0:
237,180,61914,1,0,0:0:0:0:
256,256,61981,1,8,0:0:0:0:
256,192,62116,8,0,62251,0:0:0:0:
214,216,62387,5,0,0:0:0:0:
228,209,62453,1,0,0:0:0:0:
228,209,62519,1,8,0:0:0:0:
228,209,62585,1,0,0:0:0:0:
212,195,62651,1,8,0:0:0:0:
212,195,62783,1,0,0:0:0:0:
254,216,62849,1,0,0:0:0:0:
214,216,62915,1,8,0:0:0:0:
226,216,62981,1,8,0:0:0:0:
227,216,63047,1,0,0:0:0:0:
227,216,63113,1,0,0:0:0:0:
227,216,63179,1,8,0:0:0:0:
253,237,63312,1,8,0:0:0:0:
217,219,63444,5,0,0:0:0:0:
262,221,63579,1,8,0:0:0:0:
246,219,63647,1,0,0:0:0:0:
246,219,63715,1,8,0:0:0:0:
247,219,63851,1,8,0:0:0:0:
247,219,63919,1,8,0:0:0:0:
247,219,63986,1,0,0:0:0:0:
244,211,64054,1,0,0:0:0:0:
244,211,64122,1,8,0:0:0:0:
251,221,64258,1,0,0:0:0:0:
251,221,64529,5,0,0:0:0:0:
251,219,64596,1,8,0:0:0:0:
251,221,64664,1,0,0:0:0:0:
247,219,64731,1,8,0:0:0:0:
247,219,64799,1,0,0:0:0:0:
264,221,64934,1,12,0:0:0:0:
209,215,65204,1,0,0:0:0:0:
233,228,65272,1,8,0:0:0:0:
233,228,65339,1,0,0:0:0:0:
251,221,65466,1,8,0:0:0:0:
252,225,65593,5,8,0:0:0:0:
252,225,65659,1,8,0:0:0:0:
252,225,65725,1,0,0:0:0:0:
252,225,65792,1,8,0:0:0:0:
252,225,65858,1,0,0:0:0:0:
242,221,65991,1,8,0:0:0:0:
220,226,66123,1,0,0:0:0:0:
234,226,66256,1,8,0:0:0:0:
234,226,66323,1,8,0:0:0:0:
234,226,66389,1,0,0:0:0:0:
219,232,66455,1,0,0:0:0:0:
234,226,66522,1,8,0:0:0:0:
239,239,66654,5,8,0:0:0:0:
235,234,66721,1,8,0:0:0:0:
235,234,66788,1,8,0:0:0:0:
235,235,66855,1,8,0:0:0:0:
235,235,66923,1,0,0:0:0:0:
235,235,67012,1,0,0:0:0:0:
235,235,67102,1,0,0:0:0:0:
225,234,67192,1,8,0:0:0:0:
197,224,67427,1,0,0:0:0:0:
226,228,67511,1,0,0:0:0:0:
215,233,67595,1,0,0:0:0:0:
221,217,67679,1,8,0:0:0:0:
209,224,67780,1,8,0:0:0:0:
235,235,67881,1,8,0:0:0:0:
235,235,67981,1,8,0:0:0:0:
236,237,68076,1,0,0:0:0:0:
239,226,68153,1,0,0:0:0:0:
239,226,68268,1,8,0:0:0:0:
243,229,68357,1,8,0:0:0:0:
243,229,68446,1,0,0:0:0:0:
243,229,68553,1,8,0:0:0:0:
256,239,68839,5,0,0:0:0:0:
262,246,69120,1,8,0:0:0:0:
245,245,69191,1,0,0:0:0:0:
263,246,69262,1,8,0:0:0:0:
256,192,69355,12,0,69590,0:0:0:0:
