osu file format v14

[General]
AudioFilename: audio.mp3
AudioLeadIn: 0
PreviewTime: 390
Countdown: 0
SampleSet: Soft
StackLeniency: 0.6
Mode: 0
LetterboxInBreaks: 0
WidescreenStoryboard: 1

[Editor]
Bookmarks: 390,1748,12534,21972,23321,34107,44894,58714
DistanceSpacing: 1
BeatDivisor: 8
GridSize: 4
TimelineZoom: 1

[Metadata]
Title:Theme Song (TV Size)
TitleUnicode:Theme Song (TV Size)
Artist:Ziggy Marley and the Melody Makers
ArtistUnicode:Ziggy Marley and the Melody Makers
Creator:Gaz
Version:Normal
Source:Arthur
Tags:english reggae jazz pbs cbbc aardvark nostalgia cartoon op opening believe in yourself marc brown sharon cedella stephen gazza garzah
BeatmapID:4175129
BeatmapSetID:2007261

[Difficulty]
HPDrainRate:3
CircleSize:3.5
OverallDifficulty:4
ApproachRate:5.5
SliderMultiplier:2
SliderTickRate:1

[Events]
//Background and Video events
Video,0,"Arthur.mp4"
0,0,"arthur.jpeg",0,0
//Break Periods
//Storyboard Layer 0 (Background)
//Storyboard Layer 1 (Fail)
//Storyboard Layer 2 (Pass)
//Storyboard Layer 3 (Foreground)
//Storyboard Layer 4 (Overlay)
//Storyboard Sound Samples

[TimingPoints]
390,670.391061452514,4,2,0,60,1,0
1748,674.157303370787,4,2,0,60,1,0
12534,-83.3333333333333,4,2,0,70,0,1
21972,-100,4,2,0,70,0,0
22478,-100,4,2,0,45,0,0
22646,-100,4,2,0,70,0,0
22815,-100,4,2,0,45,0,0
22983,-100,4,2,0,70,0,0
23152,-100,4,2,0,10,0,0
23321,-100,4,2,0,60,0,0
44894,-83.3333333333333,4,2,0,70,0,1
58714,-100,4,2,0,60,0,0

[Colours]
Combo1 : 127,212,153
Combo2 : 223,180,125
Combo3 : 249,217,74

[HitObjects]
144,116,390,5,0,1:0:0:0:
103,291,1060,2,0,P|123:276|146:268,1,50,0|8,1:0|3:0,0:0:0:0:
191,262,1395,1,4,3:0:0:0:
301,272,1748,5,4,0:0:0:0:
394,306,2085,2,0,P|418:300|437:285,1,50,2|0,0:0|1:0,0:0:0:0:
466,242,2422,1,2,0:0:0:0:
464,142,2759,2,0,P|444:126|420:120,1,50,8|0,3:0|0:0,0:0:0:0:
371,110,3096,6,0,B|324:99|324:126|272:118,1,100,2|8,0:0|3:0,0:0:0:0:
223,109,3601,1,2,0:0:0:0:
195,17,3939,1,0,0:0:0:0:
195,17,4107,2,0,B|148:6|148:33|96:25,1,100,2|0,0:0|3:0,0:0:0:0:
7,65,4781,1,0,0:0:0:0:
7,65,4950,1,0,1:0:0:0:
19,200,5455,2,0,L|26:266,1,50,10|2,3:0|0:0,0:0:0:0:
69,269,5792,6,0,P|102:307|109:355,1,100,2|0,0:0|0:0,0:0:0:0:
151,384,6298,1,2,0:0:0:0:
240,347,6635,1,2,0:0:0:0:
240,347,6804,2,0,B|227:288|254:301|238:243,1,100,2|0,0:0|3:0,0:0:0:0:
184,168,7478,1,0,0:0:0:0:
184,168,7646,1,0,1:0:0:0:
256,100,7983,1,2,0:0:0:0:
256,100,8152,2,0,P|280:97|305:100,1,50,10|2,3:0|0:0,0:0:0:0:
344,132,8489,6,0,P|341:156|343:181,1,50,2|2,0:0|0:0,0:0:0:0:
353,235,8826,1,2,3:0:0:0:
353,235,8995,2,0,P|394:260|442:253,1,100,2|2,0:0|0:0,0:0:0:0:
485,226,9500,1,2,0:0:0:0:
512,322,9837,1,0,3:0:0:0:
421,359,10174,1,0,0:0:0:0:
421,359,10343,2,0,P|371:361|321:369,1,100,0|0,1:0|0:0,0:0:0:0:
276,383,10849,1,8,3:0:0:0:
276,383,11017,1,0,0:0:0:0:
129,358,11523,5,2,0:0:0:0:
129,358,11691,2,0,P|108:342|87:332,1,50,2|0,0:0|1:0,0:0:0:0:
37,341,12028,2,0,P|47:288|51:237,1,100,2|4,1:2|3:0,0:0:0:0:
63,188,12534,6,2,P|121:198|181:200,1,119.999996337891,6|0,1:2|0:0,0:0:0:0:
241,193,13040,1,2,1:0:0:0:
386,157,13545,2,0,L|382:89,1,59.9999981689454,2|2,3:0|0:0,0:0:0:0:
350,56,13882,2,0,P|320:59|290:53,1,59.9999981689454,2|2,0:0|0:0,0:0:0:0:
242,17,14219,1,2,3:0:0:0:
135,58,14556,6,2,B|67:50|94:80|10:69,1,119.999996337891,2|2,1:2|0:0,0:0:0:0:
0,128,15062,2,2,P|28:177|21:249,1,119.999996337891,2|0,0:0|0:0,0:0:0:0:
0,297,15568,1,0,0:0:0:0:
0,297,15736,1,2,1:0:0:0:
106,365,16073,1,2,0:0:0:0:
106,365,16242,2,0,P|133:354|163:356,1,59.9999981689454,2|2,3:0|0:0,0:0:0:0:
218,379,16579,6,2,P|228:320|265:273,1,119.999996337891,2|2,0:0|3:0,0:0:0:0:
267,212,17085,2,2,L|168:141,2,119.999996337891
326,213,17927,1,0,3:0:0:0:
372,328,18264,1,0,0:0:0:0:
372,328,18433,1,2,1:0:0:0:
487,295,18770,5,2,0:0:0:0:
486,294,18939,2,0,P|483:265|488:235,1,59.9999981689454,2|2,3:0|0:0,0:0:0:0:
492,175,19276,2,2,P|432:171|372:163,1,119.999996337891,2|0,0:0|3:0,0:0:0:0:
313,153,19781,1,2,0:0:0:0:
256,256,20118,1,2,0:0:0:0:
147,203,20455,6,2,P|153:144|155:84,1,119.999996337891
195,41,20961,1,0,0:0:0:0:
195,41,21130,1,0,1:0:0:0:
317,41,21467,1,2,3:0:0:0:
317,41,21635,1,0,1:0:0:0:
355,133,21972,5,0,1:0:0:0:
431,74,22309,2,0,L|501:80,1,50,10|2,0:0|0:0,0:0:0:0:
512,117,22646,2,0,L|507:182,1,50,10|10,0:0|3:0,0:0:0:0:
503,216,22983,1,2,3:0:0:0:
464,309,23321,6,0,B|404:296|418:323|360:307,1,100,4|0,1:0|0:0,0:0:0:0:
315,305,23826,1,2,1:2:0:0:
218,324,24163,1,2,0:0:0:0:
218,324,24332,2,0,L|212:248,1,50,10|2,3:0|0:0,0:0:0:0:
210,224,24669,5,2,0:0:0:0:
60,209,25174,2,0,B|73:149|46:163|62:105,1,100,2|2,0:0|0:0,0:0:0:0:
78,64,25680,2,0,P|102:66|127:61,1,50,2|2,0:0|0:0,0:0:0:0:
167,31,26017,2,0,P|191:25|216:28,1,50,10|2,3:0|0:0,0:0:0:0:
331,124,26691,6,0,P|328:148|333:173,1,50,2|2,0:0|0:0,0:0:0:0:
300,211,27028,2,0,P|275:208|250:213,1,50,2|2,1:2|0:0,0:0:0:0:
211,244,27365,1,2,0:0:0:0:
282,374,27871,6,0,P|327:352|376:353,1,100,2|2,3:0|0:0,0:0:0:0:
426,351,28377,2,0,L|428:296,1,50,2|6,0:0|1:2,0:0:0:0:
432,251,28714,2,0,L|487:249,1,50,2|0,3:0|0:0,0:0:0:0:
510,152,29219,2,0,B|450:139|464:166|406:150,1,100,2|2,1:2|0:0,0:0:0:0:
369,124,29725,2,0,L|367:69,1,50,2|2,3:0|0:0,0:0:0:0:
388,28,30062,5,2,0:0:0:0:
290,2,30399,2,0,L|235:4,1,50,2|2,3:0|0:0,0:0:0:0:
199,33,30736,2,0,P|205:61|201:88,1,50,2|2,1:2|0:0,0:0:0:0:
192,134,31073,1,2,0:0:0:0:
192,134,31242,6,0,P|146:152|97:144,1,100,2|2,0:0|0:0,0:0:0:0:
1,117,31916,2,0,B|-12:177|15:163|-1:221,1,100,2|2,1:2|0:0,0:0:0:0:
54,306,32590,1,2,0:0:0:0:
54,306,32759,6,0,P|50:347|40:386,2,75,2|2|2,0:0|0:0|1:2,0:0:0:0:
82,264,33433,2,0,P|106:262|131:267,1,50,2|0,1:0|1:0,0:0:0:0:
175,292,33770,1,8,3:0:0:0:
256,232,34107,5,4,3:1:0:0:
363,242,34444,1,2,0:0:0:0:
363,242,34613,1,0,1:0:0:0:
363,242,34781,2,0,L|376:137,1,100,2|2,0:0|3:0,0:0:0:0:
383,93,35287,2,0,P|334:100|288:82,1,100,2|2,0:0|3:0,0:0:0:0:
73,76,36467,5,2,0:0:0:0:
73,76,36635,1,2,0:0:0:0:
73,76,36804,2,0,L|59:180,1,100,2|0,3:0|0:0,0:0:0:0:
55,225,37309,2,0,P|97:248|145:240,1,100,2|2,1:2|3:0,0:0:0:0:
192,220,37815,1,10,3:0:0:0:
435,304,39163,5,0,0:0:0:0:
435,304,39332,1,2,1:2:0:0:
435,304,39500,2,0,L|520:317,2,75,10|2|2,3:0|0:0|1:2,0:0:0:0:
407,262,40174,2,0,L|322:249,2,75,2|2|2,0:0|0:0|0:0,0:0:0:0:
446,231,40849,1,2,0:0:0:0:
343,119,41354,5,2,0:0:0:0:
343,119,41523,2,0,B|403:106|389:133|447:117,1,100,2|2,1:2|0:0,0:0:0:0:
484,91,42028,2,0,P|483:37|431:-3,1,100,2|2,0:0|1:2,0:0:0:0:
353,8,42703,1,2,3:0:0:0:
353,8,42871,6,0,L|284:19,1,50,0|0,1:0|1:0,0:0:0:0:
279,59,43208,2,0,L|210:70,1,50,0|8,0:0|3:0,0:0:0:0:
180,76,43545,1,2,1:0:0:0:
99,25,43882,5,2,0:0:0:0:
99,25,44051,2,0,P|74:25|49:29,1,50,2|0,3:0|1:0,0:0:0:0:
6,56,44388,2,0,P|24:106|12:164,1,100,2|4,1:2|3:0,0:0:0:0:
0,209,44894,6,2,B|68:201|46:231|117:221,1,119.999996337891,6|0,1:2|0:0,0:0:0:0:
158,260,45399,1,2,1:0:0:0:
270,120,45905,2,0,P|267:144|274:180,1,59.9999981689454,2|2,3:0|0:0,0:0:0:0:
308,227,46242,2,0,P|332:224|368:233,1,59.9999981689454,2|2,0:0|0:0,0:0:0:0:
422,253,46579,1,2,3:0:0:0:
470,362,46916,6,2,P|411:373|356:353,1,119.999996337891,2|2,1:2|0:0,0:0:0:0:
307,318,47422,2,2,P|253:305|193:325,1,119.999996337891,2|0,0:0|0:0,0:0:0:0:
146,361,47927,1,0,0:0:0:0:
146,361,48096,1,6,1:0:0:0:
29,369,48433,1,0,0:0:0:0:
28,369,48601,2,0,P|40:341|41:311,1,59.9999981689454,2|2,0:0|0:0,0:0:0:0:
3,262,48939,6,2,P|16:205|59:163,1,119.999996337891
109,132,49444,2,2,P|70:88|13:71,2,119.999996337891,2|2|2,3:0|0:0|0:0,0:0:0:0:
139,185,50287,1,0,3:0:0:0:
147,308,50624,1,0,0:0:0:0:
147,308,50792,1,2,1:0:0:0:
259,260,51130,5,2,0:0:0:0:
259,260,51298,2,0,L|340:264,1,59.9999981689454,2|2,3:0|0:0,0:0:0:0:
375,284,51635,2,2,B|367:216|397:243|385:166,1,119.999996337891,2|0,0:0|3:0,0:0:0:0:
355,114,52141,1,2,0:0:0:0:
440,30,52478,1,2,0:0:0:0:
509,128,52815,6,2,B|517:196|487:169|499:246,1,119.999996337891
512,308,53321,1,0,0:0:0:0:
512,308,53489,1,2,1:0:0:0:
335,342,53995,6,0,L|261:349,1,59.9999981689454,2|2,3:0|0:0,0:0:0:0:
218,328,54332,2,0,P|206:303|207:269,1,59.9999981689454,2|2,0:0|0:0,0:0:0:0:
231,216,54669,1,2,3:0:0:0:
284,108,55006,2,2,L|155:114,1,119.999996337891,6|2,1:2|1:2,0:0:0:0:
103,115,55512,6,2,P|68:67|96:15,1,119.999996337891,2|0,1:2|0:0,0:0:0:0:
153,4,56017,1,0,0:0:0:0:
153,4,56186,1,2,1:0:0:0:
330,35,56691,2,0,P|355:43|389:42,1,59.9999981689454,2|2,3:0|0:0,0:0:0:0:
448,34,57028,6,0,L|445:97,1,59.9999981689454,2|2,0:0|1:2,0:0:0:0:
441,153,57365,1,2,3:0:0:0:
320,175,57703,2,2,P|302:230|328:283,1,119.999996337891,2|2,1:2|3:0,0:0:0:0:
383,304,58208,2,2,P|438:286|491:311,1,119.999996337891,10|0,3:0|0:0,0:0:0:0:
512,364,58714,1,6,1:0:0:0:
