osu file format v14

[General]
AudioFilename: audio.mp3
AudioLeadIn: 0
PreviewTime: 390
Countdown: 0
SampleSet: Soft
StackLeniency: 0.7
Mode: 0
LetterboxInBreaks: 0
WidescreenStoryboard: 0

[Editor]
Bookmarks: 390,1748,12534,21972,23321,34107,44894,58714
DistanceSpacing: 1.4
BeatDivisor: 4
GridSize: 4
TimelineZoom: 2.3

[Metadata]
Title:Theme Song (TV Size)
TitleUnicode:Theme Song (TV Size)
Artist:Ziggy Marley and the Melody Makers
ArtistUnicode:Ziggy Marley and the Melody Makers
Creator:Gaz
Version:Hey!
Source:Arthur
Tags:english reggae jazz pbs cbbc aardvark nostalgia cartoon op opening believe in yourself marc brown sharon cedella stephen gazza garzah
BeatmapID:4175128
BeatmapSetID:2007261

[Difficulty]
HPDrainRate:5
CircleSize:4.2
OverallDifficulty:8
ApproachRate:8.5
SliderMultiplier:2.8
SliderTickRate:1

[Events]
//Background and Video events
Video,0,"Arthur.mp4"
0,0,"arthur.jpeg",0,0
//Break Periods
//Storyboard Layer 0 (Background)
//Storyboard Layer 1 (Fail)
//Storyboard Layer 2 (Pass)
//Storyboard Layer 3 (Foreground)
//Storyboard Layer 4 (Overlay)
//Storyboard Sound Samples

[TimingPoints]
390,670.391061452514,4,2,0,60,1,0
1748,674.157303370787,4,2,0,60,1,0
12534,-125,4,2,0,70,0,1
13040,-62.5,4,2,0,70,0,1
13377,-83.3333333333333,4,2,0,70,0,1
15736,-62.5,4,2,0,70,0,1
16073,-83.3333333333333,4,2,0,70,0,1
18433,-62.5,4,2,0,70,0,1
18770,-83.3333333333333,4,2,0,70,0,1
21972,-83.3333333333333,4,2,0,70,0,0
22478,-83.3333333333333,4,2,0,45,0,0
22646,-83.3333333333333,4,2,0,70,0,0
22815,-83.3333333333333,4,2,0,45,0,0
22983,-83.3333333333333,4,2,0,70,0,0
23152,-83.3333333333333,4,2,0,45,0,0
23321,-100,4,2,0,60,0,0
39669,-100,4,2,0,30,0,0
39753,-100,4,2,0,60,0,0
39922,-100,4,2,0,30,0,0
40006,-100,4,2,0,60,0,0
40174,-100,4,2,0,50,0,0
40343,-100,4,2,0,25,0,0
40427,-100,4,2,0,50,0,0
40596,-100,4,2,0,25,0,0
40680,-100,4,2,0,50,0,0
41354,-100,4,2,0,60,0,0
44894,-125,4,2,0,70,0,1
45399,-62.5,4,2,0,70,0,1
45736,-83.3333333333333,4,2,0,70,0,1
48096,-62.5,4,2,0,70,0,1
48433,-83.3333333333333,4,2,0,70,0,1
50792,-62.5,4,2,0,70,0,1
51130,-83.3333333333333,4,2,0,70,0,1
53489,-62.5,4,2,0,70,0,1
53826,-83.3333333333333,4,2,0,70,0,1
56186,-62.5,4,2,0,70,0,1
56523,-83.3333333333333,4,2,0,70,0,1
58714,-100,4,2,0,60,0,0

[Colours]
Combo1 : 127,212,153
Combo2 : 223,180,125
Combo3 : 249,217,74

[HitObjects]
96,301,390,5,0,1:0:0:0:
96,301,836,2,0,L|91:246,3,31.1111111111111,0|0|0|0,1:0|1:0|1:0|1:0,1:0:0:0:
152,192,1227,1,8,3:0:0:0:
152,192,1395,1,4,3:0:0:0:
301,341,1748,6,0,P|334:301|329:250,1,105,4|0,0:0|0:0,0:0:0:0:
329,250,2085,2,0,L|421:245,1,70,2|0,0:0|1:0,0:0:0:0:
453,131,2422,2,0,P|388:107|323:131,1,140,2|8,0:0|3:0,0:0:0:0:
255,216,2927,1,0,0:0:0:0:
188,131,3096,6,0,P|123:107|59:131,1,140,2|8,0:0|3:0,0:0:0:0:
126,217,3601,2,0,P|190:240|255:217,1,140,2|0,0:0|0:0,0:0:0:0:
432,193,4107,1,2,0:0:0:0:
392,297,4276,1,0,0:0:0:0:
335,138,4444,1,0,3:0:0:0:
335,138,4781,1,0,0:0:0:0:
296,33,4950,2,0,B|381:11|361:56|440:33,1,140,0|0,1:0|0:0,0:0:0:0:
511,115,5455,1,10,3:0:0:0:
432,193,5624,1,2,0:0:0:0:
511,271,5792,5,2,0:0:0:0:
433,351,5961,2,0,B|361:330|381:375|296:353,1,140,2|2,0:0|0:0,0:0:0:0:
201,294,6467,1,0,1:0:0:0:
101,345,6635,1,2,0:0:0:0:
20,267,6804,1,2,0:0:0:0:
72,168,6972,1,0,0:0:0:0:
187,196,7141,1,0,3:0:0:0:
187,196,7478,1,0,0:0:0:0:
277,129,7646,2,0,P|300:192|279:258,1,140,0|2,1:0|0:0,0:0:0:0:
188,324,8152,1,10,3:0:0:0:
291,368,8321,1,2,0:0:0:0:
278,258,8489,5,2,0:0:0:0:
382,302,8658,1,2,0:0:0:0:
376,190,8826,1,2,3:0:0:0:
486,169,8995,2,0,P|454:107|392:78,1,140,2|2,0:0|0:0,0:0:0:0:
197,78,9500,1,2,0:0:0:0:
262,2,9669,5,2,0:0:0:0:
318,71,9837,1,2,3:0:0:0:
269,134,10006,1,2,0:0:0:0:
310,195,10174,5,0,0:0:0:0:
190,188,10343,2,0,P|120:180|50:175,1,140,0|0,1:0|0:0,0:0:0:0:
11,285,10849,2,0,P|50:291|104:294,1,70,8|0,3:0|0:0,0:0:0:0:
173,356,11186,5,0,0:0:0:0:
256,300,11354,1,0,1:0:0:0:
256,300,11439,1,0,1:0:0:0:
256,300,11523,1,2,0:0:0:0:
344,342,11691,1,2,0:0:0:0:
397,260,11860,1,0,1:0:0:0:
466,119,12028,1,2,1:2:0:0:
503,225,12197,1,8,3:0:0:0:
359,153,12365,1,4,3:0:0:0:
276,291,12534,6,0,P|210:269|144:289,1,140,6|0,1:2|0:0,0:0:0:0:
144,288,13040,2,2,P|193:194|126:111,1,224,2|0,1:0|0:0,0:0:0:0:
11,92,13545,5,2,3:0:0:0:
87,3,13714,1,2,0:0:0:0:
204,11,13882,1,2,0:0:0:0:
245,120,14051,1,2,0:0:0:0:
356,81,14219,2,0,P|396:92|428:119,1,83.9999974365235,2|0,3:0|0:0,0:0:0:0:
512,36,14556,2,2,P|475:110|483:192,1,167.999994873047,2|2,1:2|0:0,0:0:0:0:
382,328,15062,2,2,P|390:246|353:172,1,167.999994873047,2|0,0:0|0:0,0:0:0:0:
239,203,15568,5,0,0:0:0:0:
256,361,15736,2,0,B|125:385|168:312|30:342,1,224,2|2,1:0|0:0,0:0:0:0:
7,227,16242,5,2,3:0:0:0:
84,138,16410,1,2,0:0:0:0:
14,18,16579,2,2,P|98:22|184:19,1,167.999994873047,2|2,0:0|3:0,0:0:0:0:
256,108,17085,2,0,P|247:150|245:192,1,83.9999974365235,2|0,0:0|1:0,0:0:0:0:
146,285,17422,2,0,P|154:243|156:201,1,83.9999974365235,2|0,0:0|0:0,0:0:0:0:
256,329,17759,2,2,P|340:325|426:328,1,167.999994873047,2|0,0:0|0:0,0:0:0:0:
503,241,18264,5,0,0:0:0:0:
507,84,18433,2,0,P|413:34|330:101,1,224,2|2,1:0|0:0,0:0:0:0:
256,193,18939,5,2,3:0:0:0:
154,250,19107,1,2,0:0:0:0:
54,172,19276,2,2,P|46:89|83:15,1,167.999994873047,2|0,0:0|3:0,0:0:0:0:
216,35,19781,2,0,P|255:46|312:54,1,83.9999974365235,2|0,0:0|1:0,0:0:0:0:
196,177,20118,2,0,P|186:137|164:84,1,83.9999974365235,2|0,0:0|0:0,0:0:0:0:
330,124,20455,2,0,P|300:152|265:197,1,83.9999974365235,2|0,0:0|3:0,0:0:0:0:
350,272,20792,1,2,0:0:0:0:
455,221,20961,1,0,0:0:0:0:
481,348,21130,6,0,B|380:334|410:378|315:364,1,167.999994873047,0|2,1:0|3:0,0:0:0:0:
210,317,21635,1,0,1:0:0:0:
210,317,21719,1,0,1:0:0:0:
209,317,21804,2,0,P|189:322|172:333,1,41.9999987182618,0|0,3:0|3:0,0:0:0:0:
133,378,21972,5,0,1:0:0:0:
89,269,22141,1,2,0:0:0:0:
165,177,22309,2,0,P|213:182|256:199,1,83.9999974365235,10|2,0:0|0:0,0:0:0:0:
340,97,22646,2,0,P|292:102|249:119,1,83.9999974365235,10|10,0:0|3:0,0:0:0:0:
164,17,22983,2,0,P|212:22|255:39,1,83.9999974365235,2|2,3:0|0:0,0:0:0:0:
165,177,23321,5,4,1:0:0:0:
165,177,23658,1,0,0:0:0:0:
197,283,23826,2,0,P|269:283|363:290,1,140,2|2,1:2|0:0,0:0:0:0:
510,332,24332,1,10,3:0:0:0:
406,375,24500,1,2,0:0:0:0:
486,222,24669,5,2,0:0:0:0:
486,222,25006,1,8,3:0:0:0:
460,112,25174,2,0,P|388:112|294:105,1,140,2|2,0:0|0:0,0:0:0:0:
256,17,25680,1,2,0:0:0:0:
156,69,25849,1,2,0:0:0:0:
211,166,26017,1,10,3:0:0:0:
131,245,26186,1,2,0:0:0:0:
131,245,26523,1,0,1:0:0:0:
22,202,26691,6,0,P|22:166|16:109,1,70,2|2,0:0|0:0,0:0:0:0:
87,1,27028,2,0,P|87:37|81:94,1,70,2|2,1:2|0:0,0:0:0:0:
136,170,27365,1,2,0:0:0:0:
220,96,27534,1,8,3:0:0:0:
220,96,27871,2,0,B|305:74|285:119|364:96,1,140,2|2,3:0|0:0,0:0:0:0:
512,80,28377,1,2,0:0:0:0:
425,15,28545,1,6,1:2:0:0:
452,173,28714,1,2,3:0:0:0:
452,173,29219,2,0,B|367:151|387:196|308:173,1,140,2|2,1:2|0:0,0:0:0:0:
207,143,29725,1,2,3:0:0:0:
118,211,29894,1,2,0:0:0:0:
164,312,30062,5,2,0:0:0:0:
164,312,30399,2,0,P|198:305|233:306,1,70,2|2,3:0|0:0,0:0:0:0:
363,373,30736,2,0,P|328:379|293:378,1,70,2|2,1:2|0:0,0:0:0:0:
297,265,31073,1,2,0:0:0:0:
370,197,31242,2,2,P|394:132|370:68,1,140
256,105,31748,1,0,0:0:0:0:
141,68,31916,2,2,P|117:132|142:197,1,140,2|2,1:2|0:0,0:0:0:0:
141,196,32590,1,2,0:0:0:0:
215,265,32759,5,2,0:0:0:0:
384,237,33096,5,2,0:0:0:0:
478,302,33264,5,2,1:2:0:0:
478,302,33433,2,0,P|491:269|491:234,1,70,2|0,1:0|1:0,0:0:0:0:
448,130,33770,1,8,3:0:0:0:
510,36,33939,1,4,3:0:0:0:
389,1,34107,5,4,3:1:0:0:
389,1,34444,2,0,P|356:14|321:14,1,70,2|0,0:0|1:0,0:0:0:0:
223,6,34781,2,2,P|228:75|231:145,1,140,2|2,0:0|3:0,0:0:0:0:
136,258,35287,2,2,P|130:188|127:118,1,140,2|2,0:0|3:0,0:0:0:0:
135,14,35792,1,8,3:0:0:0:
37,12,35961,1,0,0:0:0:0:
25,109,36130,1,0,1:0:0:0:
25,109,36467,5,2,0:0:0:0:
84,193,36635,1,2,0:0:0:0:
34,287,36804,2,2,B|120:272|96:315|177:299,1,140,2|0,3:0|0:0,0:0:0:0:
283,364,37309,2,2,B|196:349|220:392|139:376,1,140,2|2,1:2|3:0,0:0:0:0:
69,305,37815,1,10,3:0:0:0:
141,230,37983,1,2,0:0:0:0:
94,148,38152,6,0,P|94:113|99:78,1,70,0|0,0:0|1:0,0:0:0:0:
192,28,38489,2,0,P|191:62|186:97,1,70,0|8,0:0|3:0,0:0:0:0:
138,232,38826,1,4,1:0:0:0:
138,232,39163,1,0,0:0:0:0:
226,298,39332,1,2,1:2:0:0:
301,214,39500,6,0,P|334:221|363:242,1,70,10|0,3:0|0:0,0:0:0:0:
370,309,39753,2,0,P|359:275|363:241,1,70,2|0,0:0|0:0,0:0:0:0:
431,207,40006,1,2,1:2:0:0:
497,139,40174,6,0,P|463:131|434:110,1,70,2|0,0:0|0:0,0:0:0:0:
429,43,40427,2,0,P|439:76|435:110,1,70,2|0,0:0|0:0,0:0:0:0:
367,146,40680,1,2,0:0:0:0:
210,84,40849,6,0,P|255:32|324:25,1,140,2|8,0:0|3:0,0:0:0:0:
300,121,41354,1,2,0:0:0:0:
247,204,41523,2,0,P|243:272|233:352,1,140,2|2,1:2|0:0,0:0:0:0:
116,360,42028,2,0,L|37:353,1,70,2|0,0:0|3:0,0:0:0:0:
161,257,42365,2,0,L|92:251,1,70,2|0,1:2|0:0,0:0:0:0:
116,154,42703,2,0,L|37:147,1,70,2|0,3:0|1:0,0:0:0:0:
0,39,43040,5,0,1:0:0:0:
105,1,43208,1,0,0:0:0:0:
183,82,43377,1,8,3:0:0:0:
261,1,43545,6,0,P|295:-3|328:7,1,70,2|8,1:0|0:0,0:0:0:0:
336,134,43882,1,2,0:0:0:0:
336,134,43967,1,0,1:0:0:0:
336,134,44051,1,2,3:0:0:0:
463,228,44219,1,0,1:0:0:0:
422,74,44388,1,2,1:2:0:0:
366,227,44556,1,4,3:0:0:0:
498,136,44725,1,4,3:0:0:0:
303,42,44894,6,0,P|250:86|182:81,1,140,6|0,1:2|0:0,0:0:0:0:
182,81,45399,2,2,B|184:232|118:152|123:307,1,224,2|0,1:0|0:0,0:0:0:0:
199,381,45905,5,2,3:0:0:0:
236,269,46073,1,2,0:0:0:0:
353,262,46242,1,2,0:0:0:0:
410,364,46410,1,2,0:0:0:0:
512,291,46579,2,0,P|501:250|505:208,1,83.9999974365235,2|0,3:0|0:0,0:0:0:0:
511,71,46916,2,2,P|435:42|370:90,1,167.999994873047,2|2,1:2|0:0,0:0:0:0:
289,153,47422,2,2,P|363:124|428:172,1,167.999994873047,2|0,0:0|0:0,0:0:0:0:
435,279,47927,5,0,0:0:0:0:
338,363,48096,2,0,B|262:367|274:292|225:349|212:275|184:346|125:306,1,224,6|0,1:0|0:0,0:0:0:0:
173,198,48601,5,2,0:0:0:0:
83,122,48770,1,2,0:0:0:0:
141,19,48939,2,2,B|247:6|203:55|333:32,1,167.999994873047
425,165,49444,2,0,P|439:125|444:84,1,83.9999974365235,2|0,3:0|1:0,0:0:0:0:
312,168,49781,2,0,P|316:209|331:248,1,83.9999974365235,2|0,0:0|0:0,0:0:0:0:
376,375,50118,2,2,B|270:388|314:339|184:362,1,167.999994873047,2|0,0:0|0:0,0:0:0:0:
149,258,50624,5,0,0:0:0:0:
72,346,50792,2,0,B|38:358|22:380|22:380|-26:301|27:301|0:222,1,224,2|2,1:0|0:0,0:0:0:0:
65,126,51298,5,2,3:0:0:0:
177,161,51467,1,2,0:0:0:0:
237,60,51635,2,2,P|314:53|395:113,1,167.999994873047,2|0,0:0|3:0,0:0:0:0:
415,260,52141,2,0,B|416:261|478:204,1,83.9999974365235,2|0,0:0|1:0,0:0:0:0:
326,147,52478,2,0,B|323:147|342:229,1,83.9999974365235,2|0,0:0|0:0,0:0:0:0:
466,128,52815,2,0,B|467:126|386:100,1,83.9999974365235,2|0,0:0|3:0,0:0:0:0:
309,11,53152,1,2,0:0:0:0:
207,70,53321,5,0,0:0:0:0:
257,195,53489,2,2,B|126:171|169:244|31:213,1,224,2|0,1:0|0:0,0:0:0:0:
8,327,53995,5,2,3:0:0:0:
117,369,54163,1,2,0:0:0:0:
201,287,54332,1,2,0:0:0:0:
310,329,54500,1,2,0:0:0:0:
367,227,54669,2,0,P|408:228|448:241,1,83.9999974365235,2|0,3:0|0:0,0:0:0:0:
508,323,55006,2,2,P|491:240|498:157,1,167.999994873047,6|2,1:2|1:2,0:0:0:0:
395,99,55512,2,2,P|332:154|256:190,1,167.999994873047,2|0,1:2|0:0,0:0:0:0:
142,218,56017,5,0,0:0:0:0:
15,166,56186,2,2,P|54:67|160:64,1,224,2|0,1:0|0:0,0:0:0:0:
256,137,56691,5,2,3:0:0:0:
332,226,56860,1,2,0:0:0:0:
444,190,57028,1,2,0:0:0:0:
439,72,57197,1,2,1:2:0:0:
327,33,57365,2,0,P|285:36|243:34,1,83.9999974365235,2|0,3:0|1:0,0:0:0:0:
129,4,57703,2,2,P|120:87|117:171,1,167.999994873047,2|2,1:2|3:0,0:0:0:0:
5,301,58208,2,2,P|13:217|16:133,1,167.999994873047,10|0,3:0|0:0,0:0:0:0:
0,1,58714,1,6,1:0:0:0:
