osu file format v14

[General]
AudioFilename: V^3.mp3
AudioLeadIn: 0
PreviewTime: 46284
Countdown: 0
SampleSet: None
StackLeniency: 0.7
Mode: 0
LetterboxInBreaks: 1
WidescreenStoryboard: 1

[Editor]
Bookmarks: 93751,95406,97061
DistanceSpacing: 0.7
BeatDivisor: 2
GridSize: 16
TimelineZoom: 3.500007

[Metadata]
Title:V^3 (Hello World)
TitleUnicode:V³ (Hello World)
Artist:ZiGZaG HACKER
ArtistUnicode:ZiGZaG HACKER
Creator:rustbell
Version:2010 MEMORIES
Source:
Tags:StepMania
BeatmapID:841599
BeatmapSetID:365053

[Difficulty]
HPDrainRate:4
CircleSize:4
OverallDifficulty:9
ApproachRate:9
SliderMultiplier:0.8
SliderTickRate:0.5

[Events]
//Background and Video events
0,0,"bg.jpg",0,0
//Break Periods
2,52706,55461
2,81469,84784
//Storyboard Layer 0 (Background)
//Storyboard Layer 1 (Fail)
//Storyboard Layer 2 (Pass)
//Storyboard Layer 3 (Foreground)
//Storyboard Sound Samples

[TimingPoints]
12,521.739130434783,4,1,0,60,1,0
4175,260.869565217391,4,1,0,60,1,0
7827,260.869565217391,4,1,0,60,1,0
7827,-25,4,1,0,60,0,0
8609,-100,4,1,0,60,0,0
11348,-50,4,1,0,60,0,0
15522,-200,4,1,0,60,0,0
16174,-50,4,1,0,60,0,0
19827,-25,4,1,0,60,0,0
20870,-50,4,1,0,60,0,0
25043,342.857142857143,4,1,0,60,1,0
25043,-50,4,1,0,60,0,0
27785,333.333333333333,4,1,0,60,1,0
27785,-50,4,1,0,60,0,0
30452,324.324324324324,4,1,0,60,1,0
30452,-50,4,1,0,60,0,0
33047,315.789473684211,4,1,0,60,1,0
33047,-50,4,1,0,60,0,0
35573,307.692307692308,4,1,0,60,1,0
35573,-50,4,1,0,60,0,0
36804,300,4,1,0,60,1,0
36804,-50,4,1,0,60,0,0
38004,292.682926829268,4,1,0,60,1,0
38004,-50,4,1,0,60,0,0
39174,285.714285714286,4,1,0,60,1,0
39174,-50,4,1,0,60,0,0
40317,277.777777777778,4,1,0,60,1,0
40317,-50,4,1,0,60,0,0
41428,265.486725663717,4,1,0,60,1,0
41428,-50,4,1,0,60,0,0
41958,259.74025974026,4,1,0,60,1,0
41958,-50,4,1,0,60,0,0
42477,254.237288135593,4,1,0,60,1,0
42477,-50,4,1,0,60,0,0
42985,250,4,1,0,60,1,0
42985,-50,4,1,0,60,0,0
43485,244.897959183673,4,1,0,60,1,0
43485,-50,4,1,0,60,0,0
43975,240,4,1,0,60,1,0
43975,-50,4,1,0,60,0,0
44455,235.294117647059,4,1,0,60,1,0
44455,-50,4,1,0,60,0,0
44926,230.769230769231,4,1,0,60,1,0
44926,-50,4,1,0,60,0,0
45387,226.415094339623,4,1,0,60,1,0
45387,-50,4,1,0,60,0,0
45840,222.222222222222,4,1,0,60,1,0
45840,-50,4,1,0,60,0,0
46284,222.222222222222,4,1,0,60,1,0
46284,-50,4,1,0,60,0,0
52506,444.444444444444,4,1,0,60,1,0
58728,400,4,1,0,60,1,0
64528,-50,4,1,0,60,0,0
65128,375,4,1,0,60,1,0
65878,363.636363636364,4,1,0,60,1,0
66605,352.941176470588,4,1,0,60,1,0
67311,342.857142857143,4,1,0,60,1,0
67996,333.333333333333,4,1,0,60,1,0
68663,324.324324324324,4,1,0,60,1,0
69312,315.789473684211,4,1,0,60,1,0
69943,307.692307692308,4,1,0,60,1,0
70559,285.714285714286,4,1,0,60,1,0
71130,272.727272727273,4,1,0,60,1,0
71676,260.869565217391,4,1,0,60,1,0
72197,250,4,1,0,60,1,0
72697,240,4,1,0,60,1,0
73177,230.769230769231,4,1,0,60,1,0
73639,222.222222222222,4,1,0,60,1,0
74083,214.285714285714,4,1,0,60,1,0
74512,206.896551724138,4,1,0,60,1,0
74926,200,4,1,0,60,1,0
75326,193.548387096774,4,1,0,60,1,0
75713,187.5,4,1,0,60,1,0
76088,181.818181818182,4,1,0,60,1,0
76451,176.470588235294,4,1,0,60,1,0
76804,171.428571428571,4,1,0,60,1,0
77147,166.666666666667,4,1,0,60,1,0
77147,-50,4,1,0,60,0,0
77480,162.162162162162,4,1,0,60,1,0
77805,153.846153846154,4,1,0,60,1,0
78112,142.857142857143,4,1,0,60,1,0
78398,136.363636363636,4,1,0,60,1,0
78671,130.434782608696,4,1,0,60,1,0
79193,120,4,1,0,60,1,0
79433,115.384615384615,4,1,0,60,1,0
79663,111.111111111111,4,1,0,60,1,0
79886,107.142857142857,4,1,0,60,1,0
80100,103.448275862069,4,1,0,60,1,0
80307,100,4,1,0,60,1,0
80507,96.774193548387,4,1,0,60,1,0
80894,93.75,4,1,0,60,1,0
81269,750,4,1,0,60,1,0
84550,93.75,4,1,0,60,1,0
85384,103.448275862069,4,1,0,60,1,1
92004,-100,4,1,0,60,0,0
100590,-100,4,2,0,5,0,0

[HitObjects]
96,96,12,6,0,B|224:96,1,120
288,96,1055,2,0,B|416:96,1,120
408,168,1968,2,0,B|392:168,1,10
392,168,2098,1,0,0:0:0:0:
320,256,2490,1,0,0:0:0:0:
192,256,2751,1,0,0:0:0:0:
256,64,3142,5,0,0:0:0:0:
64,152,3664,1,0,0:0:0:0:
72,152,3794,1,0,0:0:0:0:
80,152,3925,1,0,0:0:0:0:
88,152,4055,1,0,0:0:0:0:
96,152,4175,6,0,B|144:152,4,40
168,152,4827,2,0,B|248:152,1,60
232,152,5109,6,0,L|400:152|392:160|408:168|392:176|408:184|400:192|392:192|408:200|392:208|408:216|408:224|392:224|392:240|408:256|408:232|400:208|392:288,1,480
392,288,6783,2,0,L|344:288,11,26.6666666666667
336,288,7827,6,0,B|-256:176|352:80,1,640
416,240,8609,5,0,0:0:0:0:
256,224,8870,1,0,0:0:0:0:
176,80,9131,1,0,0:0:0:0:
96,112,9261,1,0,0:0:0:0:
80,192,9392,1,0,0:0:0:0:
176,320,9653,1,0,0:0:0:0:
176,320,9783,2,0,B|272:320|288:304,1,80
320,272,10174,5,0,0:0:0:0:
352,272,10240,1,0,0:0:0:0:
384,272,10305,1,0,0:0:0:0:
416,272,10370,1,0,0:0:0:0:
448,272,10435,1,0,0:0:0:0:
352,112,10696,5,0,0:0:0:0:
272,48,10827,1,0,0:0:0:0:
224,144,10957,1,0,0:0:0:0:
160,16,11088,1,0,0:0:0:0:
96,192,11218,1,0,0:0:0:0:
32,80,11348,2,0,B|160:96|176:224,1,160
176,240,11740,1,0,0:0:0:0:
320,192,11870,1,0,0:0:0:0:
272,288,12001,1,0,0:0:0:0:
416,240,12131,1,0,0:0:0:0:
464,144,12261,1,0,0:0:0:0:
320,192,12392,1,0,0:0:0:0:
176,240,12522,1,0,0:0:0:0:
64,64,12783,5,0,0:0:0:0:
64,320,13044,1,0,0:0:0:0:
64,192,13174,1,0,0:0:0:0:
448,64,13435,1,0,0:0:0:0:
416,64,13501,1,0,0:0:0:0:
384,64,13566,2,0,B|272:96,1,80
272,64,13827,2,0,B|352:96,1,80
432,192,14088,5,0,0:0:0:0:
304,288,14218,1,0,0:0:0:0:
224,160,14348,1,0,0:0:0:0:
96,256,14479,1,0,0:0:0:0:
64,96,14609,5,0,0:0:0:0:
320,128,14870,1,0,0:0:0:0:
160,336,15131,1,0,0:0:0:0:
208,80,15392,1,0,0:0:0:0:
208,80,15522,2,0,B|304:80,1,80
320,96,16174,2,0,B|144:96,1,160
64,320,16696,5,0,0:0:0:0:
128,192,16827,1,0,0:0:0:0:
192,320,16957,1,0,0:0:0:0:
256,192,17088,2,0,B|256:128,1,40
320,320,17283,2,0,B|320:368,1,40
448,320,17479,1,0,0:0:0:0:
384,192,17609,1,0,0:0:0:0:
336,48,17740,5,0,0:0:0:0:
176,48,17870,2,0,B|352:48,1,160
256,192,18261,1,0,0:0:0:0:
160,240,18522,6,0,B|112:256,1,40
352,240,18718,2,0,B|400:256,1,40
464,112,18914,1,0,0:0:0:0:
304,96,19109,2,0,B|256:96,2,40
224,96,19305,5,0,0:0:0:0:
192,144,19392,1,0,0:0:0:0:
160,192,19479,1,0,0:0:0:0:
128,240,19566,1,0,0:0:0:0:
96,288,19653,1,0,0:0:0:0:
64,336,19740,1,0,0:0:0:0:
64,336,19827,6,0,B|240:336,1,160
448,192,20218,2,0,B|256:192,1,160
64,48,20609,2,0,B|240:48,1,160
80,192,20870,5,0,0:0:0:0:
192,320,21001,1,0,0:0:0:0:
288,192,21131,1,0,0:0:0:0:
192,32,21261,2,0,B|192:80,3,40
192,320,21588,2,0,B|192:272,2,40
384,192,21848,1,0,0:0:0:0:
384,192,21914,1,0,0:0:0:0:
304,80,22044,5,0,0:0:0:0:
224,192,22174,1,0,0:0:0:0:
144,80,22305,1,0,0:0:0:0:
80,208,22435,1,0,0:0:0:0:
160,320,22566,1,0,0:0:0:0:
304,304,22696,1,0,0:0:0:0:
336,296,22761,1,0,0:0:0:0:
368,288,22827,1,0,0:0:0:0:
400,280,22892,1,0,0:0:0:0:
432,272,22957,1,0,0:0:0:0:
256,224,23088,6,0,B|256:32,2,160
208,304,23740,1,0,0:0:0:0:
176,296,23805,1,0,0:0:0:0:
144,288,23870,1,0,0:0:0:0:
112,280,23935,1,0,0:0:0:0:
80,272,24001,1,0,0:0:0:0:
432,112,24522,1,0,0:0:0:0:
80,272,25043,5,0,0:0:0:0:
48,192,25214,2,0,B|32:144,2,40
128,160,25557,1,0,0:0:0:0:
208,128,25728,2,0,B|272:128,1,40
288,64,25900,2,0,B|288:112,1,40
368,128,26071,2,0,B|320:128,2,40
352,320,26414,5,0,0:0:0:0:
288,272,26585,2,0,B|240:320,2,40
336,208,26928,2,0,B|400:128,1,80
392,144,27185,1,0,0:0:0:0:
400,136,27271,1,0,0:0:0:0:
408,128,27357,1,0,0:0:0:0:
416,120,27443,1,0,0:0:0:0:
416,112,27528,1,0,0:0:0:0:
424,104,27614,1,0,0:0:0:0:
288,56,27785,6,0,B|192:96,1,80
208,88,28035,1,0,0:0:0:0:
200,88,28118,1,0,0:0:0:0:
240,160,28285,1,0,0:0:0:0:
168,200,28451,5,0,0:0:0:0:
160,208,28535,1,0,0:0:0:0:
152,216,28618,1,0,0:0:0:0:
144,224,28701,1,0,0:0:0:0:
152,232,28785,1,0,0:0:0:0:
160,240,28868,1,0,0:0:0:0:
168,248,28951,1,0,0:0:0:0:
256,320,29118,5,0,0:0:0:0:
336,288,29285,2,0,B|384:272,2,40
320,208,29618,2,0,B|320:96|288:144,1,80
288,120,29868,1,0,0:0:0:0:
272,112,29951,1,0,0:0:0:0:
256,104,30034,1,0,0:0:0:0:
240,104,30118,1,0,0:0:0:0:
224,112,30201,1,0,0:0:0:0:
208,120,30284,1,0,0:0:0:0:
192,128,30368,1,0,0:0:0:0:
176,128,30452,1,0,0:0:0:0:
128,192,30614,6,0,B|96:224,2,40
176,272,30938,1,0,0:0:0:0:
272,272,31100,1,0,0:0:0:0:
272,272,31181,1,0,0:0:0:0:
368,240,31343,1,0,0:0:0:0:
368,240,31424,1,0,0:0:0:0:
384,144,31587,1,0,0:0:0:0:
384,144,31668,1,0,0:0:0:0:
368,96,31749,5,0,0:0:0:0:
288,160,31911,1,0,0:0:0:0:
288,160,31992,1,0,0:0:0:0:
288,160,32073,1,0,0:0:0:0:
192,112,32235,1,0,0:0:0:0:
96,80,32397,2,0,B|32:96,1,40
128,176,32641,2,0,B|96:224,1,40
208,240,32884,2,0,B|224:288,1,40
272,256,33047,5,0,0:0:0:0:
368,288,33204,1,0,0:0:0:0:
400,320,33283,1,0,0:0:0:0:
352,304,33362,1,0,0:0:0:0:
432,240,33520,1,0,0:0:0:0:
432,144,33678,2,0,B|384:96,1,40
368,128,33915,2,0,B|432:96,1,40
416,64,34152,2,0,B|400:112,1,40
352,80,34310,5,0,0:0:0:0:
272,144,34468,2,0,B|208:176,2,40
160,112,34783,1,0,0:0:0:0:
80,192,34941,1,0,0:0:0:0:
80,192,35020,1,0,0:0:0:0:
112,304,35178,1,0,0:0:0:0:
112,304,35257,1,0,0:0:0:0:
80,192,35415,1,0,0:0:0:0:
80,192,35494,1,0,0:0:0:0:
128,208,35573,5,0,0:0:0:0:
224,272,35726,2,0,B|240:320,2,40
304,192,36034,2,0,B|416:160,1,80
380,170,36265,1,0,0:0:0:0:
304,96,36419,2,0,B|256:80,1,40
192,160,36649,2,0,B|256:144,1,40
176,128,36804,5,0,0:0:0:0:
176,240,36979,2,0,B|176:288,2,40
272,288,37254,2,0,B|384:288,1,80
352,288,37479,1,0,0:0:0:0:
320,176,37629,2,0,B|368:160,1,40
416,64,37854,2,0,B|352:32,2,40
304,80,38150,6,0,B|256:96,2,40
224,160,38443,2,0,B|256:224,3,40
176,112,38808,2,0,B|112:96,1,40
64,176,39028,2,0,B|64:224,2,40
160,240,39316,6,0,B|192:288,2,40
256,304,39602,1,0,0:0:0:0:
256,304,39674,2,0,B|352:272,1,80
368,256,39888,2,0,B|416:224,1,40
384,192,40031,2,0,B|336:144,1,40
368,128,40174,2,0,B|416:96,1,40
432,80,40317,5,0,0:0:0:0:
288,80,40455,2,0,B|224:80,2,40
144,80,40733,1,0,0:0:0:0:
48,192,40872,5,0,0:0:0:0:
192,192,41011,2,0,B|256:192,2,40
336,192,41289,1,0,0:0:0:0:
432,304,41428,5,0,0:0:0:0:
288,304,41560,2,0,B|224:304,2,40
144,304,41826,1,0,0:0:0:0:
240,192,41958,5,0,0:0:0:0:
96,192,42087,2,0,B|160:192,2,40
384,192,42347,1,0,0:0:0:0:
448,48,42477,6,0,B|400:48,1,40
384,64,42604,1,0,0:0:0:0:
352,64,42667,1,0,0:0:0:0:
320,64,42731,6,0,B|272:64,1,40
256,80,42858,1,0,0:0:0:0:
224,80,42921,1,0,0:0:0:0:
192,80,42985,6,0,B|192:128,1,40
176,144,43110,1,0,0:0:0:0:
176,176,43172,1,0,0:0:0:0:
176,208,43235,6,0,B|176:256,1,40
192,272,43360,1,0,0:0:0:0:
224,272,43422,1,0,0:0:0:0:
256,272,43485,6,0,B|320:272,1,40
368,240,43607,2,0,B|320:240,1,40
240,304,43729,2,0,B|304:304,1,40
384,208,43852,2,0,B|336:208,1,40
192,320,43975,6,0,B|256:320,1,40
416,192,44095,2,0,B|368:192,1,40
144,336,44215,2,0,B|192:336,1,40
464,176,44335,2,0,B|400:176,1,40
96,336,44455,6,0,B|48:336,3,40
112,256,44690,2,0,B|176:256,3,40
128,176,44926,2,0,B|64:176,3,40
144,96,45156,2,0,B|192:96,3,40
160,16,45387,2,0,B|208:16,1,40
224,64,45500,2,0,B|288:64,1,40
288,112,45613,2,0,B|336:112,1,40
352,160,45726,2,0,B|400:160,1,40
336,208,45840,6,0,B|288:208,1,40
272,256,45951,2,0,B|224:256,1,40
208,304,46062,2,0,B|160:304,1,40
144,352,46173,2,0,B|80:352,1,40
48,352,46284,6,0,B|32:272|48:160,2,160
192,208,46950,1,0,0:0:0:0:
128,144,47061,1,0,0:0:0:0:
160,64,47172,2,0,B|240:32,1,80
256,112,47395,2,0,B|336:96,1,80
336,176,47617,2,0,B|448:176,1,80
400,256,47839,2,0,B|480:288,1,80
432,352,48061,1,0,0:0:0:0:
224,336,48284,5,0,0:0:0:0:
224,240,48395,1,0,0:0:0:0:
176,160,48506,2,0,B|208:80|288:32,1,160
384,32,48839,1,0,0:0:0:0:
464,96,48950,6,0,B|432:160,1,40
416,112,49061,2,0,B|384:176,1,40
368,128,49172,2,0,B|336:192,1,40
320,144,49284,2,0,B|288:192,1,40
272,160,49395,2,0,B|192:128|80:128,2,160
80,288,50061,5,0,0:0:0:0:
144,248,50172,1,0,0:0:0:0:
224,256,50284,1,0,0:0:0:0:
280,312,50395,1,0,0:0:0:0:
360,336,50506,1,0,0:0:0:0:
432,304,50617,1,0,0:0:0:0:
464,224,50728,2,0,B|432:144,1,80
352,144,50950,2,0,B|384:224,1,80
296,208,51172,2,0,B|264:128,1,80
176,120,51395,2,0,B|208:200,1,80
96,104,51617,6,0,B|72:40,2,40
160,264,51839,2,0,B|120:168,1,80
208,352,52061,6,0,B|256:304,1,40
272,320,52172,2,0,B|336:304,1,40
336,288,52283,2,0,B|384:240,1,40
400,256,52395,2,0,B|464:240,1,40
464,224,52506,1,0,0:0:0:0:
256,192,56061,12,0,58728,0:0:0:0:
208,96,59028,6,0,B|160:96,1,40
128,96,59328,1,0,0:0:0:0:
64,160,59528,1,0,0:0:0:0:
192,208,59728,1,0,0:0:0:0:
64,256,59928,1,0,0:0:0:0:
192,304,60128,1,0,0:0:0:0:
320,256,60328,1,0,0:0:0:0:
320,160,60528,5,0,0:0:0:0:
320,144,60628,2,0,B|320:96,1,40
320,80,60928,1,0,0:0:0:0:
96,48,61128,1,0,0:0:0:0:
240,112,61328,1,0,0:0:0:0:
128,144,61528,1,0,0:0:0:0:
208,192,61728,1,0,0:0:0:0:
160,256,61928,6,0,B|96:288,2,60
240,304,62728,1,0,0:0:0:0:
304,160,62928,1,0,0:0:0:0:
368,304,63128,1,0,0:0:0:0:
432,160,63328,1,0,0:0:0:0:
368,48,63528,5,0,0:0:0:0:
240,96,63728,1,0,0:0:0:0:
232,88,63828,1,0,0:0:0:0:
112,112,64028,1,0,0:0:0:0:
104,120,64128,1,0,0:0:0:0:
64,256,64328,5,0,0:0:0:0:
144,256,64528,2,0,B|48:256,1,80
144,256,64928,2,0,B|240:256,1,80
384,112,65409,5,0,0:0:0:0:
256,112,65690,1,0,0:0:0:0:
160,112,65878,1,0,0:0:0:0:
128,128,66059,1,0,0:0:0:0:
96,112,66241,1,0,0:0:0:0:
64,128,66423,1,0,0:0:0:0:
48,160,66605,6,0,B|32:208|32:224,2,60
112,288,67311,1,0,0:0:0:0:
224,240,67482,1,0,0:0:0:0:
288,352,67653,1,0,0:0:0:0:
400,304,67825,1,0,0:0:0:0:
352,192,67996,6,0,B|352:112,2,60
352,64,68663,2,0,B|320:96,1,40
296,64,68987,2,0,B|328:96,1,40
240,144,69312,6,0,B|208:152|176:152,2,60
128,96,69943,1,0,0:0:0:0:
64,176,70096,1,0,0:0:0:0:
128,256,70250,1,0,0:0:0:0:
64,336,70404,1,0,0:0:0:0:
224,288,70558,5,0,0:0:0:0:
224,288,70773,1,0,0:0:0:0:
224,288,70987,1,0,0:0:0:0:
320,256,71130,2,0,B|368:224,1,40
432,224,71402,2,0,B|480:192,1,40
448,64,71675,5,0,0:0:0:0:
320,144,71871,1,0,0:0:0:0:
176,128,72067,1,0,0:0:0:0:
64,96,72197,5,0,0:0:0:0:
112,208,72322,1,0,0:0:0:0:
64,96,72447,1,0,0:0:0:0:
192,32,72572,1,0,0:0:0:0:
352,64,72697,5,0,0:0:0:0:
320,80,72877,1,0,0:0:0:0:
288,96,73057,1,0,0:0:0:0:
272,144,73177,2,0,B|304:192,1,40
208,288,73407,2,0,B|256:256,1,40
64,192,73638,5,0,0:0:0:0:
128,144,73805,1,0,0:0:0:0:
192,192,73972,1,0,0:0:0:0:
128,240,74083,2,0,B|176:240,1,40
384,240,74297,2,0,B|336:240,1,40
256,64,74511,5,0,0:0:0:0:
256,64,74667,1,0,0:0:0:0:
256,64,74822,1,0,0:0:0:0:
352,64,74925,1,0,0:0:0:0:
176,320,75126,1,0,0:0:0:0:
464,176,75326,6,0,B|464:240,2,60
400,144,75713,5,0,0:0:0:0:
368,192,75806,1,0,0:0:0:0:
320,160,75900,1,0,0:0:0:0:
288,208,75994,1,0,0:0:0:0:
240,176,76088,6,0,B|192:176|176:208,2,60
160,240,76451,2,0,B|112:240|96:192,1,80
128,96,76803,6,0,B|192:80,2,60
272,112,77147,6,0,B|448:64,1,160
384,192,77480,6,0,B|352:256,2,60
320,304,77805,1,0,0:0:0:0:
256,240,77881,1,0,0:0:0:0:
192,304,77958,1,0,0:0:0:0:
128,240,78035,1,0,0:0:0:0:
192,160,78112,6,0,B|144:128,1,40
240,128,78254,2,0,B|208:80,1,40
296,120,78398,2,0,B|296:72,1,40
352,128,78534,2,0,B|384:96,1,40
400,160,78670,2,0,B|464:144,1,40
432,208,78801,2,0,B|480:224,1,40
416,256,78931,2,0,B|464:304,1,40
384,304,79062,2,0,B|400:368,1,40
336,336,79193,5,0,0:0:0:0:
256,320,79313,1,0,0:0:0:0:
288,240,79433,1,0,0:0:0:0:
208,224,79548,1,0,0:0:0:0:
240,144,79663,1,0,0:0:0:0:
160,128,79774,1,0,0:0:0:0:
192,48,79886,1,0,0:0:0:0:
112,32,79993,1,0,0:0:0:0:
48,96,80100,5,0,0:0:0:0:
61,176,80203,1,0,0:0:0:0:
101,246,80307,1,0,0:0:0:0:
165,292,80407,1,0,0:0:0:0:
246,307,80507,1,0,0:0:0:0:
325,290,80603,1,0,0:0:0:0:
394,251,80700,1,0,0:0:0:0:
419,172,80797,1,0,0:0:0:0:
387,99,80894,1,0,0:0:0:0:
322,47,80987,1,0,0:0:0:0:
243,35,81081,1,0,0:0:0:0:
172,77,81175,1,0,0:0:0:0:
248,178,81269,5,0,0:0:0:0:
464,32,85384,6,0,B|480:112|464:224,2,160
320,176,86004,1,0,0:0:0:0:
384,240,86108,1,0,0:0:0:0:
352,320,86211,2,0,B|272:352,1,80
256,272,86418,2,0,B|176:288,1,80
176,208,86625,2,0,B|64:208,1,80
112,128,86832,2,0,B|32:96,1,80
80,32,87039,1,0,0:0:0:0:
288,48,87246,5,0,0:0:0:0:
288,144,87349,1,0,0:0:0:0:
336,224,87452,2,0,B|304:304|224:352,1,160
128,352,87763,1,0,0:0:0:0:
48,288,87866,6,0,B|80:224,1,40
96,272,87970,2,0,B|128:208,1,40
144,256,88073,2,0,B|176:192,1,40
192,240,88177,2,0,B|224:192,1,40
240,224,88280,2,0,B|320:256|432:256,2,160
432,96,88901,5,0,0:0:0:0:
368,136,89004,1,0,0:0:0:0:
288,128,89108,1,0,0:0:0:0:
232,72,89211,1,0,0:0:0:0:
152,48,89315,1,0,0:0:0:0:
80,80,89418,1,0,0:0:0:0:
48,160,89521,2,0,B|80:240,1,80
160,240,89728,2,0,B|128:160,1,80
216,176,89935,2,0,B|248:256,1,80
336,264,90142,2,0,B|304:184,1,80
416,280,90349,6,0,B|440:344,2,40
352,120,90556,2,0,B|392:216,1,80
272,104,90763,6,0,B|248:40,2,40
336,264,90970,2,0,B|296:168,1,80
192,80,91177,6,0,B|208:128,1,40
168,112,91280,2,0,B|184:160,1,40
144,144,91384,2,0,B|160:192,1,40
120,176,91487,2,0,B|136:224,1,40
152,264,91590,5,0,0:0:0:0:
320,96,91694,1,0,0:0:0:0:
240,304,91797,1,0,0:0:0:0:
400,128,91901,1,0,0:0:0:0:
256,208,92004,5,0,0:0:0:0:
96,144,92211,1,0,0:0:0:0:
256,160,92418,1,0,0:0:0:0:
336,304,92625,1,0,0:0:0:0:
416,272,92728,1,0,0:0:0:0:
432,192,92832,1,0,0:0:0:0:
336,64,93039,2,0,B|288:48,1,40
272,80,93142,2,0,B|224:112,1,40
208,96,93246,2,0,B|160:80,1,40
144,112,93349,2,0,B|96:144,1,40
80,128,93452,1,0,0:0:0:0:
160,272,93659,5,0,0:0:0:0:
240,336,93763,1,0,0:0:0:0:
288,240,93866,1,0,0:0:0:0:
352,368,93970,1,0,0:0:0:0:
416,192,94073,1,0,0:0:0:0:
480,304,94177,2,0,B|352:288|336:160,1,160
336,144,94487,1,0,0:0:0:0:
64,240,94694,5,0,0:0:0:0:
448,80,94901,1,0,0:0:0:0:
96,336,95108,1,0,0:0:0:0:
368,32,95315,1,0,0:0:0:0:
272,80,95452,5,0,0:0:0:0:
256,112,95521,1,0,0:0:0:0:
144,128,95659,1,0,0:0:0:0:
112,144,95728,1,0,0:0:0:0:
176,256,95866,1,0,0:0:0:0:
192,224,95935,1,0,0:0:0:0:
304,224,96073,1,0,0:0:0:0:
320,256,96142,1,0,0:0:0:0:
416,144,96280,5,0,0:0:0:0:
448,160,96349,1,0,0:0:0:0:
432,320,96487,1,0,0:0:0:0:
400,336,96556,1,0,0:0:0:0:
272,352,96694,1,0,0:0:0:0:
256,320,96763,1,0,0:0:0:0:
144,336,96901,1,0,0:0:0:0:
112,320,96970,6,0,B|80:272,1,40
128,272,97073,2,0,B|176:240,1,40
144,224,97177,2,0,B|112:176,1,40,0|0,0:0|0:0,0:0:0:0:
160,176,97280,2,0,B|192:128,1,40
208,112,97384,6,0,B|240:64,1,40
272,96,97487,2,0,B|320:128,1,40
336,80,97590,2,0,B|368:32,1,40
400,64,97694,2,0,B|448:96,1,40
464,112,97797,6,0,B|496:160,1,40
448,160,97901,2,0,B|400:192,1,40
432,208,98004,2,0,B|464:256,1,40
416,256,98108,2,0,B|368:288,1,40
336,304,98211,6,0,B|304:272,1,40
288,192,98315,2,0,B|256:224,1,40
192,272,98418,2,0,B|160:240,1,40
112,176,98521,2,0,B|80:208,1,40
64,48,99039,5,0,0:0:0:0:
256,336,99452,1,0,0:0:0:0:
448,48,99866,1,0,0:0:0:0:
256,192,100487,5,4,0:0:0:0:
256,192,100539,12,0,105513,0:0:0:0:
