osu file format v14

[General]
AudioFilename: audio.mp3
AudioLeadIn: 0
PreviewTime: 52512
Countdown: 0
SampleSet: Normal
StackLeniency: 1
Mode: 1
LetterboxInBreaks: 0
WidescreenStoryboard: 0

[Editor]
Bookmarks: 8362,16709,25057,30465,35585,38015,40327,41430,42484,43494,44463,45394,46290,58733,65133,66610,68000,69314,70560,71676,72697,73638,74510,75323,76085,76800,77475,78106,78677,79198,79677,80117,80526,80908,81267,85404
DistanceSpacing: 0.8
BeatDivisor: 4
GridSize: 32
TimelineZoom: 3.299999

[Metadata]
Title:V^3 (Hello World)
TitleUnicode:V³ (Hello World)
Artist:ZiGZaG HACKER
ArtistUnicode:ZiGZaG HACKER
Creator:Vulkin
Version:null
Source:
Tags:stepmania vertex remix in the groove itg electronic instrumental video game breakcore speedcore Crysally [Zeth] Yuzeyun
BeatmapID:1939191
BeatmapSetID:928411

[Difficulty]
HPDrainRate:7
CircleSize:7
OverallDifficulty:7
ApproachRate:10
SliderMultiplier:1.4
SliderTickRate:1

[Events]
//Background and Video events
0,0,"bg.jpg",0,0
//Break Periods
//Storyboard Layer 0 (Background)
//Storyboard Layer 1 (Fail)
//Storyboard Layer 2 (Pass)
//Storyboard Layer 3 (Foreground)
//Storyboard Layer 4 (Overlay)
//Storyboard Sound Samples

[TimingPoints]
15,521.739130434783,4,1,0,80,1,0
3667,-80,4,1,0,80,0,0
3797,-74.0740740740741,4,1,0,80,0,0
3928,-71.4285714285714,4,1,0,80,0,0
4058,-68.9655172413793,4,1,0,80,0,0
4123,-68.9655172413793,4,1,0,80,0,0
4188,-66.6666666666667,4,1,0,60,0,0
6080,-67.5105485232068,4,1,0,60,0,0
6145,-68.3760683760684,4,1,0,60,0,0
6210,-69.2640692640693,4,1,0,60,0,0
6275,-70.1754385964912,4,1,0,60,0,0
6341,-71.1111111111111,4,1,0,60,0,0
6406,-72.0720720720721,4,1,0,60,0,0
6471,-73.0593607305936,4,1,0,60,0,0
6536,-74.0740740740741,4,1,0,60,0,0
6601,-75.1173708920188,4,1,0,60,0,0
6667,-76.1904761904762,4,1,0,60,0,0
6732,-77.2946859903382,4,1,0,60,0,0
6797,-78.4313725490196,4,1,0,60,0,0
6884,-80,4,1,0,60,0,0
6971,-81.6326530612245,4,1,0,60,0,0
7058,-83.3333333333333,4,1,0,60,0,0
7145,-85.1063829787234,4,1,0,60,0,0
7232,-86.9565217391304,4,1,0,60,0,0
7319,-88.8888888888889,4,1,0,60,0,0
7406,-90.9090909090909,4,1,0,60,0,0
7493,-93.0232558139535,4,1,0,60,0,0
7580,-95.2380952380952,4,1,0,60,0,0
7667,-97.5609756097561,4,1,0,60,0,0
7754,-100,4,1,0,60,0,0
7797,-12.5,4,1,0,20,0,0
8297,-12.5,4,1,0,100,0,0
8362,260.869565217391,4,1,0,100,1,0
15666,-102.040816326531,4,1,0,100,0,0
15796,-104.166666666667,4,1,0,100,0,0
15927,-106.382978723404,4,1,0,100,0,0
16057,-108.695652173913,4,1,0,100,0,0
16188,-111.111111111111,4,1,0,100,0,0
16448,-86.9565217391304,4,1,0,100,0,0
16709,-100,4,1,0,100,0,0
19122,-100,4,1,0,100,0,0
19188,-100.910515582097,4,1,0,100,0,0
19253,-101.837660585261,4,1,0,100,0,0
19318,-102.782106046466,4,1,0,100,0,0
19405,-104.068885276542,4,1,0,100,0,0
19492,-105.388292625349,4,1,0,100,0,0
19579,-106.741585027144,4,1,0,100,0,0
19666,-108.130084817239,4,1,0,100,0,0
19753,-109.555184041754,4,1,0,100,0,0
19840,-90.9090909090909,4,1,0,100,0,0
19970,-100,4,1,0,100,0,0
20231,-93.4579439252336,4,1,0,100,0,0
20361,-100,4,1,0,100,0,0
20622,-96.1538461538461,4,1,0,100,0,0
20753,-100,4,1,0,100,0,0
24275,-111.111111111111,4,1,0,100,0,0
24535,-125,4,1,0,100,0,0
25025,-100,4,1,0,90,0,0
25057,342.857142857143,4,1,0,90,1,0
27714,-98.5921047442521,4,1,0,90,0,0
27799,333.333333333333,4,1,0,90,1,0
30090,-99.502487562189,4,1,0,90,0,0
30215,-98.9021857383048,4,1,0,90,0,0
30298,-98.360333244809,4,1,0,90,0,0
30382,-97.8262996223905,4,1,0,90,0,0
30424,-100,4,1,0,90,0,0
30465,324.324324324324,4,1,0,90,1,0
32978,-98.6679822397632,4,1,0,90,0,0
33059,315.789473684211,4,1,0,90,1,0
35269,-99.4727941907888,4,1,0,90,0,0
35348,-98.9579725490584,4,1,0,90,0,0
35427,-98.4465140089389,4,1,0,90,0,0
35506,-97.9383967484452,4,1,0,90,0,0
35585,307.692307692308,4,1,0,90,1,0
36508,-99.4925878022087,4,1,0,90,0,0
36585,-98.9853996535511,4,1,0,90,0,0
36661,-98.4849081726716,4,1,0,90,0,0
36740,-97.9902205759865,4,1,0,90,0,0
36815,300,4,1,0,90,1,0
37940,-98.7654320987654,4,1,0,90,0,0
38015,292.682926829268,4,1,0,90,1,0
38893,-99.5153601958462,4,1,0,90,0,0
38966,-99.0344144590245,4,1,0,90,0,0
39039,-98.5580950691385,4,1,0,90,0,0
39112,-98.0861431743815,4,1,0,90,0,0
39185,285.714285714286,4,1,0,90,1,0
40042,-99.5262550260759,4,1,0,90,0,0
40113,-99.0569775735003,4,1,0,90,0,0
40185,-98.5916187264921,4,1,0,90,0,0
40256,-98.1315748155126,4,1,0,90,0,0
40327,279.06976744186,4,1,0,90,1,0
40745,-98.8506633373763,4,1,0,90,0,0
40885,272.727272727273,4,1,0,90,1,8
41294,-98.876466708788,4,1,0,90,0,0
41430,266.666666666667,4,1,0,90,1,0
41830,-98.9010999879242,4,1,0,90,0,0
41963,260.869565217391,4,1,0,90,1,8
42354,-98.9247864955795,4,1,0,90,0,0
42452,-100,4,1,0,90,0,0
42484,255.31914893617,4,1,0,90,1,0
42866,-98.7395891445696,4,1,0,90,0,0
42930,-98.3264832549999,4,1,0,90,0,0
42994,250,4,1,0,90,1,8
43244,-99.5850291833928,4,1,0,90,0,0
43306,-99.173586503665,4,1,0,90,0,0
43369,-98.7654320987654,4,1,0,90,0,0
43431,-98.3606234883202,4,1,0,90,0,0
43494,244.897959183673,4,1,0,90,1,0
43861,-98.7904102172994,4,1,0,90,0,0
43922,-98.3936256673548,4,1,0,90,0,0
43983,240,4,1,0,90,1,8
44223,-99.601593625498,4,1,0,90,0,0
44283,-99.2063492063492,4,1,0,90,0,0
44343,-98.8142292490118,4,1,0,90,0,0
44403,-98.4251968503937,4,1,0,90,0,0
44463,235.294117647059,4,1,0,90,1,0
44815,-98.8372782585662,4,1,0,90,0,0
44874,-98.4556250652268,4,1,0,90,0,0
44933,230.769230769231,4,1,0,90,1,8
45163,-99.6168735045017,4,1,0,90,0,0
45221,-99.2366715226478,4,1,0,90,0,0
45279,-98.8593606962862,4,1,0,90,0,0
45336,-98.4849081726716,4,1,0,90,0,0
45394,226.415094339623,4,1,0,90,1,0
45733,-98.8806708064707,4,1,0,90,0,0
45790,-98.5130441121709,4,1,0,90,0,0
45846,222.222222222222,4,1,0,90,1,8
46262,-100,4,1,0,100,0,0
46290,222.222222222222,4,1,0,100,1,1
47567,-102.040816326531,4,1,0,100,0,1
47678,-104.166666666667,4,1,0,100,0,1
47845,-107.52688172043,4,1,0,100,0,1
47956,-100,4,1,0,100,0,1
52067,-98.0392156862745,4,1,0,100,0,1
52123,-97.0873786407767,4,1,0,100,0,1
52178,-96.1538461538461,4,1,0,100,0,1
52234,-95.2380952380952,4,1,0,100,0,1
52289,-94.3396226415094,4,1,0,100,0,1
52345,-93.4579439252336,4,1,0,100,0,1
52401,-92.5925925925926,4,1,0,100,0,1
52456,-91.743119266055,4,1,0,100,0,1
52511,222.222222222222,4,1,0,100,1,0
52511,-90.9090909090909,4,1,0,100,0,0
52677,-111.111111111111,4,1,0,100,0,0
56733,-111.111111111111,4,1,0,100,0,0
56844,-112.676056338028,4,1,0,100,0,0
56899,-113.475177304965,4,1,0,100,0,0
56955,-114.285714285714,4,1,0,100,0,0
57029,-115.384571005934,4,1,0,100,0,0
57103,-116.504899613553,4,1,0,100,0,0
57177,-117.647058823529,4,1,0,100,0,0
57251,-118.811834133927,4,1,0,100,0,0
57399,-121.212121212121,4,1,0,100,0,0
57510,-123.076923076923,4,1,0,100,0,0
57566,-124.031007751938,4,1,0,100,0,0
57622,-125,4,1,0,100,0,0
57696,-126.315736288111,4,1,0,100,0,0
57770,-127.659628791331,4,1,0,100,0,0
57844,-129.032258064516,4,1,0,100,0,0
57955,-131.147540983607,4,1,0,100,0,0
58066,-133.333333333333,4,1,0,100,0,0
58733,400,4,1,0,100,1,0
64333,-98.6845351464972,4,1,0,100,0,0
64533,-97.4032298911032,4,1,0,100,0,0
64733,-96.1547707189492,4,1,0,100,0,0
64933,-95.037159529376,4,1,0,100,0,0
65133,375,4,1,0,100,1,0
65320,-99.2248554293856,4,1,0,100,0,0
65414,-98.8494907768483,4,1,0,100,0,0
65508,-98.4769554076651,4,1,0,100,0,0
65601,-98.107313704022,4,1,0,100,0,0
65695,-97.7403410551461,4,1,0,100,0,0
65883,363.636363636364,4,1,0,100,1,8
66064,-99.2481949234548,4,1,0,100,0,8
66246,-98.5225557539143,4,1,0,100,0,8
66428,-97.8073547218457,4,1,0,100,0,8
66610,352.941176470588,4,1,0,100,1,0
66786,-99.2701657414687,4,1,0,100,0,0
66874,-98.9165668433646,4,1,0,100,0,0
66962,-98.5653808812731,4,1,0,100,0,0
67051,-98.2167762111111,4,1,0,100,0,0
67139,-97.8705329442001,4,1,0,100,0,0
67315,342.857142857143,4,1,0,100,1,8
67400,-99.6441706665498,4,1,0,100,0,8
67486,-99.2965830059856,4,1,0,100,0,8
67572,-98.9514118882205,4,1,0,100,0,8
67657,-98.6086321996628,4,1,0,100,0,8
67829,-97.9302442869944,4,1,0,100,0,8
68000,333.333333333333,4,1,0,100,1,0
68166,-99.3103886611371,4,1,0,100,0,0
68250,-98.9760923248989,4,1,0,100,0,0
68333,-98.6439417329965,4,1,0,100,0,0
68416,-98.3141096477602,4,1,0,100,0,0
68500,-97.9863798931948,4,1,0,100,0,0
68666,324.324324324324,4,1,0,100,1,8
68828,-99.3289337237623,4,1,0,100,0,8
68990,-98.6667166578031,4,1,0,100,0,8
69152,-98.013270996893,4,1,0,100,0,8
69314,315.789473684211,4,1,0,100,1,0
69471,-99.3464987313452,4,1,0,100,0,0
69550,-99.0295107942167,4,1,0,100,0,0
69629,-98.7144418241244,4,1,0,100,0,0
69708,-98.4014681499048,4,1,0,100,0,0
69787,-98.0904727666516,4,1,0,100,0,0
69945,307.692307692308,4,1,0,100,1,8
70098,-98.1132815949295,4,1,0,100,0,0
70252,-96.2963462277351,4,1,0,100,0,0
70406,-94.5454820495948,4,1,0,100,0,0
70560,285.714285714286,4,1,0,100,1,0
70702,-98.823506159175,4,1,0,100,0,0
70774,-98.2573083785972,4,1,0,100,0,0
70845,-97.6976570147895,4,1,0,100,0,0
70917,-97.1442504689639,4,1,0,100,0,0
70988,-96.5970781315807,4,1,0,100,0,0
71131,272.727272727273,4,1,0,100,1,8
71267,-98.8764080494888,4,1,0,100,0,0
71403,-97.7778038518588,4,1,0,100,0,0
71540,-96.7032975534356,4,1,0,100,0,0
71676,260.869565217391,4,1,0,100,1,0
71806,-98.9246886345425,4,1,0,100,0,0
71871,-98.4065034890026,4,1,0,100,0,0
71936,-97.8936229157224,4,1,0,100,0,0
72002,-97.3860607435815,4,1,0,100,0,0
72067,-96.8837346742042,4,1,0,100,0,0
72197,250,4,1,0,100,1,8
72259,-99.4818982737901,4,1,0,100,0,8
72322,-98.9774638212625,4,1,0,100,0,8
72384,-98.4781191467068,4,1,0,100,0,8
72447,-97.9837876025033,4,1,0,100,0,8
72572,-97.009864933165,4,1,0,100,0,8
72697,240,4,1,0,100,1,0
72817,-99.009900990099,4,1,0,100,0,0
72877,-98.5221674876847,4,1,0,100,0,0
72937,-98.0392156862745,4,1,0,100,0,0
72997,-97.5609756097561,4,1,0,100,0,0
73057,-97.0873786407767,4,1,0,100,0,0
73177,230.769230769231,4,1,0,100,1,8
73292,-99.0476567800597,4,1,0,100,0,8
73407,-98.1320563081739,4,1,0,100,0,8
73523,-97.2333230266011,4,1,0,100,0,8
73638,222.222222222222,4,1,0,100,1,0
73749,-99.082594259749,4,1,0,100,0,0
73804,-98.6301261775204,4,1,0,100,0,0
73860,-98.1818681653147,4,1,0,100,0,0
73915,-97.7375707131324,4,1,0,100,0,0
73971,-97.2972762600484,4,1,0,100,0,0
74082,214.285714285714,4,1,0,100,1,8
74189,-99.1150512647824,4,1,0,100,0,0
74296,-98.2456278239478,4,1,0,100,0,0
74403,-97.3913057028356,4,1,0,100,0,0
74510,206.896551724138,4,1,0,100,1,0
74923,200,4,1,0,100,1,8
74923,-103.447919145106,4,1,0,100,0,0
75323,193.548387096774,4,1,0,100,1,0
75323,-106.896651248606,4,1,0,100,0,0
75710,187.5,4,1,0,100,1,8
75710,-110.344827586207,4,1,0,100,0,0
76085,181.818181818182,4,1,0,100,1,0
76085,-113.793217241493,4,1,0,100,0,0
76448,176.470588235294,4,1,0,100,1,8
76448,-117.241403567187,4,1,0,100,0,0
76800,171.428571428571,4,1,0,100,1,0
76800,-120.68971759813,4,1,0,100,0,0
77142,166.666666666667,4,1,0,100,1,8
77142,-124.138016646908,4,1,0,100,0,0
77475,162.162162162162,4,1,0,100,1,0
77475,-127.586334482886,4,1,0,100,0,0
77799,153.846153846154,4,1,0,100,1,8
77799,-134.482893103583,4,1,0,100,0,0
78106,146.341463414634,4,1,0,100,1,0
78106,-141.379324970275,4,1,0,100,0,0
78398,139.53488372093,4,1,0,100,1,8
78398,-148.275995006064,4,1,0,100,0,0
78677,133.333333333333,4,1,0,100,1,0
78677,-155.17242449465,4,1,0,100,0,0
78943,127.659574468085,4,1,0,100,1,8
78943,-162.069038168879,4,1,0,100,0,0
79198,122.448979591837,4,1,0,100,1,0
79198,-168.965726991937,4,1,0,100,0,0
79442,117.647058823529,4,1,0,100,1,8
79442,-175.862208442441,4,1,0,100,0,0
79677,113.207547169811,4,1,0,100,1,0
79677,-182.758621130797,4,1,0,100,0,0
79790,111.111111111111,4,1,0,100,1,8
79790,-186.20690939358,4,1,0,100,0,0
79901,109.090909090909,4,1,0,100,1,8
79901,-189.655434007495,4,1,0,100,0,0
80010,107.142857142857,4,1,0,100,1,8
80010,-193.10344934126,4,1,0,100,0,0
80117,105.263157894737,4,1,0,100,1,0
80117,-196.551735659929,4,1,0,100,0,0
80222,103.448275862069,4,1,0,100,1,8
80222,-200,4,1,0,100,0,0
80325,101.694915254237,4,1,0,100,1,8
80325,-203.44828568371,4,1,0,100,0,0
80426,100,4,1,0,100,1,8
80426,-206.896694411513,4,1,0,100,0,0
80526,98.3606557377049,4,1,0,100,1,0
80526,-210.344843543402,4,1,0,100,0,0
80624,96.7741935483871,4,1,0,100,1,8
80624,-213.793119667064,4,1,0,100,0,0
80720,95.2380952380952,4,1,0,100,1,8
80720,-217.241379460166,4,1,0,100,0,0
80815,93.75,4,1,0,100,1,8
80815,-220.689655172414,4,1,0,100,0,0
80908,92.3076923076923,4,1,0,100,1,0
80908,-224.13793412604,4,1,0,100,0,0
81000,90.9090909090909,4,1,0,100,1,8
81000,-227.586227300834,4,1,0,100,0,0
81090,89.5522388059701,4,1,0,100,1,8
81090,-231.034483236623,4,1,0,100,0,0
81179,88.2352941176471,4,1,0,100,1,8
81179,-234.482763148633,4,1,0,100,0,0
81267,206.896551724138,4,1,0,100,1,0
81267,-83.3333333333333,4,1,0,100,0,0
81318,-200,4,1,0,60,0,0
82094,-90.9090909090909,4,1,0,60,0,0
82922,-100,4,1,0,60,0,0
83542,-108.108108108108,4,1,0,60,0,0
83594,-108.840457304065,4,1,0,60,0,0
83646,-109.582796377631,4,1,0,60,0,0
83698,-110.335331138396,4,1,0,60,0,0
83749,-111.098273088443,4,1,0,60,0,0
83801,-111.871839620531,4,1,0,60,0,0
83853,-112.65625422461,4,1,0,60,0,0
83904,-113.451746703092,4,1,0,60,0,0
83956,-114.258683945627,4,1,0,60,0,0
84025,-115.352361089803,4,1,0,60,0,0
84094,-116.467313448481,4,1,0,60,0,0
84163,-117.60402958447,4,1,0,60,0,0
84232,-118.763153019197,4,1,0,60,0,0
84301,-119.945209028516,4,1,0,60,0,0
84370,-121.151178498089,4,1,0,60,0,0
84439,-122.3816447114,4,1,0,60,0,0
84508,-123.637361727066,4,1,0,60,0,0
84542,-200,4,1,0,20,0,0
84577,-12.5,4,1,0,20,0,0
85353,-12.5,4,1,0,100,0,0
85404,-100,4,1,0,100,0,1
91611,-96.1538461538461,4,1,0,100,0,0
91715,-97.0873786407767,4,1,0,100,0,0
91818,-98.0392156862745,4,1,0,100,0,0
91922,-99.009900990099,4,1,0,100,0,0
92025,-100,4,1,0,100,0,1
93473,-97.0873786407767,4,1,0,100,0,1
93680,-100,4,1,0,100,0,1
94715,-94.3396226415094,4,1,0,100,0,1
94922,-96.1538461538461,4,1,0,100,0,1
95129,-98.0392156862745,4,1,0,100,0,1
95335,-100,4,1,0,100,0,1
96991,-100,4,1,0,100,0,1
97060,-99.173586503665,4,1,0,100,0,1
97129,-98.3606234883202,4,1,0,100,0,1
97198,-97.5609756097561,4,1,0,100,0,1
97267,-96.774224765879,4,1,0,100,0,1
97335,-95.9999692800098,4,1,0,100,0,1
97404,-95.2380952380952,4,1,0,100,0,1
97473,-94.4882187364469,4,1,0,100,0,1
97542,-93.7499707031342,4,1,0,100,0,1
97611,-93.0232558139535,4,1,0,100,0,1
97680,-92.3077207100679,4,1,0,100,0,1
97749,-91.6030254647251,4,1,0,100,0,1
97818,-90.9090909090909,4,1,0,100,0,1
97887,-90.2255910452905,4,1,0,100,0,1
97956,-89.5522120739665,4,1,0,100,0,1
98025,-88.8888888888889,4,1,0,100,0,1
98094,-88.2353200692118,4,1,0,100,0,1
98163,-87.591215301835,4,1,0,100,0,1
98232,-86.9565217391304,4,1,0,100,0,1
98301,-86.3309600952403,4,1,0,100,0,1
98370,-85.7142612244968,4,1,0,100,0,1
98439,-85.1063829787234,4,1,0,100,0,1
98508,-84.5070660583285,4,1,0,100,0,1
98577,-83.91606044306,4,1,0,100,0,0
98646,206.896551724138,4,1,0,100,1,8
98646,-83.3333333333333,4,1,0,100,0,0
99059,206.896551724138,4,1,0,100,1,0
99059,-66.6666666666667,4,1,0,100,0,0
99472,-71.4285714285714,4,1,0,100,0,0
99886,-76.9230769230769,4,1,0,100,0,0
100507,-50,4,1,0,100,0,1
100559,-12.5,4,1,0,20,0,1
103196,-12.5,4,1,0,20,0,0

[HitObjects]
256,192,15,5,0,0:0:0:0:
256,192,797,5,0,0:0:0:0:
256,192,1058,5,0,0:0:0:0:
256,192,1971,5,0,0:0:0:0:
256,192,2015,5,0,0:0:0:0:
256,192,2058,5,0,0:0:0:0:
256,192,2101,5,0,0:0:0:0:
256,192,2493,5,0,0:0:0:0:
256,192,2754,5,0,0:0:0:0:
256,192,3145,5,0,0:0:0:0:
256,192,3667,5,0,0:0:0:0:
256,192,3797,5,0,0:0:0:0:
256,192,3928,5,0,0:0:0:0:
256,192,4058,5,0,0:0:0:0:
256,192,4188,5,8,0:0:0:0:
256,192,4254,5,8,0:0:0:0:
256,192,4319,5,0,0:0:0:0:
256,192,4384,5,8,0:0:0:0:
256,192,4449,5,0,0:0:0:0:
256,192,4580,5,8,0:0:0:0:
256,192,4645,5,0,0:0:0:0:
256,192,4775,5,8,0:0:0:0:
256,192,4841,5,0,0:0:0:0:
256,192,4906,5,8,0:0:0:0:
256,192,5036,5,8,0:0:0:0:
256,192,5101,5,0,0:0:0:0:
256,192,5167,5,0,0:0:0:0:
256,192,5232,5,8,0:0:0:0:
256,192,5265,5,8,0:0:0:0:
256,192,5362,5,0,0:0:0:0:
256,192,5395,5,0,0:0:0:0:
256,192,5493,5,8,0:0:0:0:
256,192,5536,5,8,0:0:0:0:
256,192,5580,5,0,0:0:0:0:
256,192,5623,5,0,0:0:0:0:
256,192,5754,5,8,0:0:0:0:
256,192,5819,5,8,0:0:0:0:
256,192,5884,5,0,0:0:0:0:
256,192,6015,5,8,0:0:0:0:
256,192,6080,5,8,0:0:0:0:
256,192,6145,5,8,0:0:0:0:
256,192,6210,5,8,0:0:0:0:
256,192,6275,5,8,0:0:0:0:
256,192,6341,5,8,0:0:0:0:
256,192,6406,5,8,0:0:0:0:
256,192,6471,5,8,0:0:0:0:
256,192,6536,5,8,0:0:0:0:
256,192,6601,5,8,0:0:0:0:
256,192,6667,5,8,0:0:0:0:
256,192,6732,5,8,0:0:0:0:
256,192,6797,5,8,0:0:0:0:
256,192,6884,5,8,0:0:0:0:
256,192,6971,5,8,0:0:0:0:
256,192,7058,5,8,0:0:0:0:
256,192,7145,5,8,0:0:0:0:
256,192,7232,5,8,0:0:0:0:
256,192,7319,5,8,0:0:0:0:
256,192,7406,5,8,0:0:0:0:
256,192,7493,5,8,0:0:0:0:
256,192,7580,5,8,0:0:0:0:
256,192,7667,5,8,0:0:0:0:
256,192,7754,5,8,0:0:0:0:
256,192,7841,12,0,8232,0:0:0:0:
256,192,8362,5,0,0:0:0:0:
256,192,8492,5,0,0:0:0:0:
256,192,8557,5,0,0:0:0:0:
256,192,8622,5,8,0:0:0:0:
256,192,8753,5,0,0:0:0:0:
256,192,8883,5,0,0:0:0:0:
256,192,8948,5,8,0:0:0:0:
256,192,9014,5,0,0:0:0:0:
256,192,9144,5,8,0:0:0:0:
256,192,9275,5,0,0:0:0:0:
256,192,9340,5,0,0:0:0:0:
256,192,9405,5,0,0:0:0:0:
256,192,9535,5,8,0:0:0:0:
256,192,9601,5,8,0:0:0:0:
256,192,9666,5,0,0:0:0:0:
256,192,9796,5,0,0:0:0:0:
256,192,9927,5,8,0:0:0:0:
256,192,9992,5,0,0:0:0:0:
256,192,10057,5,0,0:0:0:0:
256,192,10188,5,8,0:0:0:0:
256,192,10253,5,8,0:0:0:0:
256,192,10318,5,8,0:0:0:0:
256,192,10383,5,8,0:0:0:0:
256,192,10448,5,0,0:0:0:0:
256,192,10579,5,0,0:0:0:0:
256,192,10644,5,0,0:0:0:0:
256,192,10709,5,8,0:0:0:0:
256,192,10840,5,0,0:0:0:0:
256,192,10970,5,0,0:0:0:0:
256,192,11035,5,8,0:0:0:0:
256,192,11101,5,8,0:0:0:0:
256,192,11166,5,0,0:0:0:0:
256,192,11231,5,8,0:0:0:0:
256,192,11361,5,0,0:0:0:0:
256,192,11622,5,0,0:0:0:0:
256,192,11753,5,0,0:0:0:0:
256,192,11883,5,0,0:0:0:0:
256,192,12014,5,8,0:0:0:0:
256,192,12144,5,8,0:0:0:0:
256,192,12275,5,8,0:0:0:0:
256,192,12405,5,8,0:0:0:0:
256,192,12535,5,0,0:0:0:0:
256,192,12666,5,0,0:0:0:0:
256,192,12731,5,0,0:0:0:0:
256,192,12796,5,8,0:0:0:0:
256,192,12927,5,0,0:0:0:0:
256,192,13057,5,0,0:0:0:0:
256,192,13122,5,8,0:0:0:0:
256,192,13188,5,0,0:0:0:0:
256,192,13253,5,0,0:0:0:0:
256,192,13318,5,8,0:0:0:0:
256,192,13448,5,8,0:0:0:0:
256,192,13514,5,8,0:0:0:0:
256,192,13579,5,0,0:0:0:0:
256,192,13709,5,8,0:0:0:0:
256,192,13775,5,0,0:0:0:0:
256,192,13840,5,0,0:0:0:0:
256,192,13970,5,8,0:0:0:0:
256,192,14035,5,0,0:0:0:0:
256,192,14101,5,8,0:0:0:0:
256,192,14231,5,8,0:0:0:0:
256,192,14361,5,8,0:0:0:0:
256,192,14492,5,8,0:0:0:0:
256,192,14622,5,0,0:0:0:0:
256,192,14753,5,0,0:0:0:0:
256,192,14883,5,8,0:0:0:0:
256,192,15014,5,0,0:0:0:0:
256,192,15079,5,0,0:0:0:0:
256,192,15144,5,8,0:0:0:0:
256,192,15275,5,0,0:0:0:0:
256,192,15405,5,8,0:0:0:0:
256,192,15535,5,0,0:0:0:0:
256,192,15796,5,0,0:0:0:0:
256,192,15927,5,8,0:0:0:0:
256,192,16057,5,0,0:0:0:0:
256,192,16188,5,0,0:0:0:0:
256,192,16448,5,12,0:0:0:0:
256,192,16709,5,8,0:0:0:0:
256,192,16840,5,0,0:0:0:0:
256,192,16905,5,0,0:0:0:0:
256,192,16970,5,0,0:0:0:0:
256,192,17101,5,0,0:0:0:0:
256,192,17166,5,8,0:0:0:0:
256,192,17296,5,8,0:0:0:0:
256,192,17361,5,8,0:0:0:0:
256,192,17492,5,0,0:0:0:0:
256,192,17622,5,8,0:0:0:0:
256,192,17753,5,0,0:0:0:0:
256,192,17883,5,8,0:0:0:0:
256,192,17948,5,8,0:0:0:0:
256,192,18014,5,0,0:0:0:0:
256,192,18144,5,0,0:0:0:0:
256,192,18275,5,8,0:0:0:0:
256,192,18340,5,0,0:0:0:0:
256,192,18405,5,0,0:0:0:0:
256,192,18535,5,0,0:0:0:0:
256,192,18601,5,8,0:0:0:0:
256,192,18731,5,8,0:0:0:0:
256,192,18796,5,8,0:0:0:0:
256,192,18861,5,0,0:0:0:0:
256,192,18992,5,8,0:0:0:0:
256,192,19122,5,0,0:0:0:0:
256,192,19188,5,0,0:0:0:0:
256,192,19253,5,0,0:0:0:0:
256,192,19318,5,8,0:0:0:0:
256,192,19405,5,8,0:0:0:0:
256,192,19492,5,8,0:0:0:0:
256,192,19579,5,8,0:0:0:0:
256,192,19666,5,8,0:0:0:0:
256,192,19753,5,8,0:0:0:0:
256,192,19840,5,12,0:0:0:0:
256,192,19970,5,0,0:0:0:0:
256,192,20035,5,8,0:0:0:0:
256,192,20101,5,0,0:0:0:0:
256,192,20231,5,12,0:0:0:0:
256,192,20361,5,0,0:0:0:0:
256,192,20427,5,8,0:0:0:0:
256,192,20492,5,0,0:0:0:0:
256,192,20622,5,12,0:0:0:0:
256,192,20753,5,0,0:0:0:0:
256,192,20818,5,0,0:0:0:0:
256,192,20883,5,8,0:0:0:0:
256,192,21014,5,8,0:0:0:0:
256,192,21079,5,8,0:0:0:0:
256,192,21144,5,0,0:0:0:0:
256,192,21209,5,0,0:0:0:0:
256,192,21275,5,8,0:0:0:0:
256,192,21340,5,0,0:0:0:0:
256,192,21405,5,8,0:0:0:0:
256,192,21470,5,0,0:0:0:0:
256,192,21601,5,0,0:0:0:0:
256,192,21666,5,8,0:0:0:0:
256,192,21731,5,8,0:0:0:0:
256,192,21861,5,8,0:0:0:0:
256,192,21927,5,0,0:0:0:0:
256,192,22057,5,8,0:0:0:0:
256,192,22188,5,0,0:0:0:0:
256,192,22253,5,8,0:0:0:0:
256,192,22318,5,0,0:0:0:0:
256,192,22448,5,8,0:0:0:0:
256,192,22579,5,0,0:0:0:0:
256,192,22709,5,8,0:0:0:0:
256,192,22775,5,8,0:0:0:0:
256,192,22840,5,8,0:0:0:0:
256,192,22905,5,8,0:0:0:0:
256,192,22970,5,0,0:0:0:0:
256,192,23101,5,8,0:0:0:0:
256,192,23166,5,8,0:0:0:0:
256,192,23231,5,0,0:0:0:0:
256,192,23361,5,0,0:0:0:0:
256,192,23427,5,8,0:0:0:0:
256,192,23492,5,0,0:0:0:0:
256,192,23622,5,0,0:0:0:0:
256,192,23753,5,8,0:0:0:0:
256,192,23840,5,8,0:0:0:0:
256,192,23927,5,8,0:0:0:0:
256,192,24014,5,4,0:0:0:0:
256,192,24535,5,0,0:0:0:0:
256,192,25057,5,12,0:0:0:0:
256,192,25228,5,0,0:0:0:0:
256,192,25314,5,8,0:0:0:0:
256,192,25399,5,0,0:0:0:0:
256,192,25571,5,8,0:0:0:0:
256,192,25742,5,0,0:0:0:0:
256,192,25828,5,0,0:0:0:0:
256,192,25999,5,8,0:0:0:0:
256,192,26085,5,0,0:0:0:0:
256,192,26257,5,8,0:0:0:0:
256,192,26342,5,0,0:0:0:0:
256,192,26428,5,8,0:0:0:0:
256,192,26599,5,0,0:0:0:0:
256,192,26685,5,8,0:0:0:0:
256,192,26771,5,0,0:0:0:0:
256,192,26942,5,8,0:0:0:0:
256,192,27114,5,0,0:0:0:0:
256,192,27199,5,0,0:0:0:0:
256,192,27285,5,0,0:0:0:0:
256,192,27371,5,8,0:0:0:0:
256,192,27457,5,0,0:0:0:0:
256,192,27628,5,0,0:0:0:0:
256,192,27714,5,0,0:0:0:0:
256,192,27799,5,8,0:0:0:0:
256,192,27965,5,0,0:0:0:0:
256,192,28049,5,8,0:0:0:0:
256,192,28132,5,0,0:0:0:0:
256,192,28299,5,8,0:0:0:0:
256,192,28465,5,0,0:0:0:0:
256,192,28549,5,0,0:0:0:0:
256,192,28715,5,8,0:0:0:0:
256,192,28799,5,0,0:0:0:0:
256,192,28965,5,8,0:0:0:0:
256,192,29049,5,8,0:0:0:0:
256,192,29132,5,4,0:0:0:0:
256,192,29299,5,0,0:0:0:0:
256,192,29382,5,8,0:0:0:0:
256,192,29465,5,0,0:0:0:0:
256,192,29632,5,8,0:0:0:0:
256,192,29798,5,0,0:0:0:0:
256,192,29882,5,0,0:0:0:0:
256,192,30048,5,0,0:0:0:0:
256,192,30132,5,8,0:0:0:0:
256,192,30215,5,8,0:0:0:0:
256,192,30298,5,8,0:0:0:0:
256,192,30382,5,8,0:0:0:0:
256,192,30465,5,4,0:0:0:0:
256,192,30627,5,0,0:0:0:0:
256,192,30708,5,0,0:0:0:0:
256,192,30789,5,8,0:0:0:0:
256,192,30951,5,8,0:0:0:0:
256,192,31032,5,0,0:0:0:0:
256,192,31113,5,8,0:0:0:0:
256,192,31194,5,0,0:0:0:0:
256,192,31275,5,0,0:0:0:0:
256,192,31356,5,8,0:0:0:0:
256,192,31437,5,0,0:0:0:0:
256,192,31600,5,8,0:0:0:0:
256,192,31681,5,8,0:0:0:0:
256,192,31762,5,0,0:0:0:0:
256,192,31924,5,0,0:0:0:0:
256,192,32005,5,0,0:0:0:0:
256,192,32086,5,8,0:0:0:0:
256,192,32248,5,8,0:0:0:0:
256,192,32329,5,0,0:0:0:0:
256,192,32410,5,8,0:0:0:0:
256,192,32492,5,8,0:0:0:0:
256,192,32654,5,8,0:0:0:0:
256,192,32735,5,0,0:0:0:0:
256,192,32897,5,8,0:0:0:0:
256,192,32978,5,8,0:0:0:0:
256,192,33059,5,0,0:0:0:0:
256,192,33216,5,0,0:0:0:0:
256,192,33295,5,0,0:0:0:0:
256,192,33374,5,8,0:0:0:0:
256,192,33532,5,8,0:0:0:0:
256,192,33611,5,0,0:0:0:0:
256,192,33690,5,8,0:0:0:0:
256,192,33769,5,0,0:0:0:0:
256,192,33848,5,0,0:0:0:0:
256,192,33927,5,8,0:0:0:0:
256,192,34006,5,0,0:0:0:0:
256,192,34164,5,8,0:0:0:0:
256,192,34243,5,8,0:0:0:0:
256,192,34322,5,0,0:0:0:0:
256,192,34480,5,0,0:0:0:0:
256,192,34559,5,0,0:0:0:0:
256,192,34637,5,8,0:0:0:0:
256,192,34795,5,8,0:0:0:0:
256,192,34874,5,0,0:0:0:0:
256,192,34953,5,8,0:0:0:0:
256,192,35032,5,0,0:0:0:0:
256,192,35190,5,0,0:0:0:0:
256,192,35269,5,8,0:0:0:0:
256,192,35348,5,8,0:0:0:0:
256,192,35427,5,8,0:0:0:0:
256,192,35506,5,8,0:0:0:0:
256,192,35585,5,4,0:0:0:0:
256,192,35738,5,0,0:0:0:0:
256,192,35815,5,0,0:0:0:0:
256,192,35892,5,8,0:0:0:0:
256,192,36046,5,8,0:0:0:0:
256,192,36123,5,0,0:0:0:0:
256,192,36200,5,8,0:0:0:0:
256,192,36277,5,8,0:0:0:0:
256,192,36431,5,8,0:0:0:0:
256,192,36508,5,0,0:0:0:0:
256,192,36661,5,8,0:0:0:0:
256,192,36738,5,8,0:0:0:0:
256,192,36815,5,0,0:0:0:0:
256,192,36965,5,0,0:0:0:0:
256,192,37040,5,0,0:0:0:0:
256,192,37115,5,8,0:0:0:0:
256,192,37265,5,8,0:0:0:0:
256,192,37340,5,0,0:0:0:0:
256,192,37415,5,8,0:0:0:0:
256,192,37490,5,8,0:0:0:0:
256,192,37565,5,0,0:0:0:0:
256,192,37640,5,8,0:0:0:0:
256,192,37715,5,0,0:0:0:0:
256,192,37865,5,8,0:0:0:0:
256,192,37940,5,8,0:0:0:0:
256,192,38015,5,4,0:0:0:0:
256,192,38161,5,0,0:0:0:0:
256,192,38234,5,0,0:0:0:0:
256,192,38307,5,8,0:0:0:0:
256,192,38454,5,8,0:0:0:0:
256,192,38527,5,0,0:0:0:0:
256,192,38600,5,8,0:0:0:0:
256,192,38673,5,8,0:0:0:0:
256,192,38819,5,8,0:0:0:0:
256,192,38893,5,0,0:0:0:0:
256,192,39039,5,8,0:0:0:0:
256,192,39112,5,0,0:0:0:0:
256,192,39185,5,8,0:0:0:0:
256,192,39327,5,0,0:0:0:0:
256,192,39399,5,0,0:0:0:0:
256,192,39470,5,8,0:0:0:0:
256,192,39613,5,8,0:0:0:0:
256,192,39685,5,0,0:0:0:0:
256,192,39756,5,8,0:0:0:0:
256,192,39827,5,0,0:0:0:0:
256,192,39970,5,0,0:0:0:0:
256,192,40042,5,8,0:0:0:0:
256,192,40113,5,8,0:0:0:0:
256,192,40185,5,8,0:0:0:0:
256,192,40256,5,8,0:0:0:0:
256,192,40327,5,4,0:0:0:0:
256,192,40466,5,8,0:0:0:0:
256,192,40536,5,0,0:0:0:0:
256,192,40606,5,8,0:0:0:0:
256,192,40745,5,0,0:0:0:0:
256,192,40885,5,8,0:0:0:0:
256,192,41021,5,0,0:0:0:0:
256,192,41089,5,8,0:0:0:0:
256,192,41157,5,8,0:0:0:0:
256,192,41294,5,8,0:0:0:0:
256,192,41430,5,4,0:0:0:0:
256,192,41563,5,8,0:0:0:0:
256,192,41630,5,0,0:0:0:0:
256,192,41696,5,8,0:0:0:0:
256,192,41830,5,0,0:0:0:0:
256,192,41963,5,8,0:0:0:0:
256,192,42028,5,8,0:0:0:0:
256,192,42093,5,0,0:0:0:0:
256,192,42158,5,8,0:0:0:0:
256,192,42223,5,8,0:0:0:0:
256,192,42354,5,8,0:0:0:0:
256,192,42484,5,0,0:0:0:0:
256,192,42611,5,0,0:0:0:0:
256,192,42675,5,8,0:0:0:0:
256,192,42739,5,0,0:0:0:0:
256,192,42866,5,8,0:0:0:0:
256,192,42930,5,8,0:0:0:0:
256,192,42994,5,0,0:0:0:0:
256,192,43119,5,0,0:0:0:0:
256,192,43181,5,8,0:0:0:0:
256,192,43244,5,0,0:0:0:0:
256,192,43306,5,0,0:0:0:0:
256,192,43369,5,8,0:0:0:0:
256,192,43431,5,8,0:0:0:0:
256,192,43494,5,0,0:0:0:0:
256,192,43616,5,8,0:0:0:0:
256,192,43677,5,8,0:0:0:0:
256,192,43738,5,0,0:0:0:0:
256,192,43861,5,0,0:0:0:0:
256,192,43922,5,8,0:0:0:0:
256,192,43983,5,0,0:0:0:0:
256,192,44103,5,8,0:0:0:0:
256,192,44163,5,8,0:0:0:0:
256,192,44223,5,0,0:0:0:0:
256,192,44283,5,0,0:0:0:0:
256,192,44343,5,8,0:0:0:0:
256,192,44403,5,8,0:0:0:0:
256,192,44463,5,0,0:0:0:0:
256,192,44580,5,0,0:0:0:0:
256,192,44639,5,8,0:0:0:0:
256,192,44698,5,0,0:0:0:0:
256,192,44815,5,8,0:0:0:0:
256,192,44874,5,8,0:0:0:0:
256,192,44933,5,0,0:0:0:0:
256,192,45048,5,0,0:0:0:0:
256,192,45106,5,8,0:0:0:0:
256,192,45163,5,0,0:0:0:0:
256,192,45221,5,0,0:0:0:0:
256,192,45279,5,8,0:0:0:0:
256,192,45336,5,8,0:0:0:0:
256,192,45394,5,0,0:0:0:0:
256,192,45507,5,0,0:0:0:0:
256,192,45563,5,8,0:0:0:0:
256,192,45620,5,0,0:0:0:0:
256,192,45733,5,8,0:0:0:0:
256,192,45790,5,8,0:0:0:0:
256,192,45846,5,0,0:0:0:0:
256,192,45957,5,8,0:0:0:0:
256,192,46068,5,0,0:0:0:0:
256,192,46123,5,8,0:0:0:0:
256,192,46179,5,8,0:0:0:0:
256,192,46234,5,8,0:0:0:0:
256,192,46290,5,4,0:0:0:0:
256,192,46401,5,0,0:0:0:0:
256,192,46456,5,0,0:0:0:0:
256,192,46512,5,8,0:0:0:0:
256,192,46623,5,0,0:0:0:0:
256,192,46678,5,0,0:0:0:0:
256,192,46734,5,0,0:0:0:0:
256,192,46790,5,8,0:0:0:0:
256,192,46845,5,0,0:0:0:0:
256,192,46956,5,8,0:0:0:0:
256,192,47067,5,0,0:0:0:0:
256,192,47123,5,8,0:0:0:0:
256,192,47178,5,0,0:0:0:0:
256,192,47290,5,8,0:0:0:0:
256,192,47345,5,0,0:0:0:0:
256,192,47401,5,8,0:0:0:0:
256,192,47512,5,0,0:0:0:0:
256,192,47678,5,0,0:0:0:0:
256,192,47845,5,0,0:0:0:0:
256,192,47956,5,8,0:0:0:0:
256,192,47993,5,8,0:0:0:0:
256,192,48030,5,8,0:0:0:0:
256,192,48067,5,0,0:0:0:0:
256,192,48178,5,0,0:0:0:0:
256,192,48234,5,0,0:0:0:0:
256,192,48290,5,8,0:0:0:0:
256,192,48345,5,0,0:0:0:0:
256,192,48401,5,8,0:0:0:0:
256,192,48512,5,0,0:0:0:0:
256,192,48623,5,8,0:0:0:0:
256,192,48678,5,8,0:0:0:0:
256,192,48734,5,0,0:0:0:0:
256,192,48790,5,0,0:0:0:0:
256,192,48845,5,8,0:0:0:0:
256,192,48956,5,0,0:0:0:0:
256,192,49067,5,0,0:0:0:0:
256,192,49123,5,8,0:0:0:0:
256,192,49178,5,0,0:0:0:0:
256,192,49234,5,0,0:0:0:0:
256,192,49290,5,8,0:0:0:0:
256,192,49401,5,0,0:0:0:0:
256,192,49512,5,0,0:0:0:0:
256,192,49623,5,8,0:0:0:0:
256,192,49678,5,8,0:0:0:0:
256,192,49734,5,8,0:0:0:0:
256,192,49790,5,8,0:0:0:0:
256,192,49845,5,4,0:0:0:0:
256,192,49956,5,0,0:0:0:0:
256,192,50012,5,0,0:0:0:0:
256,192,50067,5,8,0:0:0:0:
256,192,50178,5,0,0:0:0:0:
256,192,50234,5,8,0:0:0:0:
256,192,50289,5,0,0:0:0:0:
256,192,50345,5,0,0:0:0:0:
256,192,50401,5,8,0:0:0:0:
256,192,50456,5,0,0:0:0:0:
256,192,50512,5,8,0:0:0:0:
256,192,50586,5,8,0:0:0:0:
256,192,50660,5,8,0:0:0:0:
256,192,50734,5,4,0:0:0:0:
256,192,50845,5,0,0:0:0:0:
256,192,50901,5,8,0:0:0:0:
256,192,50956,5,0,0:0:0:0:
256,192,51012,5,0,0:0:0:0:
256,192,51067,5,8,0:0:0:0:
256,192,51178,5,4,0:0:0:0:
256,192,51289,5,0,0:0:0:0:
256,192,51345,5,8,0:0:0:0:
256,192,51401,5,0,0:0:0:0:
256,192,51456,5,8,0:0:0:0:
256,192,51512,5,8,0:0:0:0:
256,192,51623,5,4,0:0:0:0:
256,192,51734,5,0,0:0:0:0:
256,192,51789,5,8,0:0:0:0:
256,192,51845,5,0,0:0:0:0:
256,192,51901,5,0,0:0:0:0:
256,192,51956,5,8,0:0:0:0:
256,192,52067,5,8,0:0:0:0:
256,192,52123,5,8,0:0:0:0:
256,192,52178,5,8,0:0:0:0:
256,192,52234,5,8,0:0:0:0:
256,192,52289,5,8,0:0:0:0:
256,192,52345,5,8,0:0:0:0:
256,192,52401,5,8,0:0:0:0:
256,192,52456,5,8,0:0:0:0:
256,192,52511,5,4,0:0:0:0:
256,192,52733,5,0,0:0:0:0:
256,192,52844,5,8,0:0:0:0:
256,192,52899,5,0,0:0:0:0:
256,192,52955,5,8,0:0:0:0:
256,192,53011,5,8,0:0:0:0:
256,192,53066,5,0,0:0:0:0:
256,192,53177,5,8,0:0:0:0:
256,192,53288,5,0,0:0:0:0:
256,192,53399,5,8,0:0:0:0:
256,192,53622,5,0,0:0:0:0:
256,192,53677,5,8,0:0:0:0:
256,192,53733,5,0,0:0:0:0:
256,192,53844,5,8,0:0:0:0:
256,192,53899,5,8,0:0:0:0:
256,192,53955,5,0,0:0:0:0:
256,192,54011,5,8,0:0:0:0:
256,192,54066,5,0,0:0:0:0:
256,192,54177,5,8,0:0:0:0:
256,192,54233,5,0,0:0:0:0:
256,192,54288,5,8,0:0:0:0:
256,192,54399,5,8,0:0:0:0:
256,192,54455,5,8,0:0:0:0:
256,192,54511,5,0,0:0:0:0:
256,192,54622,5,0,0:0:0:0:
256,192,54677,5,0,0:0:0:0:
256,192,54733,5,8,0:0:0:0:
256,192,54844,5,0,0:0:0:0:
256,192,54955,5,8,0:0:0:0:
256,192,55011,5,8,0:0:0:0:
256,192,55066,5,0,0:0:0:0:
256,192,55122,5,0,0:0:0:0:
256,192,55177,5,8,0:0:0:0:
256,192,55233,5,0,0:0:0:0:
256,192,55288,5,8,0:0:0:0:
256,192,55344,5,8,0:0:0:0:
256,192,55399,5,0,0:0:0:0:
256,192,55511,5,8,0:0:0:0:
256,192,55622,5,0,0:0:0:0:
256,192,55733,5,8,0:0:0:0:
256,192,55788,5,8,0:0:0:0:
256,192,55844,5,0,0:0:0:0:
256,192,55955,5,8,0:0:0:0:
256,192,56066,5,0,0:0:0:0:
256,192,56122,5,0,0:0:0:0:
256,192,56177,5,0,0:0:0:0:
256,192,56288,5,8,0:0:0:0:
256,192,56399,5,0,0:0:0:0:
256,192,56455,5,0,0:0:0:0:
256,192,56510,5,0,0:0:0:0:
256,192,56566,5,0,0:0:0:0:
256,192,56622,5,8,0:0:0:0:
256,192,56677,5,8,0:0:0:0:
256,192,56733,5,0,0:0:0:0:
256,192,56844,5,8,0:0:0:0:
256,192,56899,5,0,0:0:0:0:
256,192,56955,5,8,0:0:0:0:
256,192,57029,5,0,0:0:0:0:
256,192,57103,5,0,0:0:0:0:
256,192,57177,5,8,0:0:0:0:
256,192,57251,5,0,0:0:0:0:
256,192,57399,5,0,0:0:0:0:
256,192,57510,5,8,0:0:0:0:
256,192,57566,5,8,0:0:0:0:
256,192,57622,5,0,0:0:0:0:
256,192,57696,5,0,0:0:0:0:
256,192,57770,5,0,0:0:0:0:
256,192,57844,5,8,0:0:0:0:
256,192,57955,5,0,0:0:0:0:
256,192,58066,5,0,0:0:0:0:
256,192,58733,5,12,0:0:0:0:
256,192,58933,5,0,0:0:0:0:
256,192,59033,5,8,0:0:0:0:
256,192,59133,5,0,0:0:0:0:
256,192,59233,5,8,0:0:0:0:
256,192,59333,5,0,0:0:0:0:
256,192,59533,5,8,0:0:0:0:
256,192,59733,5,0,0:0:0:0:
256,192,59933,5,8,0:0:0:0:
256,192,60133,5,0,0:0:0:0:
256,192,60333,5,8,0:0:0:0:
256,192,60533,5,0,0:0:0:0:
256,192,60633,5,8,0:0:0:0:
256,192,60733,5,0,0:0:0:0:
256,192,60833,5,8,0:0:0:0:
256,192,60933,5,0,0:0:0:0:
256,192,61133,5,8,0:0:0:0:
256,192,61233,5,0,0:0:0:0:
256,192,61333,5,8,0:0:0:0:
256,192,61433,5,0,0:0:0:0:
256,192,61533,5,8,0:0:0:0:
256,192,61733,5,0,0:0:0:0:
256,192,61933,5,8,0:0:0:0:
256,192,62133,5,0,0:0:0:0:
256,192,62233,5,8,0:0:0:0:
256,192,62333,5,0,0:0:0:0:
256,192,62433,5,8,0:0:0:0:
256,192,62533,5,0,0:0:0:0:
256,192,62733,5,8,0:0:0:0:
256,192,62933,5,0,0:0:0:0:
256,192,63133,5,8,0:0:0:0:
256,192,63333,5,0,0:0:0:0:
256,192,63533,5,8,0:0:0:0:
256,192,63733,5,0,0:0:0:0:
256,192,63833,5,8,0:0:0:0:
256,192,63933,5,0,0:0:0:0:
256,192,64033,5,8,0:0:0:0:
256,192,64133,5,0,0:0:0:0:
256,192,64333,5,8,0:0:0:0:
256,192,64533,5,8,0:0:0:0:
256,192,64733,5,8,0:0:0:0:
256,192,64933,5,0,0:0:0:0:
256,192,65133,5,8,0:0:0:0:
256,192,65320,5,0,0:0:0:0:
256,192,65414,5,8,0:0:0:0:
256,192,65508,5,0,0:0:0:0:
256,192,65601,5,8,0:0:0:0:
256,192,65695,5,0,0:0:0:0:
256,192,65883,5,8,0:0:0:0:
256,192,66064,5,0,0:0:0:0:
256,192,66246,5,8,0:0:0:0:
256,192,66428,5,0,0:0:0:0:
256,192,66610,5,8,0:0:0:0:
256,192,66786,5,0,0:0:0:0:
256,192,66874,5,8,0:0:0:0:
256,192,66962,5,0,0:0:0:0:
256,192,67051,5,8,0:0:0:0:
256,192,67139,5,0,0:0:0:0:
256,192,67315,5,8,0:0:0:0:
256,192,67400,5,0,0:0:0:0:
256,192,67486,5,8,0:0:0:0:
256,192,67572,5,0,0:0:0:0:
256,192,67657,5,8,0:0:0:0:
256,192,67829,5,0,0:0:0:0:
256,192,68000,5,8,0:0:0:0:
256,192,68166,5,0,0:0:0:0:
256,192,68250,5,8,0:0:0:0:
256,192,68333,5,0,0:0:0:0:
256,192,68416,5,8,0:0:0:0:
256,192,68500,5,0,0:0:0:0:
256,192,68666,5,8,0:0:0:0:
256,192,68828,5,0,0:0:0:0:
256,192,68990,5,8,0:0:0:0:
256,192,69152,5,0,0:0:0:0:
256,192,69314,5,8,0:0:0:0:
256,192,69471,5,0,0:0:0:0:
256,192,69550,5,8,0:0:0:0:
256,192,69629,5,0,0:0:0:0:
256,192,69708,5,8,0:0:0:0:
256,192,69787,5,0,0:0:0:0:
256,192,69945,5,8,0:0:0:0:
256,192,70098,5,8,0:0:0:0:
256,192,70252,5,8,0:0:0:0:
256,192,70406,5,0,0:0:0:0:
256,192,70560,5,8,0:0:0:0:
256,192,70702,5,0,0:0:0:0:
256,192,70774,5,8,0:0:0:0:
256,192,70845,5,0,0:0:0:0:
256,192,70917,5,8,0:0:0:0:
256,192,70988,5,0,0:0:0:0:
256,192,71131,5,8,0:0:0:0:
256,192,71267,5,0,0:0:0:0:
256,192,71403,5,8,0:0:0:0:
256,192,71540,5,0,0:0:0:0:
256,192,71676,5,8,0:0:0:0:
256,192,71806,5,0,0:0:0:0:
256,192,71871,5,8,0:0:0:0:
256,192,71936,5,0,0:0:0:0:
256,192,72002,5,8,0:0:0:0:
256,192,72067,5,0,0:0:0:0:
256,192,72197,5,8,0:0:0:0:
256,192,72259,5,0,0:0:0:0:
256,192,72322,5,8,0:0:0:0:
256,192,72384,5,0,0:0:0:0:
256,192,72447,5,8,0:0:0:0:
256,192,72572,5,0,0:0:0:0:
256,192,72697,5,8,0:0:0:0:
256,192,72817,5,0,0:0:0:0:
256,192,72877,5,8,0:0:0:0:
256,192,72937,5,0,0:0:0:0:
256,192,72997,5,8,0:0:0:0:
256,192,73057,5,0,0:0:0:0:
256,192,73177,5,8,0:0:0:0:
256,192,73292,5,0,0:0:0:0:
256,192,73407,5,8,0:0:0:0:
256,192,73523,5,0,0:0:0:0:
256,192,73638,5,8,0:0:0:0:
256,192,73749,5,0,0:0:0:0:
256,192,73804,5,8,0:0:0:0:
256,192,73860,5,0,0:0:0:0:
256,192,73915,5,8,0:0:0:0:
256,192,73971,5,0,0:0:0:0:
256,192,74082,5,8,0:0:0:0:
256,192,74189,5,8,0:0:0:0:
256,192,74296,5,8,0:0:0:0:
256,192,74403,5,0,0:0:0:0:
256,192,74510,5,8,0:0:0:0:
256,192,74613,5,0,0:0:0:0:
256,192,74665,5,0,0:0:0:0:
256,192,74716,5,8,0:0:0:0:
256,192,74820,5,0,0:0:0:0:
256,192,74923,5,8,0:0:0:0:
256,192,75023,5,8,0:0:0:0:
256,192,75123,5,0,0:0:0:0:
256,192,75223,5,0,0:0:0:0:
256,192,75323,5,8,0:0:0:0:
256,192,75419,5,0,0:0:0:0:
256,192,75468,5,0,0:0:0:0:
256,192,75516,5,8,0:0:0:0:
256,192,75613,5,0,0:0:0:0:
256,192,75710,5,8,0:0:0:0:
256,192,75803,5,8,0:0:0:0:
256,192,75897,5,8,0:0:0:0:
256,192,75991,5,0,0:0:0:0:
256,192,76085,5,8,0:0:0:0:
256,192,76175,5,0,0:0:0:0:
256,192,76221,5,0,0:0:0:0:
256,192,76266,5,8,0:0:0:0:
256,192,76357,5,0,0:0:0:0:
256,192,76448,5,8,0:0:0:0:
256,192,76536,5,8,0:0:0:0:
256,192,76624,5,0,0:0:0:0:
256,192,76712,5,0,0:0:0:0:
256,192,76800,5,8,0:0:0:0:
256,192,76885,5,0,0:0:0:0:
256,192,76928,5,0,0:0:0:0:
256,192,76971,5,8,0:0:0:0:
256,192,77057,5,0,0:0:0:0:
256,192,77142,5,8,0:0:0:0:
256,192,77225,5,0,0:0:0:0:
256,192,77308,5,8,0:0:0:0:
256,192,77392,5,8,0:0:0:0:
256,192,77475,5,0,0:0:0:0:
256,192,77556,5,8,0:0:0:0:
256,192,77637,5,0,0:0:0:0:
256,192,77718,5,8,0:0:0:0:
256,192,77799,5,0,0:0:0:0:
256,192,77875,5,8,0:0:0:0:
256,192,77952,5,0,0:0:0:0:
256,192,78029,5,8,0:0:0:0:
256,192,78106,5,0,0:0:0:0:
256,192,78179,5,8,0:0:0:0:
256,192,78252,5,0,0:0:0:0:
256,192,78325,5,8,0:0:0:0:
256,192,78398,5,0,0:0:0:0:
256,192,78467,5,8,0:0:0:0:
256,192,78537,5,0,0:0:0:0:
256,192,78607,5,8,0:0:0:0:
256,192,78677,5,0,0:0:0:0:
256,192,78743,5,8,0:0:0:0:
256,192,78810,5,0,0:0:0:0:
256,192,78877,5,8,0:0:0:0:
256,192,78943,5,0,0:0:0:0:
256,192,79006,5,8,0:0:0:0:
256,192,79070,5,0,0:0:0:0:
256,192,79134,5,8,0:0:0:0:
256,192,79198,5,0,0:0:0:0:
256,192,79259,5,8,0:0:0:0:
256,192,79320,5,0,0:0:0:0:
256,192,79381,5,8,0:0:0:0:
256,192,79442,5,0,0:0:0:0:
256,192,79500,5,8,0:0:0:0:
256,192,79559,5,0,0:0:0:0:
256,192,79618,5,8,0:0:0:0:
256,192,79677,5,0,0:0:0:0:
256,192,79733,5,8,0:0:0:0:
256,192,79790,5,0,0:0:0:0:
256,192,79845,5,8,0:0:0:0:
256,192,79901,5,0,0:0:0:0:
256,192,79955,5,8,0:0:0:0:
256,192,80010,5,0,0:0:0:0:
256,192,80063,5,8,0:0:0:0:
256,192,80117,5,0,0:0:0:0:
256,192,80169,5,8,0:0:0:0:
256,192,80222,5,0,0:0:0:0:
256,192,80273,5,8,0:0:0:0:
256,192,80325,5,0,0:0:0:0:
256,192,80375,5,8,0:0:0:0:
256,192,80426,5,0,0:0:0:0:
256,192,80476,5,8,0:0:0:0:
256,192,80526,5,0,0:0:0:0:
256,192,80575,5,8,0:0:0:0:
256,192,80624,5,0,0:0:0:0:
256,192,80672,5,8,0:0:0:0:
256,192,80720,5,0,0:0:0:0:
256,192,80767,5,8,0:0:0:0:
256,192,80815,5,0,0:0:0:0:
256,192,80861,5,8,0:0:0:0:
256,192,80908,5,0,0:0:0:0:
256,192,80954,5,8,0:0:0:0:
256,192,81000,5,0,0:0:0:0:
256,192,81045,5,8,0:0:0:0:
256,192,81090,5,0,0:0:0:0:
256,192,81134,5,8,0:0:0:0:
256,192,81179,5,0,0:0:0:0:
256,192,81223,5,8,0:0:0:0:
256,192,81267,5,4,0:0:0:0:
256,192,83542,5,8,0:0:0:0:
256,192,83594,5,8,0:0:0:0:
256,192,83646,5,8,0:0:0:0:
256,192,83698,5,8,0:0:0:0:
256,192,83749,5,8,0:0:0:0:
256,192,83801,5,8,0:0:0:0:
256,192,83853,5,8,0:0:0:0:
256,192,83904,5,8,0:0:0:0:
256,192,83956,5,8,0:0:0:0:
256,192,84025,5,8,0:0:0:0:
256,192,84094,5,8,0:0:0:0:
256,192,84163,5,8,0:0:0:0:
256,192,84232,5,8,0:0:0:0:
256,192,84301,5,8,0:0:0:0:
256,192,84370,5,8,0:0:0:0:
256,192,84439,5,8,0:0:0:0:
256,192,84508,5,8,0:0:0:0:
256,192,84577,12,0,85198,0:0:0:0:
256,192,85404,5,8,0:0:0:0:
256,192,85508,5,0,0:0:0:0:
256,192,85560,5,0,0:0:0:0:
256,192,85611,5,0,0:0:0:0:
256,192,85715,5,8,0:0:0:0:
256,192,85818,5,0,0:0:0:0:
256,192,85870,5,0,0:0:0:0:
256,192,85922,5,0,0:0:0:0:
256,192,86025,5,8,0:0:0:0:
256,192,86077,5,8,0:0:0:0:
256,192,86129,5,0,0:0:0:0:
256,192,86180,5,0,0:0:0:0:
256,192,86232,5,8,0:0:0:0:
256,192,86335,5,0,0:0:0:0:
256,192,86387,5,8,0:0:0:0:
256,192,86439,5,0,0:0:0:0:
256,192,86542,5,8,0:0:0:0:
256,192,86646,5,0,0:0:0:0:
256,192,86698,5,8,0:0:0:0:
256,192,86749,5,0,0:0:0:0:
256,192,86853,5,8,0:0:0:0:
256,192,86956,5,0,0:0:0:0:
256,192,87008,5,0,0:0:0:0:
256,192,87060,5,8,0:0:0:0:
256,192,87163,5,8,0:0:0:0:
256,192,87215,5,8,0:0:0:0:
256,192,87267,5,0,0:0:0:0:
256,192,87370,5,8,0:0:0:0:
256,192,87473,5,8,0:0:0:0:
256,192,87525,5,8,0:0:0:0:
256,192,87577,5,0,0:0:0:0:
256,192,87680,5,8,0:0:0:0:
256,192,87784,5,0,0:0:0:0:
256,192,87835,5,0,0:0:0:0:
256,192,87887,5,8,0:0:0:0:
256,192,87991,5,8,0:0:0:0:
256,192,88042,5,0,0:0:0:0:
256,192,88094,5,8,0:0:0:0:
256,192,88198,5,0,0:0:0:0:
256,192,88301,5,8,0:0:0:0:
256,192,88353,5,0,0:0:0:0:
256,192,88404,5,8,0:0:0:0:
256,192,88508,5,0,0:0:0:0:
256,192,88611,5,8,0:0:0:0:
256,192,88663,5,0,0:0:0:0:
256,192,88715,5,8,0:0:0:0:
256,192,88767,5,8,0:0:0:0:
256,192,88818,5,0,0:0:0:0:
256,192,88922,5,0,0:0:0:0:
256,192,89025,5,8,0:0:0:0:
256,192,89077,5,8,0:0:0:0:
256,192,89129,5,0,0:0:0:0:
256,192,89232,5,0,0:0:0:0:
256,192,89335,5,8,0:0:0:0:
256,192,89387,5,8,0:0:0:0:
256,192,89439,5,0,0:0:0:0:
256,192,89491,5,0,0:0:0:0:
256,192,89542,5,8,0:0:0:0:
256,192,89594,5,0,0:0:0:0:
256,192,89646,5,8,0:0:0:0:
256,192,89749,5,0,0:0:0:0:
256,192,89853,5,8,0:0:0:0:
256,192,89904,5,0,0:0:0:0:
256,192,89956,5,8,0:0:0:0:
256,192,90060,5,0,0:0:0:0:
256,192,90163,5,8,0:0:0:0:
256,192,90215,5,8,0:0:0:0:
256,192,90267,5,0,0:0:0:0:
256,192,90318,5,0,0:0:0:0:
256,192,90370,5,8,0:0:0:0:
256,192,90473,5,0,0:0:0:0:
256,192,90525,5,8,0:0:0:0:
256,192,90577,5,0,0:0:0:0:
256,192,90629,5,8,0:0:0:0:
256,192,90680,5,8,0:0:0:0:
256,192,90784,5,8,0:0:0:0:
256,192,90887,5,0,0:0:0:0:
256,192,90939,5,8,0:0:0:0:
256,192,90991,5,0,0:0:0:0:
256,192,91042,5,0,0:0:0:0:
256,192,91094,5,8,0:0:0:0:
256,192,91198,5,8,0:0:0:0:
256,192,91301,5,0,0:0:0:0:
256,192,91353,5,8,0:0:0:0:
256,192,91404,5,0,0:0:0:0:
256,192,91456,5,8,0:0:0:0:
256,192,91508,5,8,0:0:0:0:
256,192,91560,5,0,0:0:0:0:
256,192,91611,5,12,0:0:0:0:
256,192,91715,5,12,0:0:0:0:
256,192,91818,5,12,0:0:0:0:
256,192,91922,5,12,0:0:0:0:
256,192,92025,5,4,0:0:0:0:
256,192,92129,5,8,0:0:0:0:
256,192,92180,5,8,0:0:0:0:
256,192,92232,5,0,0:0:0:0:
256,192,92335,5,8,0:0:0:0:
256,192,92439,5,0,0:0:0:0:
256,192,92491,5,0,0:0:0:0:
256,192,92542,5,8,0:0:0:0:
256,192,92594,5,0,0:0:0:0:
256,192,92646,5,8,0:0:0:0:
256,192,92680,5,8,0:0:0:0:
256,192,92715,5,8,0:0:0:0:
256,192,92749,5,8,0:0:0:0:
256,192,92784,5,8,0:0:0:0:
256,192,92818,5,8,0:0:0:0:
256,192,92853,5,0,0:0:0:0:
256,192,93060,5,8,0:0:0:0:
256,192,93129,5,8,0:0:0:0:
256,192,93198,5,0,0:0:0:0:
256,192,93267,5,8,0:0:0:0:
256,192,93335,5,0,0:0:0:0:
256,192,93404,5,0,0:0:0:0:
256,192,93473,5,12,0:0:0:0:
256,192,93680,5,0,0:0:0:0:
256,192,93784,5,0,0:0:0:0:
256,192,93887,5,8,0:0:0:0:
256,192,94094,5,0,0:0:0:0:
256,192,94198,5,8,0:0:0:0:
256,192,94404,5,8,0:0:0:0:
256,192,94456,5,8,0:0:0:0:
256,192,94508,5,0,0:0:0:0:
256,192,94715,5,12,0:0:0:0:
256,192,94922,5,12,0:0:0:0:
256,192,95129,5,12,0:0:0:0:
256,192,95335,5,0,0:0:0:0:
256,192,95473,5,8,0:0:0:0:
256,192,95542,5,0,0:0:0:0:
256,192,95680,5,0,0:0:0:0:
256,192,95749,5,8,0:0:0:0:
256,192,95887,5,8,0:0:0:0:
256,192,95956,5,8,0:0:0:0:
256,192,96094,5,0,0:0:0:0:
256,192,96163,5,0,0:0:0:0:
256,192,96301,5,8,0:0:0:0:
256,192,96370,5,0,0:0:0:0:
256,192,96508,5,0,0:0:0:0:
256,192,96577,5,8,0:0:0:0:
256,192,96715,5,8,0:0:0:0:
256,192,96784,5,8,0:0:0:0:
256,192,96853,5,0,0:0:0:0:
256,192,96922,5,0,0:0:0:0:
256,192,96991,5,8,0:0:0:0:
256,192,97060,5,0,0:0:0:0:
256,192,97129,5,0,0:0:0:0:
256,192,97198,5,8,0:0:0:0:
256,192,97267,5,8,0:0:0:0:
256,192,97335,5,8,0:0:0:0:
256,192,97404,5,0,0:0:0:0:
256,192,97473,5,0,0:0:0:0:
256,192,97542,5,0,0:0:0:0:
256,192,97611,5,8,0:0:0:0:
256,192,97680,5,0,0:0:0:0:
256,192,97749,5,0,0:0:0:0:
256,192,97818,5,8,0:0:0:0:
256,192,97887,5,0,0:0:0:0:
256,192,97956,5,0,0:0:0:0:
256,192,98025,5,8,0:0:0:0:
256,192,98094,5,8,0:0:0:0:
256,192,98163,5,8,0:0:0:0:
256,192,98232,5,0,0:0:0:0:
256,192,98301,5,0,0:0:0:0:
256,192,98370,5,0,0:0:0:0:
256,192,98439,5,8,0:0:0:0:
256,192,98508,5,8,0:0:0:0:
256,192,98577,5,8,0:0:0:0:
256,192,99059,5,12,0:0:0:0:
256,192,99472,5,4,0:0:0:0:
256,192,99886,5,8,0:0:0:0:
256,192,100507,5,4,0:0:0:0:
256,192,100610,12,0,103196,0:0:0:0:
