osu file format v14

[General]
AudioFilename: audio.mp3
AudioLeadIn: 0
PreviewTime:53540
Countdown: 1
SampleSet: Soft
StackLeniency: 0.5
Mode: 0
LetterboxInBreaks: 0
WidescreenStoryboard: 1
EpilepsyWarning: 1

[Editor]
Bookmarks:3165,15965,41565,54365,79965,92765,105565,118365,143965,150365,163165,175965,188765
DistanceSpacing: 1.1
BeatDivisor: 2
GridSize: 32
TimelineZoom: 0.7999998

[Metadata]
Title:Yong Heng Shan Yao
TitleUnicode:永恒闪耀
Artist:Zhou Zi Qi
ArtistUnicode:周梓琦
Creator:Ryuusei Aika
Version:Pata-Mon's Hard
Source:凹凸世界
Tags:Mei Pata-Mon AIR Muziyami Chinese Pop CPop C-Pop Female Vocal AOTU World 金 ジン Jin 7doc 七创社 王雪野 杨秉音 林峰 李得 Tekilen 秉音创声
BeatmapID:3347080
BeatmapSetID:959797

[Difficulty]
HPDrainRate:4
CircleSize:3.7
OverallDifficulty:6
ApproachRate:7
SliderMultiplier:1.4
SliderTickRate:1

[Events]
//Background and Video events
0,0,"BG.jpg",0,0
//Break Periods
//Storyboard Layer 0 (Background)
//Storyboard Layer 1 (Fail)
//Storyboard Layer 2 (Pass)
//Storyboard Layer 3 (Foreground)
//Storyboard Layer 4 (Overlay)
//Storyboard Sound Samples

[TimingPoints]
-3235,400,4,2,23,60,1,0
3165,-100,4,2,23,60,0,0
15965,-100,4,2,23,50,0,0
16165,-166.666666666667,4,2,23,30,0,0
22365,-166.666666666667,4,2,23,40,0,0
28765,-100,4,2,23,60,0,0
40065,-100,4,2,23,40,0,0
40565,-100,4,2,23,60,0,0
51165,-100,4,2,23,70,0,0
54365,-86.9565217391304,4,2,23,80,0,1
66465,-86.9565217391304,4,2,23,60,0,1
66765,-86.9565217391304,4,2,23,80,0,1
66865,-86.9565217391304,4,2,23,60,0,1
67165,-86.9565217391304,4,2,23,80,0,1
79265,-86.9565217391304,4,2,23,60,0,1
79565,-86.9565217391304,4,2,23,80,0,1
79665,-86.9565217391304,4,2,23,60,0,1
79965,-100,4,2,23,80,0,0
80365,-100,4,2,23,50,0,0
89565,-100,4,2,23,60,0,0
92065,-100,4,2,23,40,0,0
92565,-100,4,2,23,60,0,0
115165,-100,4,2,23,70,0,0
118365,-86.9565217391304,4,2,23,80,0,1
130465,-86.9565217391304,4,2,23,60,0,1
130765,-86.9565217391304,4,2,23,80,0,1
130865,-86.9565217391304,4,2,23,60,0,1
131165,-86.9565217391304,4,2,23,80,0,1
143265,-86.9565217391304,4,2,23,60,0,1
143565,-86.9565217391304,4,2,23,80,0,1
143665,-86.9565217391304,4,2,23,60,0,1
143965,-86.9565217391304,4,2,23,80,0,0
149665,-86.9565217391304,4,2,23,60,0,0
149965,-86.9565217391304,4,2,23,80,0,0
150065,-86.9565217391304,4,2,23,60,0,0
150365,-86.9565217391304,4,2,23,60,0,0
150565,-166.666666666667,4,2,23,30,0,0
156765,-166.666666666667,4,2,23,40,0,0
161365,-117.647058823529,4,2,23,60,0,0
162865,-117.647058823529,4,2,23,40,0,0
163165,-86.9565217391304,4,2,23,80,0,1
175265,-86.9565217391304,4,2,23,60,0,1
175565,-86.9565217391304,4,2,23,80,0,1
175665,-86.9565217391304,4,2,23,60,0,1
175965,-86.9565217391304,4,2,23,80,0,0
188065,-86.9565217391304,4,2,23,60,0,0
188365,-86.9565217391304,4,2,23,80,0,0
188465,-86.9565217391304,4,2,23,60,0,0
188765,-86.9565217391304,4,2,23,80,0,0
188865,-86.9565217391304,4,2,24,60,0,0
189165,-86.9565217391304,4,2,24,55,0,0
189565,-86.9565217391304,4,2,24,50,0,0
189965,-86.9565217391304,4,2,24,45,0,0
190365,-86.9565217391304,4,2,24,40,0,0
190765,-86.9565217391304,4,2,24,35,0,0
191165,-86.9565217391304,4,2,24,30,0,0
191565,-86.9565217391304,4,2,24,25,0,0
191965,-86.9565217391304,4,2,24,20,0,0
192365,-86.9565217391304,4,2,24,15,0,0
192765,-86.9565217391304,4,2,24,10,0,0
193065,-86.9565217391304,4,2,24,5,0,0

[Colours]
Combo1 : 191,96,0
Combo2 : 252,204,4
Combo3 : 255,159,64
Combo4 : 220,176,3

[HitObjects]
104,96,3165,6,0,P|192:106|268:154,1,140,6|8,3:2|0:2,0:2:0:0:
383,135,3765,2,0,P|348:138|315:150,1,70,0|0,3:2|0:2,0:2:0:0:
258,207,4165,1,0,3:2:0:0:
258,207,4365,2,0,P|244:249|246:302,1,70,8|0,0:2|0:2,0:2:0:0:
287,380,4765,6,0,P|223:351|153:347,1,140,2|8,3:2|0:2,0:2:0:0:
9,341,5365,2,0,P|44:338|77:326,1,70,0|0,3:2|0:2,0:2:0:0:
134,269,5765,2,0,P|148:227|146:174,1,70,0|0,3:2|0:2,0:2:0:0:
124,125,6165,1,0,3:2:0:0:
228,183,6365,6,0,P|316:173|392:125,1,140,2|8,3:2|0:2,0:2:0:0:
419,17,6965,2,0,L|410:97,1,70,0|0,3:2|0:2,0:2:0:0:
441,162,7365,2,0,L|432:242,1,70,0|0,3:2|0:2,0:2:0:0:
388,299,7765,1,0,3:2:0:0:
500,277,7965,5,2,3:2:0:0:
455,344,8165,2,0,L|446:424,2,35,8|8|8,0:2|0:2|0:2,0:2:0:0:
388,299,8565,1,0,3:2:0:0:
425,162,8765,2,0,L|434:242,1,70,10|0,0:2|3:2,0:2:0:0:
344,157,9165,2,0,L|353:237,1,70,10|0,0:2|3:2,0:2:0:0:
271,331,9565,6,0,L|280:251,2,70,2|8|8,3:2|0:2|0:2,0:2:0:0:
117,379,10365,1,10,0:2:0:0:
69,225,10765,1,10,0:2:0:0:
147,246,10965,1,10,0:2:0:0:
204,189,11165,6,0,L|213:109,2,70,2|8|8,3:2|0:2|0:2,0:2:0:0:
155,316,11765,2,0,L|146:236,2,70,2|8|0,3:2|0:2|3:2,0:2:0:0:
282,210,12365,2,0,L|291:130,1,70,10|8,3:2|0:2,0:2:0:0:
234,12,12765,5,2,3:2:0:0:
298,59,12965,2,0,L|378:50,2,35,8|8|8,0:2|0:2|0:2,0:2:0:0:
225,92,13365,1,0,3:2:0:0:
160,44,13565,1,10,0:2:0:0:
86,76,13765,2,0,L|6:85,2,35,8|8|8,0:2|0:2|3:2,0:2:0:0:
225,92,14165,6,0,P|225:160|203:228,1,140,10|8,3:2|3:2,0:2:0:0:
90,310,14765,1,10,3:2:0:0:
90,310,14965,1,8,3:2:0:0:
170,301,15165,1,10,3:2:0:0:
170,301,15365,1,8,3:2:0:0:
217,365,15565,1,10,3:2:0:0:
217,365,15765,1,8,3:2:0:0:
297,356,15965,5,2,0:2:0:0:
420,151,17565,5,2,0:2:0:0:
215,28,19165,5,2,0:2:0:0:
92,233,20765,5,2,0:2:0:0:
297,356,21565,2,0,B|365:336|353:372|421:352,1,125.999996154785,2|0,0:2|0:2,0:2:0:0:
471,292,22365,6,0,B|458:183|458:183|476:155|476:155|463:47,1,251.999992309571,2|0,0:2|0:2,0:2:0:0:
378,47,23765,1,0,0:2:0:0:
378,47,23965,6,0,L|396:207,1,83.9999974365235,2|0,0:2|0:2,0:2:0:0:
327,190,24565,1,0,0:2:0:0:
327,190,24765,2,0,B|336:274|336:274|395:311,1,125.999996154785,2|0,0:2|0:2,0:2:0:0:
311,356,25565,6,0,P|272:378|205:380,1,83.9999974365235,2|0,0:2|0:2,0:2:0:0:
178,321,26165,2,0,P|139:343|72:345,1,83.9999974365235,2|0,0:2|0:2,0:2:0:0:
45,286,26765,2,0,L|54:206,1,41.9999987182618,2|0,0:2|0:2,0:2:0:0:
124,204,27165,6,0,L|106:44,1,83.9999974365235,2|0,0:2|0:2,0:2:0:0:
32,136,27765,2,0,L|50:-24,1,83.9999974365235,2|0,0:2|0:2,0:2:0:0:
119,20,28365,2,0,P|139:21|159:28,1,41.9999987182618,2|0,0:2|0:2,0:2:0:0:
235,67,28765,6,0,L|395:49,2,140,2|0|0,3:2|3:2|3:2,0:2:0:0:
325,241,29965,1,2,3:2:0:0:
373,172,30165,1,2,0:2:0:0:
373,172,30365,6,0,L|533:154,2,140,0|0|0,3:2|3:2|3:2,0:2:0:0:
187,241,31565,1,2,3:2:0:0:
139,172,31765,1,2,0:2:0:0:
139,172,31965,6,0,L|-21:154,2,140,0|0|0,3:2|3:2|3:2,0:2:0:0:
325,136,33165,1,2,3:2:0:0:
277,67,33365,1,2,0:2:0:0:
277,67,33565,6,0,L|117:49,1,140,2|0,3:2|3:2,0:2:0:0:
55,198,34365,2,0,P|62:244|94:280,2,70,2|0|0,3:2|0:2|3:2,0:2:0:0:
114,138,34965,1,2,0:2:0:0:
114,138,35065,1,0,0:2:0:0:
114,138,35165,6,0,L|274:156,1,140,2|0,3:2|3:2,0:2:0:0:
403,286,35965,2,0,P|386:255|383:220,1,70,2|0,3:2|0:2,0:2:0:0:
404,140,36365,1,0,3:2:0:0:
323,162,36565,6,0,L|243:153,1,70,2|0,0:2|3:2,0:2:0:0:
172,176,36965,2,0,L|92:167,1,70,2|0,0:2|3:2,0:2:0:0:
56,238,37365,2,0,P|63:284|95:320,1,70,2|0,3:2|0:2,0:2:0:0:
147,346,37765,1,2,3:2:0:0:
190,274,37965,1,0,3:2:0:0:
147,346,38165,1,2,0:2:0:0:
262,317,38365,6,0,L|342:326,1,70,2|0,3:2|0:2,0:2:0:0:
405,284,38765,1,0,3:2:0:0:
373,123,38965,2,0,P|329:233|439:277,1,140,2|0,3:2|3:2,0:2:0:0:
406,200,39565,1,0,3:2:0:0:
450,90,39765,1,0,3:2:0:0:
450,90,39965,6,0,L|441:10,4,35,2|2|2|2|2,0:2|0:3|0:3|0:3|0:3,0:2:0:0:
373,123,40565,1,2,0:2:0:0:
303,76,40765,2,0,P|275:64|210:68,1,70,2|0,0:2|0:2,0:2:0:0:
185,129,41165,2,0,P|157:141|92:137,1,70,2|0,0:2|0:2,0:2:0:0:
29,101,41565,6,0,L|47:261,2,105,2|0|0,3:2|3:2|3:2,0:2:0:0:
97,52,42365,2,0,P|125:40|190:44,1,70,2|0,0:2|0:2,0:2:0:0:
302,70,42765,2,0,P|274:82|209:78,1,70,8|0,0:2|0:2,0:2:0:0:
379,8,43165,6,0,L|397:168,2,105,2|0|0,3:2|3:2|3:2,0:2:0:0:
463,16,43965,2,0,L|472:96,1,70,2|0,0:2|0:2,0:2:0:0:
462,238,44365,2,0,L|453:158,1,70,8|0,0:2|0:2,0:2:0:0:
511,306,44765,6,0,P|472:321|403:298,2,105,2|0|0,3:2|3:2|3:2,0:2:0:0:
462,238,45565,2,0,L|453:158,1,70,2|0,0:2|0:2,0:2:0:0:
463,16,45965,2,0,L|472:96,1,70,8|0,0:2|0:2,0:2:0:0:
371,152,46365,6,0,P|332:167|263:144,2,105,2|0|0,3:2|3:2|3:2,0:2:0:0:
322,84,47165,2,0,P|264:68|204:103,1,70,2|0,0:2|0:2,0:2:0:0:
127,111,47565,2,0,P|185:127|245:92,1,70,8|0,0:2|0:2,0:2:0:0:
48,67,47965,6,0,L|39:147,1,70,2|0,3:2|0:2,0:2:0:0:
67,170,48265,1,0,3:2:0:0:
67,170,48365,2,0,L|58:250,2,70,2|0|0,0:2|3:2|0:2,0:2:0:0:
127,111,48965,1,2,3:2:0:0:
187,170,49165,2,0,L|196:250,1,70,8|0,0:2|3:2,0:2:0:0:
251,364,49565,6,0,L|260:284,1,70,2|0,3:2|0:2,0:2:0:0:
292,268,49865,1,0,3:2:0:0:
292,268,49965,2,0,L|301:188,2,70,2|0|0,0:2|3:2|0:2,0:2:0:0:
351,327,50565,1,2,3:2:0:0:
410,268,50765,2,0,L|401:188,1,70,8|0,0:2|3:2,0:2:0:0:
262,46,51165,6,0,P|242:80|239:120,1,70,2|0,3:2|3:2,0:2:0:0:
402,198,51565,2,0,P|368:178|328:175,1,70,10|0,0:2|3:2,0:2:0:0:
250,338,51965,2,0,P|270:304|273:264,1,70,10|0,0:2|3:2,0:2:0:0:
110,186,52365,2,0,P|144:206|184:209,1,70,10|0,0:2|3:2,0:2:0:0:
338,174,52765,5,10,3:2:0:0:
238,110,52965,1,10,3:2:0:0:
174,210,53165,1,10,3:2:0:0:
274,274,53365,1,10,3:2:0:0:
256,192,53565,5,10,3:2:0:0:
266,182,53965,5,10,3:2:0:0:
276,172,54365,6,0,P|335:146|477:148,1,161.000003070831,6|8,3:2|0:2,0:2:0:0:
512,172,54965,2,0,L|503:252,1,80.5000015354157,2|0,0:2|3:2,0:2:0:0:
433,307,55365,2,0,P|394:316|355:307,1,80.5000015354157,2|8,0:2|0:2,0:2:0:0:
285,252,55765,6,0,L|276:172,1,80.5000015354157,2|0,0:2|3:2,0:2:0:0:
206,117,56165,2,0,P|167:108|128:117,1,80.5000015354157,2|8,0:2|0:2,0:2:0:0:
58,172,56565,2,0,L|49:252,1,80.5000015354157,2|0,0:2|3:2,0:2:0:0:
112,314,56965,1,2,0:2:0:0:
197,290,57165,1,8,0:2:0:0:
219,204,57365,1,0,0:2:0:0:
260,352,57565,6,0,P|333:383|456:358,1,161.000003070831,2|8,3:2|0:2,0:2:0:0:
493,340,58165,2,0,L|484:260,1,80.5000015354157,2|0,0:2|3:2,0:2:0:0:
409,212,58565,2,0,L|418:132,1,80.5000015354157,2|8,0:2|0:2,0:2:0:0:
457,53,58965,1,2,0:2:0:0:
457,53,59165,6,0,B|418:36|379:53|379:53|340:70|301:53,1,161.000003070831,0|8,3:2|0:2,0:2:0:0:
230,0,59765,1,2,0:2:0:0:
220,88,59965,1,2,3:2:0:0:
291,141,60165,1,2,3:2:0:0:
281,229,60365,1,10,0:2:0:0:
200,264,60565,1,10,0:2:0:0:
200,264,60765,6,0,P|122:166|220:88,1,161.000003070831,0|8,3:2|0:2,0:2:0:0:
210,176,61365,1,2,0:2:0:0:
281,229,61565,2,0,L|290:309,1,80.5000015354157,2|0,3:2|0:2,0:2:0:0:
361,362,61965,1,10,0:2:0:0:
432,309,62165,1,2,0:2:0:0:
432,309,62365,6,0,B|445:194|445:194|395:124,1,161.000003070831,0|8,3:2|0:2,0:2:0:0:
360,90,62965,1,2,0:2:0:0:
331,174,63165,2,0,P|294:191|255:197,1,80.5000015354157,2|0,3:2|0:2,0:2:0:0:
166,197,63565,2,0,P|127:191|90:174,1,80.5000015354157,10|0,0:2|0:2,0:2:0:0:
11,57,63965,6,0,B|28:96|11:135|11:135|-6:174|11:213,1,161.000003070831,2|8,3:2|0:2,0:2:0:0:
64,285,64565,2,0,L|144:276,1,80.5000015354157,2|0,0:2|3:2,0:2:0:0:
192,130,64965,5,10,0:2:0:0:
210,217,65165,1,10,0:2:0:0:
228,304,65365,2,0,L|308:295,1,80.5000015354157,2|0,3:2|3:2,0:2:0:0:
356,149,65765,5,2,3:2:0:0:
374,236,65965,1,10,0:2:0:0:
392,323,66165,1,2,3:2:0:0:
392,323,66365,6,0,L|472:314,3,40.2500007677078,2|8|0|8,3:2|0:2|3:2|0:2,0:2:0:0:
452,278,66765,2,0,L|532:269,3,40.2500007677078,10|8|8|8,3:2|3:2|3:2|3:2,0:2:0:0:
512,233,67165,6,0,P|509:144|461:51,1,161.000003070831,6|8,3:2|0:2,0:2:0:0:
421,13,67765,2,0,L|341:22,1,80.5000015354157,2|0,0:2|3:2,0:2:0:0:
277,84,68165,2,0,L|197:75,1,80.5000015354157,2|8,0:2|0:2,0:2:0:0:
101,16,68565,6,0,L|110:96,1,80.5000015354157,2|0,0:2|3:2,0:2:0:0:
172,160,68965,2,0,L|163:240,1,80.5000015354157,2|8,0:2|0:2,0:2:0:0:
101,304,69365,2,0,L|110:384,2,80.5000015354157,2|0|0,0:2|3:2|0:2,0:2:0:0:
163,240,69965,2,0,P|224:242|265:273,1,80.5000015354157,10|0,0:2|0:2,0:2:0:0:
378,285,70365,6,0,P|293:325|304:435,1,161.000003070831,2|8,3:2|0:2,0:2:0:0:
367,373,70965,2,0,L|447:382,1,80.5000015354157,2|0,0:2|3:2,0:2:0:0:
504,314,71365,2,0,P|506:277|494:226,1,80.5000015354157,2|8,0:2|0:2,0:2:0:0:
425,182,71765,1,2,0:2:0:0:
425,182,71965,6,0,B|388:208|388:208|273:195,1,161.000003070831,0|8,3:2|0:2,0:2:0:0:
202,142,72565,1,2,0:2:0:0:
121,177,72765,1,2,3:2:0:0:
192,230,72965,1,2,3:2:0:0:
111,265,73165,1,10,0:2:0:0:
182,318,73365,1,10,0:2:0:0:
182,318,73565,6,0,P|58:336|40:212,1,161.000003070831,0|8,3:2|0:2,0:2:0:0:
28,233,74165,1,2,0:2:0:0:
97,177,74365,2,0,L|88:97,1,80.5000015354157,2|0,3:2|0:2,0:2:0:0:
157,41,74765,1,10,0:2:0:0:
226,97,74965,1,2,0:2:0:0:
226,97,75165,6,0,P|318:97|408:52,1,161.000003070831,0|8,3:2|0:2,0:2:0:0:
444,9,75765,1,2,0:2:0:0:
466,95,75965,2,0,L|457:175,1,80.5000015354157,2|0,3:2|0:2,0:2:0:0:
394,237,76365,2,0,L|403:317,1,80.5000015354157,10|0,0:2|0:2,0:2:0:0:
316,195,76765,6,0,P|279:181|195:195,1,80.5000015354157,2|0,3:2|0:2,0:2:0:0:
152,198,77165,1,10,0:2:0:0:
202,344,77365,2,0,L|211:264,1,80.5000015354157,2|0,3:2|0:2,0:2:0:0:
152,198,77765,2,0,L|143:118,1,80.5000015354157,2|8,3:2|0:2,0:2:0:0:
193,44,78165,1,2,3:2:0:0:
269,89,78365,6,0,P|320:85|374:50,1,80.5000015354157,0|0,3:2|3:2,0:2:0:0:
474,16,78765,2,0,P|436:1|396:0,1,80.5000015354157,8|0,0:2|3:2,0:2:0:0:
409,136,79165,2,0,L|400:216,3,40.2500007677078,2|8|0|8,3:2|0:2|3:2|0:2,0:2:0:0:
437,206,79565,2,0,L|446:286,3,40.2500007677078,10|8|8|8,3:2|3:2|3:2|3:2,0:2:0:0:
409,276,79965,6,0,P|338:296|245:274,1,140,2|0,3:2|3:2,0:2:0:0:
252,17,80765,2,0,P|305:68|332:160,1,140,2|0,3:2|3:2,0:2:0:0:
106,282,81565,6,0,P|124:211|190:141,1,140,2|0,3:2|3:2,0:2:0:0:
242,138,82165,1,2,0:2:0:0:
242,138,82365,2,0,L|322:147,1,70,0|0,3:2|0:2,0:2:0:0:
354,214,82765,2,0,L|434:205,1,70,2|0,3:2|0:2,0:2:0:0:
466,137,83165,6,0,P|463:74|424:-5,1,140,2|0,3:2|3:2,0:2:0:0:
308,107,83965,1,2,3:2:0:0:
308,107,84165,2,0,L|228:116,1,70,2|0,0:2|3:2,0:2:0:0:
168,75,84565,1,2,0:2:0:0:
168,75,84765,6,0,P|154:46|152:0,2,70,0|0|0,3:2|0:2|3:2,0:2:0:0:
168,155,85365,1,2,0:2:0:0:
168,155,85565,2,0,P|154:184|152:230,2,70,0|0|0,3:2|0:2|3:2,0:2:0:0:
238,115,86165,1,2,0:2:0:0:
238,115,86365,6,0,B|281:140|281:140|416:125,1,140,0|0,3:2|3:2,0:2:0:0:
428,187,86965,1,2,0:2:0:0:
428,187,87165,2,0,P|438:230|425:281,1,70,0|0,3:2|0:2,0:2:0:0:
392,323,87565,2,0,L|312:332,1,70,2|0,3:2|0:2,0:2:0:0:
252,291,87965,6,0,L|172:282,2,70,0|0|0,3:2|0:2|3:2,0:2:0:0:
252,371,88565,1,2,0:2:0:0:
252,371,88765,2,0,L|172:380,2,70,0|0|0,3:2|0:2|3:2,0:2:0:0:
322,331,89365,1,2,0:2:0:0:
260,221,89565,6,0,L|251:301,1,70,2|0,3:2|3:2,0:2:0:0:
308,156,89965,2,0,L|317:76,1,70,2|0,3:2|3:2,0:2:0:0:
180,212,90365,2,0,L|171:292,1,70,2|0,3:2|3:2,0:2:0:0:
228,147,90765,1,2,3:2:0:0:
140,68,90965,6,0,L|149:148,1,70,2|0,3:2|0:2,0:2:0:0:
180,212,91365,1,2,3:2:0:0:
260,221,91565,1,2,3:2:0:0:
340,225,91765,1,2,3:2:0:0:
340,225,91965,6,0,L|349:305,4,35,2|2|2|2|2,0:2|0:3|0:3|0:3|0:3,0:2:0:0:
364,148,92565,1,2,0:2:0:0:
419,207,92765,6,0,P|432:261|419:343,2,140,2|0|0,3:2|3:2|3:2,0:2:0:0:
235,275,93965,1,2,3:2:0:0:
180,216,94165,1,2,0:2:0:0:
180,216,94365,6,0,P|167:162|180:80,2,140,0|0|0,3:2|3:2|3:2,0:2:0:0:
364,148,95565,1,2,3:2:0:0:
419,207,95765,1,2,0:2:0:0:
419,207,95965,6,0,P|432:261|419:343,2,140,0|0|0,3:2|3:2|3:2,0:2:0:0:
235,275,97165,1,2,3:2:0:0:
180,216,97365,1,2,0:2:0:0:
180,216,97565,6,0,P|167:162|180:80,1,140,2|0,3:2|3:2,0:2:0:0:
333,30,98365,2,0,L|413:39,2,70,2|0|0,3:2|0:2|3:2,0:2:0:0:
269,80,98965,1,2,0:2:0:0:
269,80,99065,1,0,0:2:0:0:
269,80,99165,6,0,P|256:134|269:216,1,140,2|0,3:2|3:2,0:2:0:0:
395,344,99965,2,0,L|315:335,1,70,2|0,3:2|0:2,0:2:0:0:
256,296,100365,1,0,3:2:0:0:
186,336,100565,6,0,L|106:345,1,70,2|0,0:2|3:2,0:2:0:0:
50,297,100965,2,0,P|35:263|35:215,1,70,2|0,0:2|3:2,0:2:0:0:
92,176,101365,2,0,P|107:142|107:94,1,70,2|0,3:2|0:2,0:2:0:0:
92,31,101765,1,2,3:2:0:0:
171,14,101965,1,0,3:2:0:0:
92,31,102165,1,2,0:2:0:0:
188,93,102365,6,0,L|268:102,1,70,2|0,3:2|0:2,0:2:0:0:
329,66,102765,1,0,3:2:0:0:
268,181,102965,2,0,P|285:246|347:276,1,140,2|0,3:2|3:2,0:2:0:0:
427,196,103565,1,0,3:2:0:0:
347,196,103765,1,0,3:2:0:0:
427,276,103965,6,0,P|489:246|506:181,1,140,2|0,3:2|3:2,0:2:0:0:
419,126,104565,2,0,L|428:206,2,70,2|0|0,3:2|0:2|0:2,0:2:0:0:
374,3,105165,1,2,3:2:0:0:
352,81,105365,1,0,3:2:0:0:
492,89,105565,6,0,B|484:19|484:19|440:-10,2,105,2|0|0,3:2|3:2|3:2,0:2:0:0:
419,126,106365,2,0,P|405:156|405:204,1,70,2|0,0:2|0:2,0:2:0:0:
456,301,106765,2,0,P|469:270|470:223,1,70,8|0,0:2|0:2,0:2:0:0:
407,375,107165,6,0,B|477:383|477:383|531:347,2,105,2|0|0,3:2|3:2|3:2,0:2:0:0:
376,300,107965,2,0,P|345:286|298:286,1,70,2|0,0:2|0:2,0:2:0:0:
201,337,108365,2,0,P|231:350|279:351,1,70,8|0,0:2|0:2,0:2:0:0:
152,273,108765,6,0,P|125:310|135:383,2,105,2|0|0,3:2|3:2|3:2,0:2:0:0:
232,263,109565,2,0,L|241:183,1,70,2|0,0:2|0:2,0:2:0:0:
193,56,109965,2,0,L|184:136,1,70,8|0,0:2|0:2,0:2:0:0:
320,206,110365,6,0,P|377:208|414:181,2,105,2|0|0,3:2|3:2|3:2,0:2:0:0:
349,131,111165,2,0,L|269:122,1,70,2|0,0:2|0:2,0:2:0:0:
142,170,111565,2,0,L|222:179,1,70,8|0,0:2|0:2,0:2:0:0:
224,64,111965,6,0,L|144:55,1,70,2|0,3:2|0:2,0:2:0:0:
121,83,112265,1,0,3:2:0:0:
121,83,112365,2,0,L|41:74,2,70,2|0|0,0:2|3:2|0:2,0:2:0:0:
180,143,112965,1,2,3:2:0:0:
121,203,113165,2,0,L|41:212,1,70,8|0,0:2|3:2,0:2:0:0:
180,263,113565,6,0,L|260:272,1,70,2|0,3:2|0:2,0:2:0:0:
283,244,113865,1,0,3:2:0:0:
283,244,113965,2,0,L|363:253,2,70,2|0|0,0:2|3:2|0:2,0:2:0:0:
224,184,114565,1,2,3:2:0:0:
283,124,114765,2,0,L|363:115,1,70,8|0,0:2|3:2,0:2:0:0:
479,61,115165,5,2,3:2:0:0:
512,134,115365,1,2,3:2:0:0:
457,267,115565,2,0,L|466:187,1,70,2|0,3:2|3:2,0:2:0:0:
399,52,115965,5,2,3:2:0:0:
432,125,116165,1,2,3:2:0:0:
377,258,116365,2,0,L|386:178,1,70,2|0,3:2|3:2,0:2:0:0:
319,43,116765,5,10,3:2:0:0:
319,43,117565,5,10,3:2:0:0:
309,33,117965,5,10,3:2:0:0:
299,23,118365,6,0,P|220:10|141:23,1,161.000003070831,6|8,3:2|0:2,0:2:0:0:
88,94,118965,2,0,L|79:174,1,80.5000015354157,2|0,0:2|3:2,0:2:0:0:
143,236,119365,2,0,P|182:245|221:236,1,80.5000015354157,2|8,0:2|0:2,0:2:0:0:
285,174,119765,6,0,L|276:94,1,80.5000015354157,2|0,0:2|3:2,0:2:0:0:
340,32,120165,2,0,P|379:23|418:32,1,80.5000015354157,2|8,0:2|0:2,0:2:0:0:
482,94,120565,2,0,L|473:174,1,80.5000015354157,2|0,0:2|3:2,0:2:0:0:
392,209,120965,1,2,0:2:0:0:
382,297,121165,1,8,0:2:0:0:
453,350,121365,1,0,0:2:0:0:
301,332,121565,6,0,B|262:315|223:332|223:332|184:349|145:332,1,161.000003070831,2|8,3:2|0:2,0:2:0:0:
89,262,122165,2,0,L|98:182,1,80.5000015354157,2|0,0:2|3:2,0:2:0:0:
172,133,122565,2,0,L|163:53,1,80.5000015354157,2|8,0:2|0:2,0:2:0:0:
245,20,122965,1,2,0:2:0:0:
245,20,123165,6,0,P|360:69|311:184,1,161.000003070831,0|8,3:2|0:2,0:2:0:0:
278,102,123765,1,2,0:2:0:0:
290,189,123965,1,2,3:2:0:0:
377,177,124165,1,2,3:2:0:0:
389,264,124365,1,10,0:2:0:0:
302,276,124565,1,10,0:2:0:0:
302,276,124765,6,0,B|187:263|187:263|91:327,1,161.000003070831,0|8,3:2|0:2,0:2:0:0:
76,338,125365,1,2,0:2:0:0:
26,265,125565,2,0,P|13:237|8:179,1,80.5000015354157,2|0,3:2|0:2,0:2:0:0:
53,112,125965,1,10,0:2:0:0:
132,150,126165,1,2,0:2:0:0:
132,150,126365,6,0,B|171:167|210:150|210:150|249:133|288:150,1,161.000003070831,0|8,3:2|0:2,0:2:0:0:
337,224,126965,1,2,0:2:0:0:
249,229,127165,2,0,P|232:273|235:337,1,80.5000015354157,2|0,3:2|0:2,0:2:0:0:
275,382,127565,2,0,L|355:373,1,80.5000015354157,10|0,0:2|0:2,0:2:0:0:
511,307,127965,6,0,B|396:294|396:294|356:228,1,161.000003070831,2|8,3:2|0:2,0:2:0:0:
362,167,128565,2,0,L|442:158,1,80.5000015354157,2|0,3:2|0:2,0:2:0:0:
284,265,128965,5,2,3:2:0:0:
274,177,129165,1,10,0:2:0:0:
264,89,129365,2,0,L|344:80,1,80.5000015354157,10|0,0:2|3:2,0:2:0:0:
186,187,129765,5,2,3:2:0:0:
176,99,129965,1,10,0:2:0:0:
166,11,130165,1,2,3:2:0:0:
166,11,130365,6,0,L|246:2,3,40.2500007677078,2|8|0|8,3:2|0:2|3:2|0:2,0:2:0:0:
239,37,130765,2,0,L|319:28,3,40.2500007677078,10|8|8|8,3:2|3:2|3:2|3:2,0:2:0:0:
312,63,131165,6,0,P|336:128|338:234,1,161.000003070831,6|8,3:2|0:2,0:2:0:0:
284,287,131765,2,0,L|204:278,1,80.5000015354157,2|0,0:2|3:2,0:2:0:0:
141,215,132165,2,0,L|61:224,1,80.5000015354157,2|8,0:2|0:2,0:2:0:0:
61,350,132565,6,0,L|141:341,1,80.5000015354157,2|0,0:2|3:2,0:2:0:0:
204,278,132965,2,0,L|284:287,1,80.5000015354157,2|8,0:2|0:2,0:2:0:0:
347,350,133365,2,0,L|427:341,2,80.5000015354157,2|0|0,0:2|3:2|0:2,0:2:0:0:
284,287,133965,2,0,P|287:246|309:195,1,80.5000015354157,10|0,0:2|0:2,0:2:0:0:
417,130,134365,6,0,B|378:147|339:130|339:130|300:113|261:130,1,161.000003070831,2|8,3:2|0:2,0:2:0:0:
212,204,134965,2,0,L|132:213,1,80.5000015354157,2|0,0:2|3:2,0:2:0:0:
70,149,135365,2,0,P|74:87|91:41,1,80.5000015354157,2|8,0:2|0:2,0:2:0:0:
147,13,135765,1,2,0:2:0:0:
147,13,135965,6,0,B|184:39|184:39|299:26,1,161.000003070831,0|8,3:2|0:2,0:2:0:0:
387,16,136565,1,2,0:2:0:0:
440,87,136765,1,2,3:2:0:0:
352,97,136965,1,2,3:2:0:0:
317,178,137165,1,10,0:2:0:0:
370,249,137365,1,10,0:2:0:0:
370,249,137565,6,0,P|246:231|264:107,1,161.000003070831,0|8,3:2|0:2,0:2:0:0:
247,124,138165,1,2,0:2:0:0:
166,86,138365,2,0,L|86:95,1,80.5000015354157,2|0,3:2|0:2,0:2:0:0:
16,150,138765,1,10,0:2:0:0:
41,234,138965,1,2,0:2:0:0:
41,234,139165,6,0,P|114:299|224:301,1,161.000003070831,0|8,3:2|0:2,0:2:0:0:
249,263,139765,1,2,0:2:0:0:
324,311,139965,2,0,L|404:302,1,80.5000015354157,2|0,3:2|0:2,0:2:0:0:
480,256,140365,2,0,P|488:167|450:127,1,80.5000015354157,10|0,0:2|0:2,0:2:0:0:
368,69,140765,6,0,P|441:120|494:107,1,80.5000015354157,2|0,3:2|0:2,0:2:0:0:
512,92,141165,1,10,0:2:0:0:
408,205,141365,2,0,L|399:285,1,80.5000015354157,2|0,3:2|0:2,0:2:0:0:
484,259,141765,2,0,L|493:179,1,80.5000015354157,2|8,3:2|0:2,0:2:0:0:
428,118,142165,1,2,3:2:0:0:
343,144,142365,6,0,P|309:159|231:155,1,80.5000015354157,0|0,3:2|3:2,0:2:0:0:
115,133,142765,2,0,P|149:118|227:122,1,80.5000015354157,8|0,0:2|3:2,0:2:0:0:
31,164,143165,2,0,L|22:84,3,40.2500007677078,2|8|0|8,3:2|0:2|3:2|0:2,0:2:0:0:
43,82,143565,2,0,L|34:2,3,40.2500007677078,10|8|8|8,3:2|3:2|3:2|3:2,0:2:0:0:
55,0,143965,6,0,L|135:9,1,80.5000015354157,6|0,3:2|0:2,0:2:0:0:
190,78,144365,2,0,L|270:69,1,80.5000015354157,10|0,0:2|0:2,0:2:0:0:
349,30,144765,2,0,B|366:69|349:108|349:108|332:147|349:186,1,161.000003070831,2|8,3:2|0:2,0:2:0:0:
107,108,145565,6,0,B|90:147|107:186|107:186|124:225|107:264,1,161.000003070831,2|8,3:2|0:2,0:2:0:0:
349,186,146365,2,0,B|366:225|349:264|349:264|332:303|349:342,1,161.000003070831,2|8,3:2|0:2,0:2:0:0:
107,264,147165,6,0,B|124:225|107:186|107:186|90:147|107:108,1,161.000003070831,2|8,3:2|0:2,0:2:0:0:
169,46,147765,2,0,B|208:29|247:46|247:46|286:63|325:46,1,161.000003070831,0|0,3:2|3:2,0:2:0:0:
404,7,148365,1,8,0:2:0:0:
466,69,148565,1,0,3:2:0:0:
427,148,148765,6,0,P|432:196|462:243,1,80.5000015354157,2|0,3:2|3:2,0:2:0:0:
512,283,149165,2,0,P|507:331|477:378,1,80.5000015354157,8|0,0:2|3:2,0:2:0:0:
407,383,149565,2,0,L|327:374,3,40.2500007677078,2|8|0|8,3:2|0:2|3:2|0:2,0:2:0:0:
335,346,149965,2,0,L|255:355,3,40.2500007677078,10|8|8|8,3:2|3:2|3:2|3:2,0:2:0:0:
256,372,150365,5,2,0:2:0:0:
76,192,151965,5,2,0:2:0:0:
256,12,153565,5,2,0:2:0:0:
436,192,155165,5,2,0:2:0:0:
256,192,155965,1,2,0:2:0:0:
76,192,156765,6,0,P|78:268|100:325,1,125.999996154785,2|0,0:2|0:2,0:2:0:0:
160,368,157565,2,0,L|240:359,1,41.9999987182618,2|0,0:2|0:2,0:2:0:0:
268,311,157965,2,0,L|348:320,1,41.9999987182618,2|0,0:2|0:2,0:2:0:0:
377,265,158365,6,0,P|375:189|353:132,1,125.999996154785,2|0,0:2|0:2,0:2:0:0:
293,89,159165,2,0,L|213:98,1,41.9999987182618,2|0,0:2|0:2,0:2:0:0:
185,146,159565,2,0,L|105:137,1,41.9999987182618,2|0,0:2|0:2,0:2:0:0:
65,109,159965,6,0,P|53:63|89:29,1,83.9999974365235,2|0,0:2|0:2,0:2:0:0:
156,24,160565,2,0,L|236:33,1,41.9999987182618,2|0,0:2|0:2,0:2:0:0:
251,94,160965,2,0,L|331:85,1,41.9999987182618,2|0,0:2|0:2,0:2:0:0:
371,2,161365,6,0,B|360:31|371:60|371:60|382:89|371:118,1,119.000002269745,2|0,0:2|0:2,0:2:0:0:
307,172,161965,2,0,L|316:252,1,59.5000011348725,2|0,0:2|0:2,0:2:0:0:
382,279,162365,2,0,L|373:359,1,59.5000011348725,2|0,0:2|0:2,0:2:0:0:
300,376,162765,2,0,L|220:385,3,29.7500005674362,2|2|2|2,0:2|0:3|0:3|0:3,0:2:0:0:
232,356,163165,6,0,P|207:299|204:201,1,161.000003070831,6|8,3:2|0:2,0:2:0:0:
248,125,163765,2,0,L|328:134,1,80.5000015354157,2|0,0:2|3:2,0:2:0:0:
397,190,164165,2,0,L|477:181,1,80.5000015354157,2|8,0:2|0:2,0:2:0:0:
512,99,164565,6,0,P|506:52|476:12,1,80.5000015354157,2|0,0:2|3:2,0:2:0:0:
403,0,164965,2,0,L|323:9,1,80.5000015354157,2|8,0:2|0:2,0:2:0:0:
254,65,165365,2,0,L|174:56,2,80.5000015354157,2|0|0,0:2|3:2|0:2,0:2:0:0:
294,144,165965,2,0,P|288:191|258:231,1,80.5000015354157,10|0,0:2|0:2,0:2:0:0:
154,298,166365,6,0,B|193:281|232:298|232:298|271:315|310:298,1,161.000003070831,2|8,3:2|0:2,0:2:0:0:
387,254,166965,2,0,L|378:174,1,80.5000015354157,2|0,0:2|3:2,0:2:0:0:
294,144,167365,2,0,L|303:64,1,80.5000015354157,2|8,0:2|0:2,0:2:0:0:
380,19,167765,1,2,0:2:0:0:
380,19,167965,6,0,P|456:46|480:117,1,161.000003070831,0|8,3:2|0:2,0:2:0:0:
427,188,168565,1,2,0:2:0:0:
339,178,168765,1,2,3:2:0:0:
304,97,168965,1,2,3:2:0:0:
216,87,169165,1,10,0:2:0:0:
163,158,169365,1,10,0:2:0:0:
163,158,169565,6,0,B|150:273|150:273|216:373,1,161.000003070831,0|8,3:2|0:2,0:2:0:0:
226,383,170165,1,2,0:2:0:0:
298,332,170365,2,0,P|337:323|376:332,1,80.5000015354157,2|0,3:2|0:2,0:2:0:0:
448,383,170765,1,10,0:2:0:0:
499,311,170965,1,2,0:2:0:0:
427,260,171165,6,0,P|410:175|427:104,1,161.000003070831,0|8,3:2|0:2,0:2:0:0:
499,53,171765,1,2,0:2:0:0:
419,15,171965,2,0,L|339:24,1,80.5000015354157,2|0,3:2|0:2,0:2:0:0:
276,86,172365,2,0,L|196:77,1,80.5000015354157,10|0,0:2|0:2,0:2:0:0:
53,148,172765,6,0,L|133:139,1,80.5000015354157,2|0,3:2|0:2,0:2:0:0:
218,163,173165,1,10,0:2:0:0:
146,305,173365,2,0,L|155:225,1,80.5000015354157,10|0,0:2|0:2,0:2:0:0:
303,187,173765,1,2,3:2:0:0:
218,163,173965,1,8,0:2:0:0:
366,125,174165,6,0,L|375:45,1,80.5000015354157,2|0,3:2|0:2,0:2:0:0:
298,1,174565,1,0,3:2:0:0:
166,78,174765,1,8,0:2:0:0:
254,78,174965,1,0,3:2:0:0:
122,1,175165,2,0,L|42:10,3,40.2500007677078,2|8|0|8,3:2|0:2|3:2|0:2,0:2:0:0:
52,39,175565,2,0,L|-28:48,3,40.2500007677078,10|8|8|8,3:2|3:2|3:2|3:2,0:2:0:0:
0,87,175965,6,0,P|1:133|21:177,1,80.5000015354157,6|0,3:2|0:2,0:2:0:0:
83,219,176365,2,0,P|82:265|62:309,1,80.5000015354157,10|0,0:2|0:2,0:2:0:0:
146,349,176765,2,0,P|227:334|316:248,1,161.000003070831,2|8,3:2|0:2,0:2:0:0:
175,18,177565,6,0,P|147:95|177:215,1,161.000003070831,2|8,3:2|0:2,0:2:0:0:
446,208,178365,2,0,P|393:146|274:112,1,161.000003070831,2|8,3:2|0:2,0:2:0:0:
289,288,179165,6,0,L|209:297,1,80.5000015354157,2|0,3:2|0:2,0:2:0:0:
160,371,179565,2,0,L|80:362,1,80.5000015354157,10|0,0:2|0:2,0:2:0:0:
66,274,179965,2,0,P|81:193|167:104,1,161.000003070831,2|8,3:2|0:2,0:2:0:0:
386,131,180765,6,0,P|431:193|446:274,1,161.000003070831,2|8,3:2|0:2,0:2:0:0:
432,362,181365,1,2,0:2:0:0:
363,307,181565,2,0,L|283:316,1,80.5000015354157,2|0,3:2|3:2,0:2:0:0:
214,261,181965,1,10,0:2:0:0:
245,179,182165,1,10,0:2:0:0:
176,124,182365,6,0,B|61:137|61:137|15:210,1,161.000003070831,0|8,3:2|0:2,0:2:0:0:
80,253,182965,1,2,0:2:0:0:
80,253,183165,2,0,B|195:240|195:240|241:167,1,161.000003070831,0|8,3:2|0:2,0:2:0:0:
265,125,183765,1,2,0:2:0:0:
265,125,183965,6,0,L|256:45,2,80.5000015354157,0|0|8,3:2|0:2|0:2,0:2:0:0:
308,203,184565,1,2,0:2:0:0:
308,203,184765,2,0,L|299:283,2,80.5000015354157,0|0|8,3:2|0:2|0:2,0:2:0:0:
64,320,185565,6,0,P|132:361|212:372,1,161.000003070831,2|8,3:2|0:2,0:2:0:0:
300,372,186165,2,0,P|380:361|448:320,1,161.000003070831,2|0,3:2|3:2,0:2:0:0:
498,247,186765,1,10,0:2:0:0:
460,167,186965,1,0,3:2:0:0:
372,160,187165,6,0,P|330:166|284:198,1,80.5000015354157,2|0,3:2|3:2,0:2:0:0:
248,258,187565,2,0,P|206:252|160:220,1,80.5000015354157,10|0,0:2|3:2,0:2:0:0:
90,203,187965,2,0,L|81:283,3,40.2500007677078,2|8|0|8,3:2|0:2|3:2|0:2,0:2:0:0:
102,285,188365,2,0,L|93:365,3,40.2500007677078,10|8|8|8,3:2|3:2|3:2|3:2,0:2:0:0:
114,367,188765,5,2,3:2:0:0:
256,192,188865,12,0,193065,0:2:0:0:
