osu file format v14

[General]
AudioFilename: audio.mp3
AudioLeadIn: 0
PreviewTime: 53540
Countdown: 1
SampleSet: Soft
StackLeniency: 0.5
Mode: 0
LetterboxInBreaks: 0
EpilepsyWarning: 1
WidescreenStoryboard: 1

[Editor]
Bookmarks: 29165,52765,92565,118765
DistanceSpacing: 1.2
BeatDivisor: 4
GridSize: 4
TimelineZoom: 1.5

[Metadata]
Title:Yong Heng Shan Yao
TitleUnicode:永恒闪耀
Artist:Zhou Zi Qi
ArtistUnicode:周梓琦
Creator:Ryuusei Aika
Version:Mei's Normal
Source:凹凸世界
Tags:Mei Pata-Mon AIR Muziyami Chinese Pop CPop C-Pop Female Vocal AOTU World 金 ジン Jin 7doc 七创社 王雪野 杨秉音 林峰 李得 Tekilen 秉音创声
BeatmapID:3309925
BeatmapSetID:959797

[Difficulty]
HPDrainRate:4
CircleSize:3
OverallDifficulty:4
ApproachRate:5
SliderMultiplier:1
SliderTickRate:1

[Events]
//Background and Video events
0,0,"BG.jpg",0,0
//Break Periods
2,15964,27365
2,82565,91365
2,150565,161965
//Storyboard Layer 0 (Background)
//Storyboard Layer 1 (Fail)
//Storyboard Layer 2 (Pass)
//Storyboard Layer 3 (Foreground)
//Storyboard Layer 4 (Overlay)
//Storyboard Sound Samples

[TimingPoints]
-3235,400,4,2,1,60,1,0
3165,-100,4,2,2,70,0,0
3765,-100,4,2,1,70,0,0
4765,-100,4,2,2,70,0,0
5565,-100,4,2,1,70,0,0
6365,-100,4,2,2,70,0,0
7165,-100,4,2,1,70,0,0
7965,-100,4,2,3,70,0,0
9165,-100,4,2,1,70,0,0
9565,-100,4,2,2,70,0,0
11765,-100,4,2,3,70,0,0
12365,-100,4,2,1,70,0,0
12765,-100,4,2,3,70,0,0
13965,-100,4,2,1,70,0,0
14165,-100,4,2,3,70,0,0
15965,-100,4,2,1,60,0,0
28765,-111.111111111111,4,2,1,70,0,0
54365,-100,4,2,2,80,0,1
63965,-100,4,2,1,80,0,1
67165,-100,4,2,2,80,0,1
76765,-100,4,2,1,80,0,1
79965,-100,4,2,2,70,0,0
82365,-111.111111111111,4,2,1,70,0,0
118365,-100,4,2,2,80,0,1
130365,-100,4,2,1,80,0,1
131165,-100,4,2,2,80,0,1
140765,-100,4,2,1,80,0,1
143965,-100,4,2,2,70,0,0
150365,-100,4,2,1,60,0,0
163165,-100,4,2,2,80,0,1
173765,-100,4,2,1,80,0,1
175965,-100,4,2,2,80,0,1
179165,-100,4,2,2,80,0,0
188765,-100,4,2,2,60,0,0

[Colours]
Combo1 : 191,96,0
Combo2 : 252,204,4
Combo3 : 255,159,64
Combo4 : 220,176,3

[HitObjects]
149,77,3165,6,0,P|128:129|123:182,1,100,8|8,3:2|0:1,0:0:0:0:
117,232,3765,2,0,P|179:243|227:237,1,100,0|0,3:0|3:0,0:0:0:0:
271,217,4365,1,2,0:1:0:0:
361,138,4765,2,0,L|470:155,1,100,2|8,3:1|0:1,0:0:0:0:
492,203,5365,2,0,P|497:243|498:303,1,100,0|2,3:0|3:2,0:0:0:0:
480,360,5965,1,2,0:1:0:0:
360,352,6365,6,0,L|251:335,1,100,8|8,3:0|0:1,0:0:0:0:
201,328,6965,2,0,L|92:311,1,100,0|2,3:0|3:2,0:0:0:0:
42,303,7565,1,2,0:1:0:0:
88,192,7965,2,0,L|84:132,2,50,2|8|8,3:0|0:1|0:1,0:0:0:0:
192,256,8765,1,10,3:1:0:0:
296,200,9165,1,2,0:1:0:0:
400,264,9565,6,0,L|468:248,2,50,8|8|8,3:0|0:1|0:1,0:0:0:0:
292,316,10365,1,8,0:1:0:0:
192,256,10765,1,6,0:3:0:0:
96,184,11165,2,0,L|36:176,2,50,8|8|8,3:0|0:1|0:1,0:0:0:0:
168,88,11965,1,2,0:2:0:0:
284,124,12365,1,2,3:1:0:0:
380,52,12765,6,0,L|384:-4,2,50,8|8|8,3:2|0:1|0:1,0:0:0:0:
492,92,13565,2,0,L|496:36,2,50,8|8|2,0:1|0:1|3:1,0:0:0:0:
488,152,14165,2,0,L|480:268,1,100,2|0,3:0|3:0,0:0:0:0:
480,312,14765,1,8,3:1:0:0:
372,264,15165,1,8,3:1:0:0:
256,296,15565,2,0,P|240:328|236:348,1,50,8|8,3:1|3:1,0:0:0:0:
150,129,28565,5,0,0:0:0:0:
201,112,28765,2,0,L|294:86,1,89.9999972534181,0|0,3:0|3:0,0:0:0:0:
389,124,29565,1,0,3:0:0:0:
445,215,29965,1,0,3:0:0:0:
440,268,30165,2,0,L|301:292,1,134.999995880127,0|0,0:0|3:0,0:0:0:0:
199,303,31165,1,0,3:0:0:0:
95,273,31565,1,0,3:0:0:0:
58,233,31765,6,0,P|46:171|61:92,1,134.999995880127,0|0,0:0|3:0,0:0:0:0:
152,49,32765,1,0,3:0:0:0:
252,88,33165,1,0,3:0:0:0:
305,81,33365,2,0,B|353:31|353:31|419:29,1,134.999995880127,0|0,0:0|3:0,0:0:0:0:
506,91,34365,2,0,L|461:189,1,89.9999972534181,0|0,0:0|3:0,0:0:0:0:
441,219,34965,1,0,0:0:0:0:
411,264,35165,6,0,P|355:272|312:256,1,89.9999972534181,0|0,3:0|3:0,0:0:0:0:
231,206,35965,1,0,3:0:0:0:
130,165,36365,1,0,3:0:0:0:
79,183,36565,2,0,P|71:251|78:320,1,134.999995880127,0|0,0:0|3:0,0:0:0:0:
84,370,37365,2,0,L|176:357,1,89.9999972534181,0|0,3:0|3:0,0:0:0:0:
280,345,38165,1,0,0:0:0:0:
333,339,38365,6,0,L|438:319,1,89.9999972534181,0|8,3:0|3:0,0:0:0:0:
475,318,38965,2,0,P|491:278|485:221,1,89.9999972534181,0|0,3:0|3:0,0:0:0:0:
483,178,39565,2,0,L|495:128,2,44.999998626709,2|0|8,3:1|0:0|3:2,0:0:0:0:
331,236,40565,5,0,0:0:0:0:
276,240,40765,2,0,L|232:244,1,44.999998626709
176,248,41165,2,0,L|128:252,2,44.999998626709,8|0|0,0:3|0:0|3:0,0:0:0:0:
188,88,42165,1,0,0:0:0:0:
243,84,42365,2,0,L|287:80,1,44.999998626709
343,76,42765,2,0,L|391:72,2,44.999998626709,8|0|0,0:3|0:0|3:0,0:0:0:0:
208,164,43765,5,0,3:0:0:0:
210,217,43965,2,0,L|214:265,1,44.999998626709
218,315,44365,2,0,L|222:359,2,44.999998626709,8|0|0,0:1|0:0|3:0,0:0:0:0:
372,264,45365,1,0,3:0:0:0:
368,212,45565,2,0,L|360:112,1,89.9999972534181
352,68,46165,1,0,0:0:0:0:
348,16,46365,6,0,P|308:12|160:16,1,179.999994506836,0|6,3:0|0:1,0:0:0:0:
44,120,47765,1,0,0:0:0:0:
28,172,47965,6,0,L|20:228,1,44.999998626709,0|0,3:0|0:0,0:0:0:0:
24,272,48365,2,0,L|32:328,1,44.999998626709,0|0,0:0|3:0,0:0:0:0:
128,364,48965,1,0,3:0:0:0:
180,352,49165,2,0,L|228:344,1,44.999998626709,0|0,0:0|3:0,0:0:0:0:
280,348,49565,2,0,L|388:364,1,89.9999972534181,0|0,3:0|3:0,0:0:0:0:
424,352,50165,1,0,0:0:0:0:
476,256,50565,2,0,P|476:204|472:152,1,89.9999972534181,0|0,3:0|3:0,0:0:0:0:
452,116,51165,6,0,B|368:148|368:148|304:128|304:128|236:148|236:148|172:120|172:120|104:152,1,359.999989013672,0|8,3:0|3:1,0:0:0:0:
228,328,53565,2,0,L|320:312,1,89.9999972534181,2|2,3:2|3:0,0:0:0:0:
432,348,54365,5,6,3:2:0:0:
460,232,54765,1,8,0:1:0:0:
476,172,54965,2,0,P|476:120|472:68,1,100
436,24,55565,1,8,0:1:0:0:
376,16,55765,2,0,L|264:8,1,100
220,32,56365,1,8,0:1:0:0:
164,60,56565,2,0,L|52:68,1,100
4,80,57165,1,8,0:1:0:0:
20,200,57565,5,0,3:0:0:0:
132,152,57965,1,8,0:1:0:0:
192,148,58165,2,0,P|196:200|188:256,1,100
148,288,58765,1,8,0:1:0:0:
156,348,58965,2,0,P|192:360|312:340,1,150,0|8,0:0|0:1,0:0:0:0:
348,312,59765,1,0,0:0:0:0:
404,292,59965,2,0,L|416:236,1,50,0|2,3:0|3:2,0:0:0:0:
440,188,60365,2,0,L|428:132,1,50,8|0,3:1|3:0,0:0:0:0:
408,84,60765,5,6,3:2:0:0:
299,32,61165,2,0,P|236:34|185:53,1,100,8|0,0:1|3:0,0:0:0:0:
141,52,61765,1,0,0:0:0:0:
85,69,61965,2,0,P|75:126|66:174,1,100,8|0,0:1|3:0,0:0:0:0:
36,283,62765,1,8,0:1:0:0:
72,330,62965,2,0,P|114:350|208:293,1,150,0|8,0:0|0:1,0:0:0:0:
298,240,63965,6,0,P|307:289|318:346,1,100,0|8,3:0|0:1,0:0:0:0:
376,338,64565,2,0,P|436:346|456:298,1,100,2|2,0:2|0:2,0:0:0:0:
469,260,65165,1,8,0:1:0:0:
462,200,65365,1,2,3:2:0:0:
370,122,65765,1,2,0:2:0:0:
382,63,65965,2,0,L|395:10,2,50,8|2|0,0:1|0:2|0:0,0:0:0:0:
262,62,66765,2,0,P|246:118|250:166,1,100,8|6,0:3|3:2,0:0:0:0:
166,246,67565,5,8,0:1:0:0:
163,305,67765,2,0,L|275:337,1,100
313,358,68365,1,8,0:1:0:0:
371,343,68565,2,0,L|475:327,1,100
512,286,69165,1,8,0:1:0:0:
503,226,69365,2,0,P|515:166|511:74,1,150,0|8,0:0|0:1,0:0:0:0:
403,24,70365,6,0,L|287:12,1,100,0|8,3:0|0:1,0:0:0:0:
252,44,70965,2,0,P|244:92|248:160,1,100
252,204,71565,1,8,0:1:0:0:
244,264,71765,2,0,P|156:300|116:268,1,150,0|8,0:0|0:1,0:0:0:0:
80,228,72565,1,0,0:0:0:0:
48,176,72765,2,0,L|44:112,1,50,0|2,3:0|3:2,0:0:0:0:
36,68,73165,2,0,L|96:52,1,50,8|0,3:1|3:0,0:0:0:0:
144,40,73565,5,6,3:2:0:0:
252,92,73965,2,0,L|312:76,1,50,8|0,0:1|0:0,0:0:0:0:
360,68,74365,2,0,L|348:132,1,50,0|0,3:0|0:0,0:0:0:0:
352,176,74765,2,0,L|412:160,1,50,8|0,0:1|0:0,0:0:0:0:
460,152,75165,2,0,L|452:256,1,100,0|8,3:0|0:1,0:0:0:0:
444,312,75765,1,0,0:0:0:0:
436,372,75965,2,0,L|376:360,1,50,0|0,3:0|0:0,0:0:0:0:
328,344,76365,2,0,L|268:356,1,50,8|0,0:1|0:0,0:0:0:0:
220,356,76765,6,0,P|168:332|112:328,1,100,0|8,3:0|0:1,0:0:0:0:
68,336,77365,2,0,P|40:304|48:240,1,100,2|2,3:2|3:2,0:0:0:0:
60,192,77965,1,8,0:1:0:0:
156,120,78365,1,0,3:0:0:0:
260,180,78765,1,8,0:1:0:0:
368,124,79165,2,0,L|432:132,1,50,0|0,3:0|3:0,0:0:0:0:
460,172,79565,2,0,L|524:180,2,50,8|8|6,0:3|0:3|3:2,0:0:0:0:
256,192,80165,12,0,82365,0:0:0:0:
428,88,92565,5,0,0:0:0:0:
380,64,92765,2,0,P|336:52|280:48,1,89.9999972534181,0|0,3:0|3:0,0:0:0:0:
184,60,93565,1,0,3:0:0:0:
96,120,93965,1,0,3:0:0:0:
88,172,94165,2,0,B|76:264|76:264|136:264,1,134.999995880127,0|0,0:0|3:0,0:0:0:0:
212,316,95165,1,0,3:0:0:0:
320,304,95565,1,0,3:0:0:0:
372,324,95765,6,0,P|424:304|432:216,1,134.999995880127,0|0,0:0|3:0,0:0:0:0:
432,124,96765,1,0,3:0:0:0:
364,40,97165,1,0,3:0:0:0:
312,24,97365,2,0,B|236:24|236:24|184:76,1,134.999995880127,0|0,0:0|3:0,0:0:0:0:
100,120,98365,2,0,L|112:212,1,89.9999972534181,0|0,0:0|3:0,0:0:0:0:
124,260,98965,1,0,0:0:0:0:
136,312,99165,6,0,P|192:324|232:308,1,89.9999972534181,0|0,3:0|3:0,0:0:0:0:
328,296,99965,1,0,3:0:0:0:
424,344,100365,1,0,3:0:0:0:
476,340,100565,2,0,P|493:266|488:200,1,134.999995880127,0|0,0:0|3:0,0:0:0:0:
480,156,101365,2,0,L|476:52,1,89.9999972534181,0|0,3:0|3:0,0:0:0:0:
376,24,102165,1,0,0:0:0:0:
324,28,102365,6,0,L|236:44,1,89.9999972534181,0|8,3:0|3:0,0:0:0:0:
184,64,102965,2,0,P|128:76|104:100,1,89.9999972534181,0|0,3:0|3:0,0:0:0:0:
80,144,103565,2,0,L|76:192,2,44.999998626709,2|0|0,3:1|0:0|3:0,0:0:0:0:
36,300,104565,5,2,3:2:0:0:
88,296,104765,2,0,L|136:292,1,44.999998626709,0|2,0:0|0:2,0:0:0:0:
186,292,105165,2,0,L|182:352,2,44.999998626709,8|0|6,0:3|0:0|3:1,0:0:0:0:
199,130,106165,1,2,3:2:0:0:
252,128,106365,2,0,L|300:124,1,44.999998626709,2|0,0:1|0:0,0:0:0:0:
351,120,106765,2,0,L|355:72,2,44.999998626709,8|0|0,0:1|0:0|3:0,0:0:0:0:
327,280,107765,5,2,3:2:0:0:
380,276,107965,2,0,L|424:272,1,44.999998626709,2|0,0:1|0:0,0:0:0:0:
480,268,108365,2,0,L|472:328,2,44.999998626709,8|0|0,0:1|0:0|3:0,0:0:0:0:
508,108,109365,1,2,3:2:0:0:
468,72,109565,2,0,P|424:68|368:80,1,89.9999972534181,2|8,0:1|0:1,0:0:0:0:
328,88,110165,1,0,0:0:0:0:
280,112,110365,6,0,P|208:128|92:112,1,179.999994506836,0|6,3:0|0:1,0:0:0:0:
112,276,111765,1,0,0:0:0:0:
160,300,111965,2,0,L|216:324,1,44.999998626709,0|0,3:0|0:0,0:0:0:0:
252,340,112365,1,0,0:0:0:0:
304,344,112565,2,0,L|404:328,1,89.9999972534181,0|0,3:0|3:0,0:0:0:0:
444,316,113165,2,0,L|456:268,1,44.999998626709,0|0,0:0|3:0,0:0:0:0:
472,220,113565,6,0,L|484:172,1,44.999998626709,0|0,3:0|0:0,0:0:0:0:
473,122,113965,2,0,L|465:78,1,44.999998626709,0|0,0:0|3:0,0:0:0:0:
372,21,114565,1,0,3:0:0:0:
320,36,114765,2,0,L|264:52,1,44.999998626709,0|0,0:0|3:0,0:0:0:0:
224,60,115165,2,0,B|136:60|136:60|88:152|88:152|136:232|136:232|220:232,1,359.999989013672,0|8,3:0|3:1,0:0:0:0:
420,292,117565,1,2,3:2:0:0:
496,216,117965,1,2,3:0:0:0:
416,128,118365,5,6,3:2:0:0:
344,32,118765,1,8,0:1:0:0:
284,20,118965,2,0,P|240:20|168:36,1,100
128,48,119565,1,8,0:1:0:0:
76,76,119765,2,0,B|44:116|44:116|44:164,1,100
40,224,120365,1,8,0:1:0:0:
20,280,120565,2,0,P|12:320|48:368,1,100
104,372,121165,1,8,0:1:0:0:
224,352,121565,5,0,3:0:0:0:
332,296,121965,1,8,0:1:0:0:
372,340,122165,2,0,P|428:352|484:336,1,100
504,296,122765,1,8,0:1:0:0:
496,236,122965,2,0,L|480:72,1,150,0|8,0:0|0:1,0:0:0:0:
472,28,123765,1,0,0:0:0:0:
412,28,123965,2,0,L|352:20,1,50,2|2,3:3|3:2,0:0:0:0:
304,43,124365,2,0,L|244:35,1,50,8|0,3:1|3:0,0:0:0:0:
196,28,124765,5,6,3:2:0:0:
88,82,125165,2,0,P|72:124|57:184,1,100,8|8,0:1|3:2,0:0:0:0:
46,236,125765,1,0,0:0:0:0:
38,295,125965,2,0,L|159:282,1,100,8|2,0:1|3:1,0:0:0:0:
242,342,126765,1,8,0:1:0:0:
298,322,126965,2,0,P|309:277|302:166,1,150,0|8,0:0|0:1,0:0:0:0:
272,60,127965,6,0,P|304:40|372:56,1,100,0|8,3:0|0:1,0:0:0:0:
416,80,128565,2,0,L|408:184,1,100,2|2,3:2|3:2,0:0:0:0:
404,240,129165,1,8,3:1:0:0:
400,300,129365,1,2,3:2:0:0:
292,352,129765,1,2,3:2:0:0:
232,364,129965,2,0,L|160:376,2,50,8|2|0,3:1|0:2|3:0,0:0:0:0:
300,264,130765,2,0,L|308:160,1,100,8|6,0:3|3:2,0:0:0:0:
272,48,131565,5,8,0:1:0:0:
216,32,131765,2,0,P|168:20|116:24,1,100
60,36,132365,1,8,0:1:0:0:
4,60,132565,2,0,L|12:168,1,100
16,220,133165,1,8,0:1:0:0:
16,280,133365,2,0,P|56:320|140:300,1,150,0|8,0:0|0:1,0:0:0:0:
248,356,134365,6,0,L|348:340,1,100,0|8,3:0|0:1,0:0:0:0:
408,340,134965,2,0,P|472:336|488:308,1,100
476,252,135565,1,8,0:1:0:0:
468,192,135765,2,0,B|480:112|480:112|424:72,1,150,0|8,0:0|0:1,0:0:0:0:
368,48,136565,1,0,0:0:0:0:
312,32,136765,2,0,L|284:88,1,50,0|2,3:0|3:2,0:0:0:0:
252,120,137165,2,0,L|280:176,1,50,8|0,3:1|3:0,0:0:0:0:
304,216,137565,5,14,3:2:0:0:
256,328,137965,1,8,0:1:0:0:
196,320,138165,1,0,0:0:0:0:
140,304,138365,2,0,L|72:324,1,50,2|0,3:1|0:0,0:0:0:0:
32,328,138765,2,0,L|16:264,1,50,8|0,0:1|0:0,0:0:0:0:
4,224,139165,1,8,3:0:0:0:
64,120,139565,2,0,L|120:96,1,50,8|0,0:1|0:0,0:0:0:0:
164,76,139965,2,0,L|220:52,1,50,0|0,3:0|0:0,0:0:0:0:
268,40,140365,1,8,0:1:0:0:
328,52,140565,1,0,0:0:0:0:
384,68,140765,6,0,P|432:76|448:128,1,100,0|8,3:0|0:1,0:0:0:0:
432,176,141365,2,0,L|416:288,1,100,2|2,3:2|3:2,0:0:0:0:
436,332,141965,1,8,0:1:0:0:
320,364,142365,1,0,3:0:0:0:
232,284,142765,1,8,0:1:0:0:
124,340,143165,2,0,L|60:364,1,50,0|0,3:0|3:0,0:0:0:0:
16,348,143565,2,0,L|12:276,1,50,8|8,0:3|0:3,0:0:0:0:
12,240,143965,5,6,3:2:0:0:
112,172,144365,1,8,0:1:0:0:
224,216,144765,2,0,P|312:232|332:228,1,100,0|8,3:0|0:1,0:0:0:0:
428,176,145565,1,0,3:0:0:0:
440,56,145965,1,8,0:1:0:0:
320,56,146365,2,0,P|232:40|212:44,1,100,0|8,3:0|0:1,0:0:0:0:
104,60,147165,1,0,3:0:0:0:
256,192,147365,12,4,150365,3:0:0:0:
192,44,163165,6,0,L|300:68,1,100,6|8,3:2|0:1,0:0:0:0:
348,68,163765,2,0,P|392:116|400:164,1,100
408,208,164365,1,8,0:1:0:0:
412,268,164565,2,0,P|408:308|340:336,1,100
301,329,165165,1,8,0:1:0:0:
242,314,165365,2,0,P|178:326|94:354,1,150,0|8,0:0|0:1,0:0:0:0:
24,260,166365,5,0,3:0:0:0:
60,144,166765,1,8,0:1:0:0:
120,144,166965,2,0,P|196:152|236:164,1,100
276,168,167565,1,8,0:1:0:0:
332,184,167765,2,0,P|424:196|472:152,1,150,0|8,0:0|0:1,0:0:0:0:
500,112,168565,1,0,0:0:0:0:
484,56,168765,2,0,L|424:28,1,50,0|2,3:0|3:2,0:0:0:0:
380,32,169165,2,0,L|320:60,1,50,8|0,3:1|3:0,0:0:0:0:
284,84,169565,5,14,3:2:0:0:
180,28,169965,1,8,0:1:0:0:
120,28,170165,2,0,L|64:36,1,50,0|2,0:0|3:1,0:0:0:0:
12,48,170565,2,0,L|16:120,1,50,0|8,0:0|0:1,0:0:0:0:
20,156,170965,2,0,B|36:204|36:204|16:320,1,150,0|8,0:0|0:1,0:0:0:0:
12,360,171765,1,0,0:0:0:0:
72,372,171965,2,0,L|132:360,1,50,0|0,3:0|0:0,0:0:0:0:
180,352,172365,2,0,L|240:340,1,50,8|0,0:1|0:0,0:0:0:0:
288,328,172765,6,0,B|304:296|288:228,1,100,0|8,3:0|0:1,0:0:0:0:
264,176,173365,2,0,B|248:144|264:76,1,100,2|2,3:2|3:2,0:0:0:0:
272,20,173965,1,8,0:1:0:0:
332,24,174165,2,0,P|412:32|424:96,1,150,0|8,0:0|0:1,0:0:0:0:
496,188,175165,2,0,L|504:252,1,50,0|0,3:0|3:0,0:0:0:0:
452,272,175565,2,0,L|460:336,1,50,8|8,0:3|0:3,0:0:0:0:
412,360,175965,6,0,P|332:344|208:328,1,200,6|8,3:2|3:2,0:0:0:0:
96,320,177165,1,8,0:1:0:0:
32,220,177565,2,0,P|20:164|140:96,1,200,2|0,3:1|0:0,0:0:0:0:
240,116,178765,1,8,0:1:0:0:
352,76,179165,6,0,P|400:60|456:52,1,100,0|8,3:0|0:1,0:0:0:0:
476,168,179965,2,0,P|428:184|372:192,1,100,8|8,3:2|0:1,0:0:0:0:
260,188,180765,2,0,B|168:271|336:267|258:357,1,200,2|0,3:1|3:0,0:0:0:0:
140,344,181965,1,8,3:1:0:0:
84,324,182165,1,0,3:0:0:0:
28,308,182365,6,0,L|28:200,1,100,0|8,3:0|0:1,0:0:0:0:
44,88,183165,1,0,3:0:0:0:
148,32,183565,1,8,0:1:0:0:
252,88,183965,1,0,3:0:0:0:
356,32,184365,1,8,0:1:0:0:
460,88,184765,2,0,L|472:200,1,100,0|8,0:0|0:1,0:0:0:0:
256,192,185565,12,6,188765,3:2:0:0:
