osu file format v14

[General]
AudioFilename: audio.mp3
AudioLeadIn: 0
PreviewTime: 62318
Countdown: 0
SampleSet: Soft
StackLeniency: 0.7
Mode: 3
LetterboxInBreaks: 0
SpecialStyle: 0
WidescreenStoryboard: 1

[Editor]
Bookmarks: 677,2318,9818,17318,24818,32318,39818,47318,54818,62318,64193,71693,79193,86693,92318,94193,96068,103568,111068,118568,126068,133568,139193,141068,148568,156068,163568,171068,172943,180443,187943,195443,201068,202943,210443,217474
DistanceSpacing: 1
BeatDivisor: 4
GridSize: 16
TimelineZoom: 1.3

[Metadata]
Title:Ye Mingzhu
TitleUnicode:夜明珠 (イエミンジュ)
Artist:Zhong Lanzhu (CV: Homoto Akina)
ArtistUnicode:鐘嵐珠 (CV: 法元明菜)
Creator:[HD]Draftz
Version:Expert
Source:スクールアイドルフェスティバル2 MIRACLE LIVE!
Tags:LoveLive Love Live! SIF2 MIRACLE LIVE! school idol festival video game mobile gacha Nijigasaki japanese pop j-pop jpop イエミンジュ ye ming zhu
BeatmapID:4352535
BeatmapSetID:1699323

[Difficulty]
HPDrainRate:8
CircleSize:4
OverallDifficulty:8
ApproachRate:5
SliderMultiplier:1.4
SliderTickRate:1

[Events]
//Background and Video events
0,0,"Ye Mingzhu.jpg",0,0
//Break Periods
//Storyboard Layer 0 (Background)
//Storyboard Layer 1 (Fail)
//Storyboard Layer 2 (Pass)
//Storyboard Layer 3 (Foreground)
//Storyboard Layer 4 (Overlay)
//Storyboard Sound Samples

[TimingPoints]
2318,468.75,4,2,0,15,1,0
64193,-100,4,2,0,15,0,1
94193,-100,4,2,0,15,0,0
126068,-100,4,2,0,15,0,1
141068,-100,4,2,0,15,0,0
172943,-100,4,2,0,15,0,1
202943,-100,4,2,0,15,0,0

[HitObjects]
448,192,677,128,0,794:0:0:0:0:
64,192,911,128,0,1146:0:0:0:0:
192,192,911,1,0,0:0:0:0:
320,192,1146,128,0,1380:0:0:0:0:
64,192,1380,1,0,0:0:0:0:
448,192,1380,1,0,0:0:0:0:
192,192,1614,128,0,1732:0:0:0:0:
448,192,1849,128,0,2083:0:0:0:0:
320,192,1849,1,0,0:0:0:0:
64,192,2083,128,0,2318:0:0:0:0:
320,192,2318,128,0,2552:0:0:0:0:
448,192,2318,128,0,3724:0:0:0:0:
192,192,2318,128,0,2552:0:0:0:0:
64,192,2552,1,0,0:0:0:0:
64,192,2786,128,0,3021:0:0:0:0:
192,192,2786,128,0,3021:0:0:0:0:
320,192,3021,1,0,0:0:0:0:
64,192,3255,128,0,3489:0:0:0:0:
320,192,3255,128,0,3489:0:0:0:0:
192,192,3607,128,0,3724:0:0:0:0:
64,192,3607,128,0,3724:0:0:0:0:
320,192,3724,128,0,4193:0:0:0:0:
448,192,3958,128,0,4075:0:0:0:0:
64,192,3958,128,0,4075:0:0:0:0:
448,192,4193,128,0,4427:0:0:0:0:
64,192,4193,128,0,5130:0:0:0:0:
192,192,4193,128,0,4427:0:0:0:0:
320,192,4427,1,0,0:0:0:0:
448,192,4661,128,0,4896:0:0:0:0:
192,192,4661,128,0,4896:0:0:0:0:
320,192,4896,1,0,0:0:0:0:
448,192,5130,128,0,6068:0:0:0:0:
320,192,5130,128,0,5364:0:0:0:0:
192,192,5130,128,0,5364:0:0:0:0:
64,192,5364,128,0,5599:0:0:0:0:
320,192,5482,128,0,5716:0:0:0:0:
192,192,5599,128,0,5833:0:0:0:0:
64,192,5833,128,0,5950:0:0:0:0:
320,192,5833,128,0,5950:0:0:0:0:
192,192,6068,128,0,6302:0:0:0:0:
64,192,6068,128,0,7943:0:0:0:0:
320,192,6068,128,0,6302:0:0:0:0:
448,192,6302,1,0,0:0:0:0:
448,192,6536,128,0,6771:0:0:0:0:
320,192,6536,128,0,6771:0:0:0:0:
192,192,6771,1,0,0:0:0:0:
192,192,7005,128,0,7239:0:0:0:0:
320,192,7005,128,0,7239:0:0:0:0:
320,192,7357,128,0,7591:0:0:0:0:
448,192,7357,128,0,7591:0:0:0:0:
448,192,7708,128,0,7825:0:0:0:0:
192,192,7708,128,0,7825:0:0:0:0:
448,192,7943,128,0,8880:0:0:0:0:
320,192,7943,128,0,8177:0:0:0:0:
192,192,7943,128,0,8177:0:0:0:0:
64,192,8177,1,0,0:0:0:0:
320,192,8294,1,0,0:0:0:0:
64,192,8411,128,0,8646:0:0:0:0:
192,192,8411,128,0,8646:0:0:0:0:
320,192,8646,1,0,0:0:0:0:
192,192,8880,128,0,9114:0:0:0:0:
64,192,8880,128,0,9114:0:0:0:0:
448,192,9114,128,0,9349:0:0:0:0:
192,192,9232,128,0,9466:0:0:0:0:
320,192,9232,128,0,9466:0:0:0:0:
64,192,9349,128,0,9583:0:0:0:0:
192,192,9583,128,0,9818:0:0:0:0:
448,192,9583,128,0,9700:0:0:0:0:
64,192,9700,128,0,9818:0:0:0:0:
320,192,9818,128,0,10052:0:0:0:0:
448,192,9818,128,0,11693:0:0:0:0:
64,192,10052,1,0,0:0:0:0:
64,192,10286,128,0,10521:0:0:0:0:
192,192,10286,128,0,10521:0:0:0:0:
320,192,10521,1,0,0:0:0:0:
64,192,10755,128,0,10989:0:0:0:0:
320,192,10755,128,0,10989:0:0:0:0:
64,192,11107,128,0,11341:0:0:0:0:
192,192,11107,128,0,11341:0:0:0:0:
64,192,11458,128,0,11575:0:0:0:0:
320,192,11458,128,0,11575:0:0:0:0:
64,192,11693,128,0,12630:0:0:0:0:
192,192,11693,128,0,11927:0:0:0:0:
320,192,11693,128,0,11927:0:0:0:0:
448,192,11927,1,0,0:0:0:0:
448,192,12161,128,0,12396:0:0:0:0:
192,192,12161,128,0,12396:0:0:0:0:
320,192,12396,1,0,0:0:0:0:
448,192,12630,128,0,13568:0:0:0:0:
320,192,12630,128,0,12864:0:0:0:0:
192,192,12630,128,0,12864:0:0:0:0:
64,192,12864,128,0,13099:0:0:0:0:
320,192,12982,128,0,13216:0:0:0:0:
192,192,13099,128,0,13333:0:0:0:0:
64,192,13333,128,0,13450:0:0:0:0:
320,192,13333,128,0,13450:0:0:0:0:
192,192,13568,128,0,13802:0:0:0:0:
64,192,13568,128,0,15325:0:0:0:0:
320,192,13568,128,0,13802:0:0:0:0:
320,192,14036,128,0,14271:0:0:0:0:
192,192,14036,128,0,14271:0:0:0:0:
320,192,14505,128,0,14739:0:0:0:0:
448,192,14505,128,0,14739:0:0:0:0:
448,192,14857,128,0,15091:0:0:0:0:
320,192,14857,128,0,15091:0:0:0:0:
320,192,15208,128,0,15325:0:0:0:0:
448,192,15208,128,0,15325:0:0:0:0:
192,192,15443,5,0,0:0:0:0:
64,192,15443,1,0,0:0:0:0:
320,192,15443,1,0,0:0:0:0:
64,192,15560,1,0,0:0:0:0:
448,192,15677,1,0,0:0:0:0:
320,192,15677,1,0,0:0:0:0:
192,192,15794,1,0,0:0:0:0:
448,192,15911,1,0,0:0:0:0:
64,192,15911,1,0,0:0:0:0:
448,192,16028,1,0,0:0:0:0:
192,192,16146,1,0,0:0:0:0:
64,192,16146,1,0,0:0:0:0:
320,192,16263,1,0,0:0:0:0:
192,192,16380,1,0,0:0:0:0:
64,192,16380,1,0,0:0:0:0:
448,192,16380,128,0,16497:0:0:0:0:
448,192,16614,1,0,0:0:0:0:
64,192,16614,128,0,16732:0:0:0:0:
192,192,16614,1,0,0:0:0:0:
64,192,16849,128,0,17200:0:0:0:0:
192,192,16849,128,0,17200:0:0:0:0:
448,192,16849,128,0,17200:0:0:0:0:
64,192,17318,1,0,0:0:0:0:
320,192,17318,1,0,0:0:0:0:
448,192,17318,1,0,0:0:0:0:
320,192,17552,128,0,17786:0:0:0:0:
64,192,17669,1,0,0:0:0:0:
448,192,17786,1,0,0:0:0:0:
192,192,17786,128,0,18021:0:0:0:0:
64,192,18021,1,0,0:0:0:0:
448,192,18021,128,0,18255:0:0:0:0:
192,192,18255,128,0,18489:0:0:0:0:
64,192,18255,1,0,0:0:0:0:
320,192,18255,1,0,0:0:0:0:
64,192,18489,128,0,18724:0:0:0:0:
448,192,18489,1,0,0:0:0:0:
192,192,18724,1,0,0:0:0:0:
320,192,18724,128,0,18958:0:0:0:0:
448,192,18724,1,0,0:0:0:0:
192,192,18958,128,0,19193:0:0:0:0:
64,192,19193,128,0,19427:0:0:0:0:
320,192,19193,128,0,19544:0:0:0:0:
448,192,19193,128,0,19544:0:0:0:0:
192,192,19544,1,0,0:0:0:0:
64,192,19661,128,0,19896:0:0:0:0:
320,192,19661,1,0,0:0:0:0:
448,192,19661,1,0,0:0:0:0:
320,192,19896,1,0,0:0:0:0:
192,192,20130,1,0,0:0:0:0:
448,192,20130,128,0,20364:0:0:0:0:
64,192,20130,1,0,0:0:0:0:
192,192,20364,1,0,0:0:0:0:
320,192,20599,128,0,20833:0:0:0:0:
64,192,20599,1,0,0:0:0:0:
448,192,20599,1,0,0:0:0:0:
448,192,20833,128,0,21068:0:0:0:0:
192,192,20833,1,0,0:0:0:0:
320,192,21068,128,0,21302:0:0:0:0:
192,192,21068,128,0,21419:0:0:0:0:
64,192,21068,128,0,21419:0:0:0:0:
448,192,21419,1,0,0:0:0:0:
320,192,21536,128,0,21771:0:0:0:0:
192,192,21536,1,0,0:0:0:0:
64,192,21536,1,0,0:0:0:0:
64,192,21771,128,0,22005:0:0:0:0:
448,192,21771,1,0,0:0:0:0:
320,192,22005,1,0,0:0:0:0:
448,192,22005,128,0,22239:0:0:0:0:
192,192,22005,1,0,0:0:0:0:
192,192,22239,128,0,22474:0:0:0:0:
320,192,22357,1,0,0:0:0:0:
64,192,22474,128,0,22708:0:0:0:0:
448,192,22474,1,0,0:0:0:0:
192,192,22708,128,0,22943:0:0:0:0:
320,192,22943,128,0,23177:0:0:0:0:
64,192,22943,128,0,23294:0:0:0:0:
448,192,22943,128,0,23294:0:0:0:0:
192,192,23294,1,0,0:0:0:0:
320,192,23411,128,0,23646:0:0:0:0:
448,192,23411,1,0,0:0:0:0:
64,192,23411,1,0,0:0:0:0:
192,192,23646,1,0,0:0:0:0:
448,192,23880,1,0,0:0:0:0:
192,192,23880,128,0,24114:0:0:0:0:
320,192,23880,1,0,0:0:0:0:
64,192,24114,1,0,0:0:0:0:
448,192,24349,128,0,24583:0:0:0:0:
192,192,24349,1,0,0:0:0:0:
320,192,24349,1,0,0:0:0:0:
192,192,24583,1,0,0:0:0:0:
64,192,24583,1,0,0:0:0:0:
320,192,24700,1,0,0:0:0:0:
448,192,24818,128,0,25052:0:0:0:0:
64,192,24818,1,0,0:0:0:0:
192,192,24818,128,0,24935:0:0:0:0:
320,192,24935,128,0,25052:0:0:0:0:
64,192,25052,128,0,25169:0:0:0:0:
320,192,25169,128,0,25403:0:0:0:0:
448,192,25169,128,0,25286:0:0:0:0:
192,192,25286,1,0,0:0:0:0:
64,192,25286,128,0,25403:0:0:0:0:
64,192,25521,128,0,25638:0:0:0:0:
448,192,25521,128,0,25638:0:0:0:0:
192,192,25755,128,0,25989:0:0:0:0:
320,192,25755,128,0,25872:0:0:0:0:
64,192,25872,128,0,25989:0:0:0:0:
320,192,25989,128,0,26107:0:0:0:0:
448,192,25989,1,0,0:0:0:0:
64,192,26107,128,0,26341:0:0:0:0:
192,192,26107,128,0,26224:0:0:0:0:
320,192,26224,1,0,0:0:0:0:
448,192,26224,128,0,26341:0:0:0:0:
192,192,26458,1,0,0:0:0:0:
320,192,26575,1,0,0:0:0:0:
192,192,26693,128,0,26927:0:0:0:0:
64,192,26693,1,0,0:0:0:0:
448,192,26693,128,0,26810:0:0:0:0:
320,192,26810,128,0,26927:0:0:0:0:
64,192,26927,128,0,27044:0:0:0:0:
448,192,27044,128,0,27278:0:0:0:0:
320,192,27044,128,0,27161:0:0:0:0:
64,192,27161,1,0,0:0:0:0:
192,192,27161,128,0,27278:0:0:0:0:
64,192,27396,128,0,27513:0:0:0:0:
448,192,27396,128,0,27513:0:0:0:0:
320,192,27630,128,0,27747:0:0:0:0:
192,192,27630,128,0,27864:0:0:0:0:
448,192,27747,128,0,27864:0:0:0:0:
320,192,27864,1,0,0:0:0:0:
64,192,27864,128,0,27982:0:0:0:0:
192,192,27982,128,0,28099:0:0:0:0:
448,192,27982,128,0,28216:0:0:0:0:
64,192,28099,1,0,0:0:0:0:
320,192,28099,128,0,28216:0:0:0:0:
192,192,28333,128,0,28450:0:0:0:0:
320,192,28333,128,0,28450:0:0:0:0:
64,192,28568,1,0,0:0:0:0:
448,192,28568,128,0,28802:0:0:0:0:
320,192,28568,128,0,28802:0:0:0:0:
64,192,28802,1,0,0:0:0:0:
192,192,28919,1,0,0:0:0:0:
448,192,28919,1,0,0:0:0:0:
448,192,29036,128,0,29271:0:0:0:0:
64,192,29036,128,0,29271:0:0:0:0:
320,192,29036,1,0,0:0:0:0:
192,192,29271,1,0,0:0:0:0:
320,192,29271,1,0,0:0:0:0:
448,192,29388,1,0,0:0:0:0:
192,192,29505,128,0,29622:0:0:0:0:
320,192,29505,1,0,0:0:0:0:
64,192,29505,128,0,29857:0:0:0:0:
448,192,29739,128,0,29857:0:0:0:0:
320,192,29739,128,0,30091:0:0:0:0:
64,192,29974,128,0,30091:0:0:0:0:
192,192,29974,1,0,0:0:0:0:
448,192,29974,128,0,30325:0:0:0:0:
64,192,30208,128,0,30325:0:0:0:0:
192,192,30208,128,0,30325:0:0:0:0:
448,192,30443,128,0,30794:0:0:0:0:
320,192,30443,128,0,30794:0:0:0:0:
64,192,30443,1,0,0:0:0:0:
192,192,30443,128,0,30677:0:0:0:0:
64,192,30794,1,0,0:0:0:0:
320,192,30911,1,0,0:0:0:0:
448,192,30911,1,0,0:0:0:0:
192,192,30911,1,0,0:0:0:0:
448,192,31146,128,0,31380:0:0:0:0:
64,192,31146,1,0,0:0:0:0:
320,192,31263,128,0,31380:0:0:0:0:
64,192,31380,128,0,31497:0:0:0:0:
320,192,31497,128,0,31614:0:0:0:0:
64,192,31614,128,0,31732:0:0:0:0:
320,192,31732,128,0,31849:0:0:0:0:
64,192,31849,128,0,31966:0:0:0:0:
448,192,31849,128,0,31966:0:0:0:0:
64,192,32083,1,0,0:0:0:0:
448,192,32083,1,0,0:0:0:0:
320,192,32083,1,0,0:0:0:0:
64,192,32318,128,0,32435:0:0:0:0:
320,192,32318,128,0,32435:0:0:0:0:
448,192,32318,128,0,32435:0:0:0:0:
192,192,32318,1,0,0:0:0:0:
64,192,32552,1,0,0:0:0:0:
192,192,32552,1,0,0:0:0:0:
448,192,32669,1,0,0:0:0:0:
64,192,32669,1,0,0:0:0:0:
320,192,32786,1,0,0:0:0:0:
448,192,32786,1,0,0:0:0:0:
192,192,32786,1,0,0:0:0:0:
320,192,33021,1,0,0:0:0:0:
448,192,33021,128,0,33138:0:0:0:0:
64,192,33021,128,0,33138:0:0:0:0:
64,192,33255,1,0,0:0:0:0:
192,192,33255,128,0,33372:0:0:0:0:
320,192,33255,128,0,33372:0:0:0:0:
448,192,33489,128,0,33607:0:0:0:0:
64,192,33489,128,0,33607:0:0:0:0:
320,192,33607,1,0,0:0:0:0:
192,192,33607,1,0,0:0:0:0:
448,192,33724,1,0,0:0:0:0:
192,192,33724,128,0,33841:0:0:0:0:
64,192,33724,128,0,33841:0:0:0:0:
192,192,33958,1,0,0:0:0:0:
448,192,33958,128,0,34075:0:0:0:0:
320,192,34193,128,0,34310:0:0:0:0:
64,192,34193,128,0,34310:0:0:0:0:
192,192,34193,1,0,0:0:0:0:
448,192,34427,1,0,0:0:0:0:
192,192,34427,128,0,34544:0:0:0:0:
64,192,34544,1,0,0:0:0:0:
320,192,34544,128,0,34661:0:0:0:0:
448,192,34661,128,0,34778:0:0:0:0:
192,192,34661,1,0,0:0:0:0:
64,192,34661,128,0,34778:0:0:0:0:
320,192,34896,128,0,35013:0:0:0:0:
448,192,34896,128,0,35013:0:0:0:0:
448,192,35130,1,0,0:0:0:0:
64,192,35130,128,0,35247:0:0:0:0:
192,192,35130,128,0,35247:0:0:0:0:
320,192,35364,1,0,0:0:0:0:
64,192,35364,1,0,0:0:0:0:
192,192,35482,1,0,0:0:0:0:
448,192,35482,1,0,0:0:0:0:
64,192,35599,128,0,35716:0:0:0:0:
448,192,35599,128,0,35716:0:0:0:0:
320,192,35599,1,0,0:0:0:0:
448,192,35833,128,0,35950:0:0:0:0:
64,192,35833,128,0,35950:0:0:0:0:
192,192,35833,128,0,35950:0:0:0:0:
448,192,36068,1,0,0:0:0:0:
64,192,36068,1,0,0:0:0:0:
320,192,36068,1,0,0:0:0:0:
192,192,36068,1,0,0:0:0:0:
64,192,36302,1,0,0:0:0:0:
448,192,36302,1,0,0:0:0:0:
192,192,36419,1,0,0:0:0:0:
320,192,36419,1,0,0:0:0:0:
448,192,36536,1,0,0:0:0:0:
320,192,36536,1,0,0:0:0:0:
64,192,36536,1,0,0:0:0:0:
64,192,36771,1,0,0:0:0:0:
448,192,36771,128,0,36888:0:0:0:0:
192,192,36771,128,0,36888:0:0:0:0:
64,192,37005,128,0,37122:0:0:0:0:
192,192,37005,1,0,0:0:0:0:
320,192,37005,128,0,37122:0:0:0:0:
448,192,37239,128,0,37357:0:0:0:0:
320,192,37239,1,0,0:0:0:0:
192,192,37239,128,0,37357:0:0:0:0:
64,192,37357,1,0,0:0:0:0:
320,192,37474,128,0,37591:0:0:0:0:
192,192,37474,1,0,0:0:0:0:
448,192,37474,128,0,37591:0:0:0:0:
192,192,37708,128,0,37825:0:0:0:0:
64,192,37708,128,0,37825:0:0:0:0:
320,192,37708,128,0,37825:0:0:0:0:
320,192,37943,128,0,38060:0:0:0:0:
448,192,37943,128,0,38060:0:0:0:0:
64,192,37943,128,0,38060:0:0:0:0:
64,192,38177,128,0,38294:0:0:0:0:
192,192,38177,128,0,38411:0:0:0:0:
320,192,38294,128,0,38528:0:0:0:0:
448,192,38411,128,0,38528:0:0:0:0:
64,192,38411,128,0,38646:0:0:0:0:
192,192,38528,128,0,38646:0:0:0:0:
320,192,38646,128,0,38763:0:0:0:0:
448,192,38646,128,0,38880:0:0:0:0:
192,192,38880,1,0,0:0:0:0:
320,192,38880,1,0,0:0:0:0:
64,192,38880,128,0,39232:0:0:0:0:
448,192,39114,1,0,0:0:0:0:
320,192,39114,1,0,0:0:0:0:
192,192,39232,1,0,0:0:0:0:
448,192,39349,128,0,39583:0:0:0:0:
320,192,39349,1,0,0:0:0:0:
64,192,39349,1,0,0:0:0:0:
320,192,39583,1,0,0:0:0:0:
64,192,39583,1,0,0:0:0:0:
192,192,39700,1,0,0:0:0:0:
64,192,39818,128,0,40052:0:0:0:0:
320,192,39818,1,0,0:0:0:0:
448,192,39818,128,0,39935:0:0:0:0:
192,192,39935,128,0,40052:0:0:0:0:
448,192,40052,128,0,40169:0:0:0:0:
192,192,40169,128,0,40403:0:0:0:0:
64,192,40169,128,0,40286:0:0:0:0:
320,192,40286,1,0,0:0:0:0:
448,192,40286,128,0,40403:0:0:0:0:
448,192,40521,128,0,40638:0:0:0:0:
64,192,40521,128,0,40638:0:0:0:0:
320,192,40755,128,0,40989:0:0:0:0:
192,192,40755,128,0,40872:0:0:0:0:
448,192,40872,128,0,40989:0:0:0:0:
192,192,40989,128,0,41107:0:0:0:0:
64,192,40989,1,0,0:0:0:0:
448,192,41107,128,0,41341:0:0:0:0:
320,192,41107,128,0,41224:0:0:0:0:
192,192,41224,1,0,0:0:0:0:
64,192,41224,128,0,41341:0:0:0:0:
320,192,41458,1,0,0:0:0:0:
448,192,41458,1,0,0:0:0:0:
192,192,41575,1,0,0:0:0:0:
320,192,41693,128,0,41927:0:0:0:0:
448,192,41693,1,0,0:0:0:0:
64,192,41693,128,0,41810:0:0:0:0:
192,192,41810,128,0,41927:0:0:0:0:
448,192,41927,128,0,42044:0:0:0:0:
64,192,42044,128,0,42278:0:0:0:0:
192,192,42044,128,0,42161:0:0:0:0:
448,192,42161,1,0,0:0:0:0:
320,192,42161,128,0,42278:0:0:0:0:
192,192,42396,128,0,42513:0:0:0:0:
64,192,42396,128,0,42513:0:0:0:0:
320,192,42630,128,0,42864:0:0:0:0:
448,192,42630,1,0,0:0:0:0:
64,192,42630,128,0,42747:0:0:0:0:
192,192,42747,128,0,42864:0:0:0:0:
64,192,42864,1,0,0:0:0:0:
448,192,42982,128,0,43216:0:0:0:0:
320,192,42982,128,0,43099:0:0:0:0:
192,192,43099,1,0,0:0:0:0:
64,192,43099,128,0,43216:0:0:0:0:
320,192,43333,128,0,43450:0:0:0:0:
192,192,43333,128,0,43450:0:0:0:0:
448,192,43568,1,0,0:0:0:0:
64,192,43568,128,0,43802:0:0:0:0:
192,192,43568,128,0,43802:0:0:0:0:
448,192,43802,1,0,0:0:0:0:
320,192,43919,1,0,0:0:0:0:
64,192,43919,1,0,0:0:0:0:
64,192,44036,128,0,44271:0:0:0:0:
448,192,44036,128,0,44271:0:0:0:0:
192,192,44036,1,0,0:0:0:0:
320,192,44271,1,0,0:0:0:0:
192,192,44271,1,0,0:0:0:0:
64,192,44388,1,0,0:0:0:0:
448,192,44505,128,0,44622:0:0:0:0:
320,192,44505,128,0,44622:0:0:0:0:
192,192,44505,1,0,0:0:0:0:
448,192,44739,1,0,0:0:0:0:
64,192,44739,128,0,44857:0:0:0:0:
192,192,44739,128,0,44857:0:0:0:0:
448,192,44974,128,0,45091:0:0:0:0:
64,192,44974,128,0,45091:0:0:0:0:
320,192,44974,1,0,0:0:0:0:
448,192,45208,128,0,45325:0:0:0:0:
320,192,45208,128,0,45325:0:0:0:0:
192,192,45208,1,0,0:0:0:0:
64,192,45443,128,0,45794:0:0:0:0:
192,192,45443,128,0,45794:0:0:0:0:
448,192,45443,1,0,0:0:0:0:
320,192,45443,1,0,0:0:0:0:
320,192,45677,1,0,0:0:0:0:
448,192,45794,1,0,0:0:0:0:
192,192,45911,1,0,0:0:0:0:
64,192,45911,1,0,0:0:0:0:
320,192,45911,1,0,0:0:0:0:
64,192,46146,128,0,46263:0:0:0:0:
448,192,46146,128,0,46263:0:0:0:0:
64,192,46380,1,0,0:0:0:0:
448,192,46380,1,0,0:0:0:0:
320,192,46536,1,0,0:0:0:0:
448,192,46536,1,0,0:0:0:0:
64,192,46693,1,0,0:0:0:0:
192,192,46693,1,0,0:0:0:0:
64,192,46849,128,0,47200:0:0:0:0:
320,192,46849,128,0,47200:0:0:0:0:
448,192,46849,128,0,47200:0:0:0:0:
448,192,47318,1,0,0:0:0:0:
320,192,47318,1,0,0:0:0:0:
192,192,47318,1,0,0:0:0:0:
64,192,47318,1,0,0:0:0:0:
64,192,47786,1,0,0:0:0:0:
448,192,47786,1,0,0:0:0:0:
320,192,48021,128,0,48489:0:0:0:0:
448,192,48255,128,0,48489:0:0:0:0:
64,192,48255,1,0,0:0:0:0:
192,192,48489,128,0,48958:0:0:0:0:
320,192,48724,128,0,48958:0:0:0:0:
64,192,48958,128,0,49427:0:0:0:0:
448,192,48958,1,0,0:0:0:0:
320,192,49193,1,0,0:0:0:0:
448,192,49193,1,0,0:0:0:0:
448,192,49427,128,0,49896:0:0:0:0:
192,192,49427,128,0,49544:0:0:0:0:
320,192,49661,1,0,0:0:0:0:
64,192,49661,128,0,49778:0:0:0:0:
64,192,49896,128,0,50364:0:0:0:0:
320,192,49896,128,0,50013:0:0:0:0:
192,192,50130,128,0,50247:0:0:0:0:
448,192,50130,1,0,0:0:0:0:
448,192,50364,128,0,50833:0:0:0:0:
320,192,50364,128,0,50482:0:0:0:0:
64,192,50599,128,0,50716:0:0:0:0:
192,192,50599,1,0,0:0:0:0:
192,192,50833,128,0,51536:0:0:0:0:
320,192,51068,1,0,0:0:0:0:
448,192,51068,1,0,0:0:0:0:
320,192,51536,1,0,0:0:0:0:
64,192,51771,128,0,51888:0:0:0:0:
320,192,51888,128,0,52005:0:0:0:0:
448,192,52005,128,0,52239:0:0:0:0:
192,192,52005,1,0,0:0:0:0:
320,192,52239,128,0,52474:0:0:0:0:
192,192,52474,128,0,52708:0:0:0:0:
448,192,52708,128,0,53177:0:0:0:0:
64,192,52708,1,0,0:0:0:0:
320,192,52708,1,0,0:0:0:0:
192,192,52943,1,0,0:0:0:0:
64,192,52943,1,0,0:0:0:0:
320,192,53177,128,0,53411:0:0:0:0:
192,192,53411,128,0,53880:0:0:0:0:
64,192,53411,1,0,0:0:0:0:
448,192,53646,1,0,0:0:0:0:
320,192,53880,1,0,0:0:0:0:
64,192,53880,1,0,0:0:0:0:
192,192,54114,128,0,54232:0:0:0:0:
448,192,54232,1,0,0:0:0:0:
320,192,54232,128,0,54349:0:0:0:0:
192,192,54349,128,0,54466:0:0:0:0:
64,192,54466,128,0,54818:0:0:0:0:
448,192,54583,1,0,0:0:0:0:
320,192,54583,1,0,0:0:0:0:
448,192,54818,1,0,0:0:0:0:
192,192,54818,1,0,0:0:0:0:
64,192,55286,1,0,0:0:0:0:
448,192,55286,1,0,0:0:0:0:
192,192,55521,128,0,55755:0:0:0:0:
64,192,55755,128,0,55989:0:0:0:0:
320,192,55755,1,0,0:0:0:0:
448,192,55755,128,0,55872:0:0:0:0:
320,192,55989,128,0,56224:0:0:0:0:
448,192,56224,128,0,56458:0:0:0:0:
64,192,56224,128,0,56341:0:0:0:0:
192,192,56458,1,0,0:0:0:0:
64,192,56458,128,0,56693:0:0:0:0:
320,192,56458,1,0,0:0:0:0:
448,192,56693,1,0,0:0:0:0:
320,192,56693,1,0,0:0:0:0:
192,192,56927,128,0,57161:0:0:0:0:
64,192,57161,1,0,0:0:0:0:
320,192,57161,1,0,0:0:0:0:
448,192,57396,128,0,57630:0:0:0:0:
192,192,57396,1,0,0:0:0:0:
320,192,57630,1,0,0:0:0:0:
64,192,57630,1,0,0:0:0:0:
192,192,57864,128,0,58333:0:0:0:0:
448,192,57864,1,0,0:0:0:0:
320,192,58099,1,0,0:0:0:0:
64,192,58333,128,0,58802:0:0:0:0:
448,192,58333,1,0,0:0:0:0:
320,192,58568,1,0,0:0:0:0:
192,192,58568,1,0,0:0:0:0:
448,192,58802,128,0,59036:0:0:0:0:
192,192,58802,128,0,58919:0:0:0:0:
320,192,59036,128,0,59271:0:0:0:0:
64,192,59036,128,0,59153:0:0:0:0:
192,192,59271,128,0,59505:0:0:0:0:
448,192,59271,128,0,59388:0:0:0:0:
448,192,59505,1,0,0:0:0:0:
320,192,59505,128,0,59739:0:0:0:0:
64,192,59505,128,0,59622:0:0:0:0:
64,192,59739,128,0,60208:0:0:0:0:
448,192,59974,1,0,0:0:0:0:
192,192,60208,1,0,0:0:0:0:
320,192,60208,1,0,0:0:0:0:
448,192,60443,128,0,62200:0:0:0:0:
64,192,60443,128,0,62200:0:0:0:0:
192,192,60443,128,0,62200:0:0:0:0:
320,192,62318,128,0,62786:0:0:0:0:
64,192,62318,1,0,0:0:0:0:
448,192,62318,128,0,63489:0:0:0:0:
64,192,62786,128,0,63255:0:0:0:0:
320,192,63021,128,0,63255:0:0:0:0:
192,192,63255,128,0,63958:0:0:0:0:
320,192,63489,128,0,63958:0:0:0:0:
64,192,63724,128,0,63958:0:0:0:0:
448,192,63724,128,0,63958:0:0:0:0:
64,192,64193,128,0,64427:0:0:0:0:
192,192,64193,128,0,64427:0:0:0:0:
320,192,64193,128,0,64427:0:0:0:0:
448,192,64193,128,0,64427:0:0:0:0:
192,192,64544,1,0,0:0:0:0:
64,192,64544,1,0,0:0:0:0:
448,192,64544,1,0,0:0:0:0:
64,192,64661,1,0,0:0:0:0:
448,192,64661,1,0,0:0:0:0:
320,192,64661,1,0,0:0:0:0:
64,192,64896,128,0,65013:0:0:0:0:
448,192,64896,128,0,65013:0:0:0:0:
320,192,64896,128,0,65013:0:0:0:0:
64,192,65130,128,0,65247:0:0:0:0:
192,192,65130,128,0,65364:0:0:0:0:
448,192,65130,128,0,65482:0:0:0:0:
320,192,65247,128,0,65482:0:0:0:0:
64,192,65364,128,0,65482:0:0:0:0:
192,192,65482,128,0,65599:0:0:0:0:
320,192,65599,128,0,65716:0:0:0:0:
64,192,65599,128,0,65716:0:0:0:0:
448,192,65599,1,0,0:0:0:0:
192,192,65716,128,0,65833:0:0:0:0:
64,192,65833,128,0,65950:0:0:0:0:
448,192,65833,128,0,65950:0:0:0:0:
64,192,66068,128,0,66302:0:0:0:0:
192,192,66068,128,0,66302:0:0:0:0:
320,192,66068,128,0,66302:0:0:0:0:
448,192,66068,128,0,66302:0:0:0:0:
448,192,66419,1,0,0:0:0:0:
64,192,66419,1,0,0:0:0:0:
320,192,66419,1,0,0:0:0:0:
64,192,66536,1,0,0:0:0:0:
192,192,66536,1,0,0:0:0:0:
448,192,66536,1,0,0:0:0:0:
192,192,66771,128,0,66888:0:0:0:0:
64,192,66771,128,0,66888:0:0:0:0:
320,192,66771,128,0,66888:0:0:0:0:
320,192,67005,128,0,67239:0:0:0:0:
448,192,67005,128,0,67122:0:0:0:0:
64,192,67005,128,0,67357:0:0:0:0:
192,192,67122,128,0,67357:0:0:0:0:
448,192,67239,128,0,67357:0:0:0:0:
320,192,67357,128,0,67474:0:0:0:0:
192,192,67474,128,0,67591:0:0:0:0:
448,192,67474,128,0,67591:0:0:0:0:
64,192,67474,1,0,0:0:0:0:
320,192,67708,128,0,67825:0:0:0:0:
64,192,67708,128,0,67825:0:0:0:0:
448,192,67708,1,0,0:0:0:0:
320,192,67943,128,0,68177:0:0:0:0:
448,192,67943,128,0,68177:0:0:0:0:
64,192,67943,128,0,68177:0:0:0:0:
192,192,67943,128,0,68177:0:0:0:0:
192,192,68294,1,0,0:0:0:0:
64,192,68294,1,0,0:0:0:0:
448,192,68294,1,0,0:0:0:0:
64,192,68411,128,0,68528:0:0:0:0:
320,192,68411,128,0,68528:0:0:0:0:
448,192,68411,128,0,68528:0:0:0:0:
192,192,68646,128,0,68763:0:0:0:0:
448,192,68646,128,0,68763:0:0:0:0:
64,192,68646,128,0,68763:0:0:0:0:
64,192,68880,128,0,68997:0:0:0:0:
192,192,68880,128,0,69114:0:0:0:0:
320,192,68880,128,0,69232:0:0:0:0:
448,192,68997,128,0,69232:0:0:0:0:
64,192,69114,128,0,69232:0:0:0:0:
192,192,69232,128,0,69349:0:0:0:0:
448,192,69349,128,0,69466:0:0:0:0:
320,192,69349,1,0,0:0:0:0:
64,192,69349,1,0,0:0:0:0:
192,192,69466,128,0,69583:0:0:0:0:
64,192,69583,128,0,69700:0:0:0:0:
448,192,69583,128,0,69700:0:0:0:0:
320,192,69700,1,0,0:0:0:0:
448,192,69818,128,0,70052:0:0:0:0:
320,192,69818,128,0,70052:0:0:0:0:
192,192,69818,128,0,70052:0:0:0:0:
64,192,69818,128,0,70052:0:0:0:0:
64,192,70169,1,0,0:0:0:0:
448,192,70169,1,0,0:0:0:0:
192,192,70169,1,0,0:0:0:0:
448,192,70286,1,0,0:0:0:0:
320,192,70286,1,0,0:0:0:0:
64,192,70286,1,0,0:0:0:0:
320,192,70521,128,0,70638:0:0:0:0:
448,192,70521,128,0,70638:0:0:0:0:
192,192,70521,128,0,70638:0:0:0:0:
192,192,70755,128,0,70989:0:0:0:0:
64,192,70755,128,0,70872:0:0:0:0:
448,192,70755,128,0,71107:0:0:0:0:
320,192,70872,128,0,71107:0:0:0:0:
64,192,70989,128,0,71107:0:0:0:0:
192,192,71107,128,0,71224:0:0:0:0:
320,192,71224,128,0,71341:0:0:0:0:
64,192,71224,128,0,71341:0:0:0:0:
448,192,71224,1,0,0:0:0:0:
192,192,71458,128,0,71575:0:0:0:0:
448,192,71458,128,0,71575:0:0:0:0:
64,192,71458,1,0,0:0:0:0:
448,192,71693,128,0,71927:0:0:0:0:
320,192,71693,128,0,71927:0:0:0:0:
64,192,71693,128,0,71927:0:0:0:0:
192,192,72044,1,0,0:0:0:0:
64,192,72044,1,0,0:0:0:0:
448,192,72044,1,0,0:0:0:0:
64,192,72161,1,0,0:0:0:0:
448,192,72161,1,0,0:0:0:0:
320,192,72161,1,0,0:0:0:0:
448,192,72396,128,0,72513:0:0:0:0:
64,192,72396,128,0,72513:0:0:0:0:
192,192,72396,128,0,72513:0:0:0:0:
448,192,72630,128,0,72747:0:0:0:0:
320,192,72630,128,0,72864:0:0:0:0:
64,192,72630,128,0,72982:0:0:0:0:
192,192,72747,128,0,72982:0:0:0:0:
448,192,72864,128,0,72982:0:0:0:0:
320,192,72982,128,0,73099:0:0:0:0:
192,192,73099,128,0,73216:0:0:0:0:
448,192,73099,128,0,73216:0:0:0:0:
64,192,73099,1,0,0:0:0:0:
320,192,73216,128,0,73333:0:0:0:0:
448,192,73333,128,0,73450:0:0:0:0:
64,192,73333,128,0,73450:0:0:0:0:
448,192,73568,128,0,73802:0:0:0:0:
320,192,73568,128,0,73802:0:0:0:0:
192,192,73568,128,0,73802:0:0:0:0:
64,192,73568,128,0,73802:0:0:0:0:
64,192,73919,1,0,0:0:0:0:
448,192,73919,1,0,0:0:0:0:
192,192,73919,1,0,0:0:0:0:
448,192,74036,1,0,0:0:0:0:
320,192,74036,1,0,0:0:0:0:
64,192,74036,1,0,0:0:0:0:
320,192,74271,128,0,74388:0:0:0:0:
448,192,74271,128,0,74388:0:0:0:0:
192,192,74271,128,0,74388:0:0:0:0:
192,192,74505,128,0,74739:0:0:0:0:
64,192,74505,128,0,74622:0:0:0:0:
448,192,74505,128,0,74857:0:0:0:0:
320,192,74622,128,0,74857:0:0:0:0:
64,192,74739,128,0,74857:0:0:0:0:
192,192,74857,128,0,74974:0:0:0:0:
320,192,74974,128,0,75091:0:0:0:0:
64,192,74974,128,0,75091:0:0:0:0:
448,192,74974,1,0,0:0:0:0:
192,192,75208,128,0,75325:0:0:0:0:
448,192,75208,128,0,75325:0:0:0:0:
64,192,75208,1,0,0:0:0:0:
192,192,75443,128,0,75677:0:0:0:0:
64,192,75443,128,0,75677:0:0:0:0:
448,192,75443,128,0,75677:0:0:0:0:
320,192,75443,128,0,75677:0:0:0:0:
320,192,75794,1,0,0:0:0:0:
448,192,75794,1,0,0:0:0:0:
64,192,75794,1,0,0:0:0:0:
448,192,75911,128,0,76028:0:0:0:0:
192,192,75911,128,0,76028:0:0:0:0:
64,192,75911,128,0,76028:0:0:0:0:
320,192,76146,128,0,76263:0:0:0:0:
64,192,76146,128,0,76263:0:0:0:0:
448,192,76146,128,0,76263:0:0:0:0:
192,192,76380,128,0,76732:0:0:0:0:
448,192,76380,128,0,76497:0:0:0:0:
320,192,76380,128,0,76614:0:0:0:0:
64,192,76497,128,0,76732:0:0:0:0:
448,192,76614,128,0,76732:0:0:0:0:
320,192,76732,128,0,76849:0:0:0:0:
64,192,76849,128,0,76966:0:0:0:0:
192,192,76849,1,0,0:0:0:0:
448,192,76849,1,0,0:0:0:0:
320,192,76966,128,0,77083:0:0:0:0:
448,192,77083,128,0,77200:0:0:0:0:
64,192,77083,128,0,77200:0:0:0:0:
192,192,77200,1,0,0:0:0:0:
320,192,77318,128,0,77552:0:0:0:0:
448,192,77318,128,0,77552:0:0:0:0:
64,192,77318,128,0,77552:0:0:0:0:
192,192,77318,128,0,77552:0:0:0:0:
320,192,77669,1,0,0:0:0:0:
64,192,77669,1,0,0:0:0:0:
448,192,77669,1,0,0:0:0:0:
448,192,77786,1,0,0:0:0:0:
192,192,77786,1,0,0:0:0:0:
64,192,77786,1,0,0:0:0:0:
320,192,78021,128,0,78138:0:0:0:0:
64,192,78021,128,0,78138:0:0:0:0:
192,192,78021,128,0,78138:0:0:0:0:
64,192,78255,128,0,78607:0:0:0:0:
448,192,78255,128,0,78372:0:0:0:0:
320,192,78255,128,0,78489:0:0:0:0:
192,192,78372,128,0,78607:0:0:0:0:
448,192,78489,128,0,78607:0:0:0:0:
320,192,78607,128,0,78724:0:0:0:0:
448,192,78724,128,0,78841:0:0:0:0:
192,192,78724,128,0,78841:0:0:0:0:
64,192,78958,128,0,79075:0:0:0:0:
320,192,78958,128,0,79075:0:0:0:0:
64,192,79193,128,0,79544:0:0:0:0:
448,192,79193,128,0,79544:0:0:0:0:
192,192,79193,1,0,0:0:0:0:
320,192,79310,128,0,79544:0:0:0:0:
192,192,79427,128,0,79544:0:0:0:0:
320,192,79661,128,0,79778:0:0:0:0:
448,192,79661,128,0,79778:0:0:0:0:
64,192,79661,128,0,79778:0:0:0:0:
320,192,79896,128,0,80013:0:0:0:0:
192,192,79896,128,0,80013:0:0:0:0:
64,192,80130,128,0,80482:0:0:0:0:
320,192,80130,1,0,0:0:0:0:
448,192,80130,1,0,0:0:0:0:
192,192,80247,128,0,80482:0:0:0:0:
320,192,80364,128,0,80482:0:0:0:0:
448,192,80482,1,0,0:0:0:0:
320,192,80599,128,0,80716:0:0:0:0:
192,192,80599,128,0,80833:0:0:0:0:
64,192,80599,128,0,80950:0:0:0:0:
448,192,80716,1,0,0:0:0:0:
320,192,80833,1,0,0:0:0:0:
192,192,80950,1,0,0:0:0:0:
448,192,81068,128,0,81419:0:0:0:0:
64,192,81068,128,0,81419:0:0:0:0:
320,192,81068,1,0,0:0:0:0:
192,192,81185,128,0,81419:0:0:0:0:
320,192,81302,128,0,81419:0:0:0:0:
192,192,81536,128,0,81653:0:0:0:0:
64,192,81536,128,0,81653:0:0:0:0:
448,192,81536,128,0,81653:0:0:0:0:
192,192,81771,128,0,81888:0:0:0:0:
320,192,81771,128,0,81888:0:0:0:0:
448,192,82005,128,0,82357:0:0:0:0:
192,192,82005,1,0,0:0:0:0:
64,192,82005,1,0,0:0:0:0:
320,192,82122,128,0,82357:0:0:0:0:
192,192,82239,128,0,82357:0:0:0:0:
64,192,82357,1,0,0:0:0:0:
192,192,82474,128,0,82591:0:0:0:0:
320,192,82474,128,0,82708:0:0:0:0:
448,192,82474,128,0,82825:0:0:0:0:
64,192,82591,1,0,0:0:0:0:
192,192,82708,1,0,0:0:0:0:
320,192,82825,1,0,0:0:0:0:
192,192,82943,1,0,0:0:0:0:
448,192,82943,128,0,83294:0:0:0:0:
64,192,82943,128,0,83294:0:0:0:0:
320,192,83060,128,0,83294:0:0:0:0:
192,192,83177,128,0,83294:0:0:0:0:
64,192,83411,128,0,83528:0:0:0:0:
448,192,83411,128,0,83528:0:0:0:0:
320,192,83411,128,0,83528:0:0:0:0:
192,192,83646,128,0,83763:0:0:0:0:
320,192,83646,128,0,83763:0:0:0:0:
448,192,83880,1,0,0:0:0:0:
320,192,83880,1,0,0:0:0:0:
64,192,83880,128,0,84232:0:0:0:0:
192,192,83997,128,0,84232:0:0:0:0:
320,192,84114,128,0,84232:0:0:0:0:
448,192,84232,1,0,0:0:0:0:
320,192,84349,128,0,84466:0:0:0:0:
192,192,84349,128,0,84583:0:0:0:0:
64,192,84349,128,0,84700:0:0:0:0:
448,192,84466,1,0,0:0:0:0:
320,192,84583,1,0,0:0:0:0:
192,192,84700,1,0,0:0:0:0:
320,192,84818,128,0,84935:0:0:0:0:
448,192,84818,128,0,84935:0:0:0:0:
64,192,84818,128,0,85052:0:0:0:0:
192,192,84935,128,0,85052:0:0:0:0:
448,192,85052,128,0,85169:0:0:0:0:
320,192,85169,1,0,0:0:0:0:
192,192,85286,1,0,0:0:0:0:
64,192,85286,128,0,85403:0:0:0:0:
448,192,85286,1,0,0:0:0:0:
320,192,85403,1,0,0:0:0:0:
64,192,85521,128,0,85638:0:0:0:0:
192,192,85521,128,0,85638:0:0:0:0:
320,192,85638,1,0,0:0:0:0:
64,192,85755,128,0,85872:0:0:0:0:
192,192,85755,128,0,85989:0:0:0:0:
448,192,85755,1,0,0:0:0:0:
320,192,85872,128,0,86107:0:0:0:0:
448,192,85989,128,0,86107:0:0:0:0:
64,192,85989,128,0,86107:0:0:0:0:
192,192,86107,128,0,86224:0:0:0:0:
64,192,86224,1,0,0:0:0:0:
320,192,86224,128,0,86341:0:0:0:0:
448,192,86224,1,0,0:0:0:0:
192,192,86341,128,0,86458:0:0:0:0:
320,192,86458,128,0,86575:0:0:0:0:
448,192,86458,128,0,86575:0:0:0:0:
192,192,86693,128,0,86810:0:0:0:0:
64,192,86693,128,0,86927:0:0:0:0:
320,192,86693,1,0,0:0:0:0:
448,192,86810,128,0,87044:0:0:0:0:
320,192,86927,128,0,87044:0:0:0:0:
192,192,87044,1,0,0:0:0:0:
64,192,87044,1,0,0:0:0:0:
448,192,87161,1,0,0:0:0:0:
320,192,87161,1,0,0:0:0:0:
64,192,87161,1,0,0:0:0:0:
448,192,87396,128,0,87513:0:0:0:0:
64,192,87396,128,0,87513:0:0:0:0:
192,192,87396,128,0,87513:0:0:0:0:
448,192,87630,128,0,87747:0:0:0:0:
320,192,87630,128,0,87864:0:0:0:0:
64,192,87630,128,0,87982:0:0:0:0:
192,192,87747,128,0,87982:0:0:0:0:
448,192,87864,128,0,87982:0:0:0:0:
320,192,87982,128,0,88099:0:0:0:0:
192,192,88099,128,0,88216:0:0:0:0:
448,192,88099,128,0,88216:0:0:0:0:
64,192,88099,1,0,0:0:0:0:
320,192,88216,128,0,88333:0:0:0:0:
448,192,88333,128,0,88450:0:0:0:0:
64,192,88333,128,0,88450:0:0:0:0:
64,192,88568,128,0,88802:0:0:0:0:
192,192,88568,128,0,88802:0:0:0:0:
320,192,88568,128,0,88802:0:0:0:0:
448,192,88568,128,0,88802:0:0:0:0:
448,192,88919,1,0,0:0:0:0:
64,192,88919,1,0,0:0:0:0:
320,192,88919,1,0,0:0:0:0:
64,192,89036,1,0,0:0:0:0:
192,192,89036,1,0,0:0:0:0:
448,192,89036,1,0,0:0:0:0:
192,192,89271,128,0,89388:0:0:0:0:
64,192,89271,128,0,89388:0:0:0:0:
320,192,89271,128,0,89388:0:0:0:0:
320,192,89505,128,0,89739:0:0:0:0:
448,192,89505,128,0,89622:0:0:0:0:
64,192,89505,128,0,89857:0:0:0:0:
192,192,89622,128,0,89857:0:0:0:0:
448,192,89739,128,0,89857:0:0:0:0:
320,192,89857,1,0,0:0:0:0:
192,192,89974,128,0,90091:0:0:0:0:
64,192,89974,128,0,90091:0:0:0:0:
448,192,89974,1,0,0:0:0:0:
320,192,90091,1,0,0:0:0:0:
64,192,90208,128,0,90325:0:0:0:0:
448,192,90208,128,0,90325:0:0:0:0:
192,192,90325,1,0,0:0:0:0:
320,192,90443,1,0,0:0:0:0:
448,192,90443,1,0,0:0:0:0:
64,192,90443,128,0,90794:0:0:0:0:
192,192,90560,128,0,90794:0:0:0:0:
320,192,90677,128,0,90794:0:0:0:0:
448,192,90677,1,0,0:0:0:0:
64,192,90911,128,0,91028:0:0:0:0:
192,192,90911,128,0,91028:0:0:0:0:
448,192,90911,128,0,91028:0:0:0:0:
320,192,91146,128,0,91263:0:0:0:0:
448,192,91146,128,0,91263:0:0:0:0:
64,192,91146,128,0,91263:0:0:0:0:
320,192,91380,128,0,91732:0:0:0:0:
64,192,91380,128,0,91497:0:0:0:0:
192,192,91380,128,0,91614:0:0:0:0:
448,192,91497,128,0,91732:0:0:0:0:
64,192,91614,128,0,91732:0:0:0:0:
192,192,91732,128,0,91849:0:0:0:0:
320,192,91849,128,0,92083:0:0:0:0:
448,192,91849,128,0,92200:0:0:0:0:
64,192,91849,1,0,0:0:0:0:
192,192,91966,128,0,92200:0:0:0:0:
64,192,92083,128,0,92200:0:0:0:0:
320,192,92200,128,0,92318:0:0:0:0:
448,192,92318,1,0,0:0:0:0:
192,192,92318,1,0,0:0:0:0:
64,192,92318,128,0,92435:0:0:0:0:
320,192,92435,128,0,92552:0:0:0:0:
448,192,92552,128,0,92786:0:0:0:0:
192,192,92552,128,0,92669:0:0:0:0:
64,192,92669,128,0,92786:0:0:0:0:
320,192,92786,128,0,93021:0:0:0:0:
192,192,93021,128,0,93372:0:0:0:0:
448,192,93489,128,0,93607:0:0:0:0:
192,192,93607,128,0,93724:0:0:0:0:
320,192,93724,128,0,93841:0:0:0:0:
64,192,93841,128,0,93958:0:0:0:0:
448,192,93958,1,0,0:0:0:0:
192,192,93958,128,0,94075:0:0:0:0:
320,192,94075,128,0,94193:0:0:0:0:
64,192,94193,1,0,0:0:0:0:
448,192,94193,1,0,0:0:0:0:
192,192,94193,1,0,0:0:0:0:
448,192,94310,1,0,0:0:0:0:
192,192,94427,1,0,0:0:0:0:
64,192,94427,1,0,0:0:0:0:
320,192,94544,1,0,0:0:0:0:
448,192,94661,1,0,0:0:0:0:
64,192,94661,1,0,0:0:0:0:
64,192,94778,1,0,0:0:0:0:
448,192,94896,1,0,0:0:0:0:
320,192,94896,1,0,0:0:0:0:
192,192,95013,1,0,0:0:0:0:
320,192,95130,1,0,0:0:0:0:
448,192,95130,1,0,0:0:0:0:
64,192,95130,128,0,95247:0:0:0:0:
64,192,95364,1,0,0:0:0:0:
320,192,95364,1,0,0:0:0:0:
448,192,95364,128,0,95482:0:0:0:0:
320,192,95599,1,0,0:0:0:0:
448,192,95599,1,0,0:0:0:0:
64,192,95599,128,0,95950:0:0:0:0:
192,192,95716,128,0,95950:0:0:0:0:
320,192,95833,128,0,95950:0:0:0:0:
448,192,95833,128,0,95950:0:0:0:0:
448,192,96068,1,0,0:0:0:0:
320,192,96068,1,0,0:0:0:0:
64,192,96068,1,0,0:0:0:0:
320,192,96302,128,0,96419:0:0:0:0:
64,192,96419,1,0,0:0:0:0:
192,192,96419,128,0,96536:0:0:0:0:
64,192,96536,128,0,96653:0:0:0:0:
448,192,96536,128,0,96653:0:0:0:0:
320,192,96536,1,0,0:0:0:0:
192,192,96771,128,0,96888:0:0:0:0:
64,192,96771,128,0,96888:0:0:0:0:
320,192,97005,1,0,0:0:0:0:
448,192,97005,128,0,97122:0:0:0:0:
64,192,97005,128,0,97122:0:0:0:0:
320,192,97239,1,0,0:0:0:0:
64,192,97239,128,0,97357:0:0:0:0:
448,192,97357,1,0,0:0:0:0:
192,192,97357,128,0,97474:0:0:0:0:
320,192,97474,1,0,0:0:0:0:
448,192,97474,128,0,97591:0:0:0:0:
64,192,97591,128,0,97708:0:0:0:0:
192,192,97591,128,0,97708:0:0:0:0:
320,192,97708,128,0,97825:0:0:0:0:
448,192,97708,128,0,97825:0:0:0:0:
192,192,97943,1,0,0:0:0:0:
64,192,97943,128,0,98177:0:0:0:0:
448,192,97943,128,0,98177:0:0:0:0:
192,192,98177,128,0,98294:0:0:0:0:
448,192,98294,1,0,0:0:0:0:
320,192,98294,128,0,98411:0:0:0:0:
448,192,98411,128,0,98528:0:0:0:0:
64,192,98411,128,0,98528:0:0:0:0:
192,192,98411,1,0,0:0:0:0:
320,192,98646,128,0,98763:0:0:0:0:
448,192,98646,128,0,98763:0:0:0:0:
192,192,98763,128,0,98880:0:0:0:0:
64,192,98880,128,0,98997:0:0:0:0:
448,192,98880,128,0,98997:0:0:0:0:
320,192,98880,1,0,0:0:0:0:
192,192,99114,1,0,0:0:0:0:
448,192,99114,128,0,99232:0:0:0:0:
64,192,99232,1,0,0:0:0:0:
320,192,99232,128,0,99349:0:0:0:0:
192,192,99349,1,0,0:0:0:0:
64,192,99349,128,0,99466:0:0:0:0:
448,192,99466,128,0,99583:0:0:0:0:
320,192,99466,128,0,99583:0:0:0:0:
192,192,99583,128,0,99700:0:0:0:0:
64,192,99583,128,0,99700:0:0:0:0:
320,192,99818,1,0,0:0:0:0:
448,192,99818,128,0,100052:0:0:0:0:
64,192,99818,128,0,100052:0:0:0:0:
192,192,100052,128,0,100169:0:0:0:0:
64,192,100169,1,0,0:0:0:0:
320,192,100169,128,0,100286:0:0:0:0:
448,192,100286,1,0,0:0:0:0:
64,192,100286,128,0,100521:0:0:0:0:
192,192,100286,128,0,100403:0:0:0:0:
448,192,100521,1,0,0:0:0:0:
320,192,100521,128,0,100638:0:0:0:0:
64,192,100638,1,0,0:0:0:0:
192,192,100638,128,0,100755:0:0:0:0:
320,192,100755,1,0,0:0:0:0:
448,192,100755,128,0,100989:0:0:0:0:
64,192,100755,128,0,100872:0:0:0:0:
64,192,100989,1,0,0:0:0:0:
320,192,100989,128,0,101107:0:0:0:0:
192,192,101107,128,0,101224:0:0:0:0:
448,192,101107,1,0,0:0:0:0:
320,192,101224,1,0,0:0:0:0:
64,192,101224,128,0,101458:0:0:0:0:
448,192,101224,128,0,101341:0:0:0:0:
192,192,101458,1,0,0:0:0:0:
448,192,101458,128,0,101575:0:0:0:0:
64,192,101575,1,0,0:0:0:0:
320,192,101575,128,0,101693:0:0:0:0:
448,192,101693,1,0,0:0:0:0:
64,192,101693,1,0,0:0:0:0:
192,192,101693,128,0,101810:0:0:0:0:
320,192,101810,128,0,101927:0:0:0:0:
64,192,101927,128,0,102161:0:0:0:0:
448,192,101927,128,0,102044:0:0:0:0:
192,192,102044,128,0,102161:0:0:0:0:
448,192,102161,128,0,102396:0:0:0:0:
320,192,102161,128,0,102278:0:0:0:0:
192,192,102278,128,0,102396:0:0:0:0:
320,192,102396,128,0,102630:0:0:0:0:
64,192,102396,1,0,0:0:0:0:
448,192,102630,1,0,0:0:0:0:
64,192,102630,128,0,102864:0:0:0:0:
192,192,102630,1,0,0:0:0:0:
448,192,102747,128,0,102982:0:0:0:0:
192,192,102864,1,0,0:0:0:0:
320,192,102864,128,0,102982:0:0:0:0:
192,192,102982,128,0,103216:0:0:0:0:
64,192,103099,128,0,103216:0:0:0:0:
320,192,103099,1,0,0:0:0:0:
448,192,103099,1,0,0:0:0:0:
64,192,103333,128,0,103450:0:0:0:0:
192,192,103333,128,0,103450:0:0:0:0:
320,192,103333,128,0,103450:0:0:0:0:
448,192,103333,128,0,103450:0:0:0:0:
192,192,103568,1,0,0:0:0:0:
64,192,103568,1,0,0:0:0:0:
448,192,103568,1,0,0:0:0:0:
320,192,103568,1,0,0:0:0:0:
448,192,103802,1,0,0:0:0:0:
64,192,103802,128,0,103919:0:0:0:0:
320,192,103919,1,0,0:0:0:0:
448,192,103919,1,0,0:0:0:0:
64,192,104036,1,0,0:0:0:0:
192,192,104036,1,0,0:0:0:0:
448,192,104036,128,0,104153:0:0:0:0:
320,192,104271,1,0,0:0:0:0:
64,192,104271,1,0,0:0:0:0:
192,192,104271,128,0,104388:0:0:0:0:
192,192,104505,128,0,104622:0:0:0:0:
64,192,104505,128,0,104622:0:0:0:0:
448,192,104505,128,0,104622:0:0:0:0:
320,192,104739,1,0,0:0:0:0:
64,192,104739,128,0,104857:0:0:0:0:
448,192,104857,1,0,0:0:0:0:
192,192,104857,128,0,104974:0:0:0:0:
64,192,104974,1,0,0:0:0:0:
320,192,104974,1,0,0:0:0:0:
448,192,104974,1,0,0:0:0:0:
192,192,105091,128,0,105208:0:0:0:0:
64,192,105091,128,0,105208:0:0:0:0:
448,192,105208,128,0,105325:0:0:0:0:
320,192,105208,128,0,105325:0:0:0:0:
64,192,105325,128,0,105443:0:0:0:0:
192,192,105443,1,0,0:0:0:0:
448,192,105443,128,0,105560:0:0:0:0:
320,192,105443,128,0,105560:0:0:0:0:
192,192,105677,128,0,105794:0:0:0:0:
64,192,105677,128,0,105794:0:0:0:0:
448,192,105794,1,0,0:0:0:0:
320,192,105794,1,0,0:0:0:0:
64,192,105911,1,0,0:0:0:0:
192,192,105911,128,0,106028:0:0:0:0:
320,192,105911,128,0,106028:0:0:0:0:
448,192,106146,128,0,106263:0:0:0:0:
320,192,106146,128,0,106263:0:0:0:0:
192,192,106146,1,0,0:0:0:0:
448,192,106380,1,0,0:0:0:0:
64,192,106380,1,0,0:0:0:0:
192,192,106380,128,0,106497:0:0:0:0:
448,192,106497,128,0,106614:0:0:0:0:
320,192,106497,1,0,0:0:0:0:
192,192,106614,1,0,0:0:0:0:
64,192,106614,128,0,106732:0:0:0:0:
448,192,106732,1,0,0:0:0:0:
192,192,106732,128,0,106849:0:0:0:0:
64,192,106849,1,0,0:0:0:0:
320,192,106849,1,0,0:0:0:0:
448,192,106849,128,0,106966:0:0:0:0:
192,192,107083,128,0,107200:0:0:0:0:
448,192,107083,128,0,107200:0:0:0:0:
64,192,107083,128,0,107200:0:0:0:0:
320,192,107083,128,0,107200:0:0:0:0:
64,192,107318,1,0,0:0:0:0:
192,192,107318,1,0,0:0:0:0:
320,192,107318,1,0,0:0:0:0:
448,192,107318,128,0,107552:0:0:0:0:
64,192,107552,1,0,0:0:0:0:
192,192,107552,1,0,0:0:0:0:
320,192,107669,1,0,0:0:0:0:
192,192,107669,1,0,0:0:0:0:
448,192,107786,128,0,108021:0:0:0:0:
64,192,107786,128,0,108021:0:0:0:0:
320,192,107786,1,0,0:0:0:0:
192,192,108021,1,0,0:0:0:0:
320,192,108021,1,0,0:0:0:0:
320,192,108138,1,0,0:0:0:0:
448,192,108255,1,0,0:0:0:0:
64,192,108255,128,0,108607:0:0:0:0:
192,192,108255,128,0,108372:0:0:0:0:
320,192,108489,128,0,108841:0:0:0:0:
448,192,108489,128,0,108607:0:0:0:0:
192,192,108607,1,0,0:0:0:0:
192,192,108724,128,0,108841:0:0:0:0:
64,192,108724,1,0,0:0:0:0:
448,192,108724,128,0,109075:0:0:0:0:
64,192,108958,128,0,109075:0:0:0:0:
320,192,108958,1,0,0:0:0:0:
192,192,108958,128,0,109075:0:0:0:0:
64,192,109193,128,0,109310:0:0:0:0:
320,192,109193,128,0,109310:0:0:0:0:
192,192,109193,1,0,0:0:0:0:
448,192,109193,128,0,109544:0:0:0:0:
64,192,109427,5,0,0:0:0:0:
192,192,109427,1,0,0:0:0:0:
320,192,109544,1,0,0:0:0:0:
64,192,109661,128,0,109778:0:0:0:0:
192,192,109661,128,0,109778:0:0:0:0:
448,192,109661,128,0,109778:0:0:0:0:
448,192,109896,128,0,110013:0:0:0:0:
192,192,109896,128,0,110013:0:0:0:0:
320,192,109896,1,0,0:0:0:0:
448,192,110130,128,0,110247:0:0:0:0:
64,192,110130,128,0,110247:0:0:0:0:
320,192,110247,128,0,110364:0:0:0:0:
448,192,110364,128,0,110482:0:0:0:0:
64,192,110364,128,0,110482:0:0:0:0:
192,192,110482,128,0,110599:0:0:0:0:
448,192,110599,128,0,110950:0:0:0:0:
320,192,110599,128,0,110950:0:0:0:0:
64,192,110599,128,0,110950:0:0:0:0:
192,192,111068,1,0,0:0:0:0:
64,192,111068,1,0,0:0:0:0:
448,192,111068,1,0,0:0:0:0:
320,192,111068,1,0,0:0:0:0:
448,192,111536,1,0,0:0:0:0:
64,192,111536,1,0,0:0:0:0:
192,192,111771,128,0,112239:0:0:0:0:
64,192,112005,128,0,112239:0:0:0:0:
448,192,112005,1,0,0:0:0:0:
320,192,112239,128,0,112708:0:0:0:0:
192,192,112474,128,0,112708:0:0:0:0:
64,192,112708,128,0,113177:0:0:0:0:
448,192,112708,1,0,0:0:0:0:
320,192,112943,1,0,0:0:0:0:
192,192,112943,1,0,0:0:0:0:
448,192,113177,128,0,113646:0:0:0:0:
320,192,113411,1,0,0:0:0:0:
64,192,113646,128,0,114114:0:0:0:0:
320,192,113880,1,0,0:0:0:0:
192,192,113880,1,0,0:0:0:0:
448,192,114114,128,0,114583:0:0:0:0:
64,192,114349,1,0,0:0:0:0:
192,192,114583,128,0,115286:0:0:0:0:
448,192,114818,1,0,0:0:0:0:
320,192,114818,1,0,0:0:0:0:
320,192,115286,1,0,0:0:0:0:
64,192,115521,128,0,115638:0:0:0:0:
320,192,115638,128,0,115755:0:0:0:0:
192,192,115755,1,0,0:0:0:0:
448,192,115755,128,0,115989:0:0:0:0:
320,192,115989,128,0,116224:0:0:0:0:
192,192,116224,128,0,116458:0:0:0:0:
320,192,116458,1,0,0:0:0:0:
64,192,116458,1,0,0:0:0:0:
448,192,116458,128,0,116927:0:0:0:0:
64,192,116693,1,0,0:0:0:0:
192,192,116693,1,0,0:0:0:0:
320,192,116927,128,0,117161:0:0:0:0:
64,192,117161,1,0,0:0:0:0:
192,192,117161,128,0,117630:0:0:0:0:
448,192,117396,1,0,0:0:0:0:
64,192,117630,1,0,0:0:0:0:
320,192,117630,1,0,0:0:0:0:
192,192,117864,128,0,117982:0:0:0:0:
320,192,117982,128,0,118099:0:0:0:0:
448,192,117982,1,0,0:0:0:0:
192,192,118099,128,0,118216:0:0:0:0:
64,192,118216,128,0,118568:0:0:0:0:
320,192,118333,1,0,0:0:0:0:
448,192,118333,1,0,0:0:0:0:
192,192,118568,1,0,0:0:0:0:
448,192,118568,1,0,0:0:0:0:
448,192,119036,1,0,0:0:0:0:
64,192,119036,1,0,0:0:0:0:
192,192,119271,128,0,119505:0:0:0:0:
448,192,119505,128,0,119622:0:0:0:0:
320,192,119505,1,0,0:0:0:0:
64,192,119505,128,0,119739:0:0:0:0:
320,192,119739,128,0,119974:0:0:0:0:
64,192,119974,128,0,120091:0:0:0:0:
448,192,119974,128,0,120208:0:0:0:0:
320,192,120208,1,0,0:0:0:0:
64,192,120208,128,0,120443:0:0:0:0:
192,192,120208,1,0,0:0:0:0:
320,192,120443,1,0,0:0:0:0:
448,192,120443,1,0,0:0:0:0:
192,192,120677,128,0,120911:0:0:0:0:
320,192,120911,1,0,0:0:0:0:
64,192,120911,1,0,0:0:0:0:
192,192,121146,1,0,0:0:0:0:
448,192,121146,128,0,121380:0:0:0:0:
64,192,121380,1,0,0:0:0:0:
320,192,121380,1,0,0:0:0:0:
448,192,121614,1,0,0:0:0:0:
192,192,121614,128,0,122083:0:0:0:0:
320,192,121849,1,0,0:0:0:0:
448,192,122083,1,0,0:0:0:0:
64,192,122083,128,0,122552:0:0:0:0:
192,192,122318,1,0,0:0:0:0:
320,192,122318,1,0,0:0:0:0:
192,192,122552,128,0,122669:0:0:0:0:
448,192,122552,128,0,122786:0:0:0:0:
64,192,122786,128,0,122903:0:0:0:0:
320,192,122786,128,0,123021:0:0:0:0:
448,192,123021,128,0,123138:0:0:0:0:
192,192,123021,128,0,123255:0:0:0:0:
64,192,123255,128,0,123372:0:0:0:0:
320,192,123255,128,0,123489:0:0:0:0:
448,192,123255,1,0,0:0:0:0:
64,192,123489,128,0,123958:0:0:0:0:
448,192,123724,1,0,0:0:0:0:
320,192,123958,1,0,0:0:0:0:
192,192,123958,1,0,0:0:0:0:
448,192,124193,1,0,0:0:0:0:
192,192,124193,1,0,0:0:0:0:
64,192,124193,1,0,0:0:0:0:
320,192,124310,1,0,0:0:0:0:
448,192,124310,1,0,0:0:0:0:
192,192,124427,1,0,0:0:0:0:
64,192,124427,1,0,0:0:0:0:
64,192,124544,1,0,0:0:0:0:
320,192,124544,1,0,0:0:0:0:
320,192,124661,1,0,0:0:0:0:
448,192,124661,1,0,0:0:0:0:
192,192,124778,1,0,0:0:0:0:
64,192,124778,1,0,0:0:0:0:
64,192,124896,1,0,0:0:0:0:
320,192,124896,1,0,0:0:0:0:
448,192,125013,1,0,0:0:0:0:
192,192,125013,1,0,0:0:0:0:
192,192,125130,1,0,0:0:0:0:
64,192,125130,1,0,0:0:0:0:
320,192,125247,1,0,0:0:0:0:
448,192,125247,1,0,0:0:0:0:
448,192,125364,1,0,0:0:0:0:
64,192,125364,1,0,0:0:0:0:
192,192,125482,1,0,0:0:0:0:
64,192,125482,1,0,0:0:0:0:
320,192,125599,1,0,0:0:0:0:
448,192,125599,1,0,0:0:0:0:
192,192,125716,1,0,0:0:0:0:
64,192,125716,1,0,0:0:0:0:
448,192,125833,1,0,0:0:0:0:
64,192,125833,1,0,0:0:0:0:
320,192,125950,1,0,0:0:0:0:
64,192,126068,128,0,126302:0:0:0:0:
192,192,126068,128,0,126302:0:0:0:0:
320,192,126068,128,0,126302:0:0:0:0:
448,192,126068,128,0,126302:0:0:0:0:
192,192,126419,1,0,0:0:0:0:
64,192,126419,1,0,0:0:0:0:
448,192,126419,1,0,0:0:0:0:
64,192,126536,1,0,0:0:0:0:
448,192,126536,1,0,0:0:0:0:
320,192,126536,1,0,0:0:0:0:
64,192,126771,128,0,126888:0:0:0:0:
448,192,126771,128,0,126888:0:0:0:0:
320,192,126771,128,0,126888:0:0:0:0:
64,192,127005,128,0,127122:0:0:0:0:
192,192,127005,128,0,127239:0:0:0:0:
448,192,127005,128,0,127357:0:0:0:0:
320,192,127122,128,0,127357:0:0:0:0:
64,192,127239,128,0,127357:0:0:0:0:
192,192,127357,128,0,127474:0:0:0:0:
320,192,127474,128,0,127591:0:0:0:0:
64,192,127474,128,0,127591:0:0:0:0:
448,192,127474,1,0,0:0:0:0:
192,192,127591,128,0,127708:0:0:0:0:
64,192,127708,128,0,127825:0:0:0:0:
448,192,127708,128,0,127825:0:0:0:0:
64,192,127943,128,0,128177:0:0:0:0:
192,192,127943,128,0,128177:0:0:0:0:
320,192,127943,128,0,128177:0:0:0:0:
448,192,127943,128,0,128177:0:0:0:0:
448,192,128294,1,0,0:0:0:0:
64,192,128294,1,0,0:0:0:0:
320,192,128294,1,0,0:0:0:0:
64,192,128411,1,0,0:0:0:0:
192,192,128411,1,0,0:0:0:0:
448,192,128411,1,0,0:0:0:0:
192,192,128646,128,0,128763:0:0:0:0:
64,192,128646,128,0,128763:0:0:0:0:
320,192,128646,128,0,128763:0:0:0:0:
320,192,128880,128,0,129114:0:0:0:0:
448,192,128880,128,0,128997:0:0:0:0:
64,192,128880,128,0,129232:0:0:0:0:
192,192,128997,128,0,129232:0:0:0:0:
448,192,129114,128,0,129232:0:0:0:0:
320,192,129232,128,0,129349:0:0:0:0:
192,192,129349,128,0,129466:0:0:0:0:
448,192,129349,128,0,129466:0:0:0:0:
64,192,129349,1,0,0:0:0:0:
320,192,129583,128,0,129700:0:0:0:0:
64,192,129583,128,0,129700:0:0:0:0:
448,192,129583,1,0,0:0:0:0:
320,192,129818,128,0,130052:0:0:0:0:
448,192,129818,128,0,130052:0:0:0:0:
64,192,129818,128,0,130052:0:0:0:0:
192,192,129818,128,0,130052:0:0:0:0:
192,192,130169,1,0,0:0:0:0:
64,192,130169,1,0,0:0:0:0:
448,192,130169,1,0,0:0:0:0:
64,192,130286,128,0,130403:0:0:0:0:
320,192,130286,128,0,130403:0:0:0:0:
448,192,130286,128,0,130403:0:0:0:0:
192,192,130521,128,0,130638:0:0:0:0:
448,192,130521,128,0,130638:0:0:0:0:
64,192,130521,128,0,130638:0:0:0:0:
64,192,130755,128,0,130872:0:0:0:0:
192,192,130755,128,0,130989:0:0:0:0:
320,192,130755,128,0,131107:0:0:0:0:
448,192,130872,128,0,131107:0:0:0:0:
64,192,130989,128,0,131107:0:0:0:0:
192,192,131107,128,0,131224:0:0:0:0:
448,192,131224,128,0,131341:0:0:0:0:
320,192,131224,1,0,0:0:0:0:
64,192,131224,1,0,0:0:0:0:
192,192,131341,128,0,131458:0:0:0:0:
64,192,131458,128,0,131575:0:0:0:0:
448,192,131458,128,0,131575:0:0:0:0:
320,192,131575,1,0,0:0:0:0:
448,192,131693,128,0,131927:0:0:0:0:
320,192,131693,128,0,131927:0:0:0:0:
192,192,131693,128,0,131927:0:0:0:0:
64,192,131693,128,0,131927:0:0:0:0:
64,192,132044,1,0,0:0:0:0:
448,192,132044,1,0,0:0:0:0:
192,192,132044,1,0,0:0:0:0:
448,192,132161,1,0,0:0:0:0:
320,192,132161,1,0,0:0:0:0:
64,192,132161,1,0,0:0:0:0:
320,192,132396,128,0,132513:0:0:0:0:
448,192,132396,128,0,132513:0:0:0:0:
192,192,132396,128,0,132513:0:0:0:0:
192,192,132630,128,0,132864:0:0:0:0:
64,192,132630,128,0,132747:0:0:0:0:
448,192,132630,128,0,132982:0:0:0:0:
320,192,132747,128,0,132982:0:0:0:0:
64,192,132864,128,0,132982:0:0:0:0:
192,192,132982,128,0,133099:0:0:0:0:
320,192,133099,128,0,133216:0:0:0:0:
64,192,133099,128,0,133216:0:0:0:0:
448,192,133099,1,0,0:0:0:0:
192,192,133333,128,0,133450:0:0:0:0:
448,192,133333,128,0,133450:0:0:0:0:
64,192,133333,1,0,0:0:0:0:
448,192,133568,128,0,133802:0:0:0:0:
320,192,133568,128,0,133802:0:0:0:0:
64,192,133568,128,0,133802:0:0:0:0:
192,192,133919,1,0,0:0:0:0:
64,192,133919,1,0,0:0:0:0:
448,192,133919,1,0,0:0:0:0:
64,192,134036,1,0,0:0:0:0:
448,192,134036,1,0,0:0:0:0:
320,192,134036,1,0,0:0:0:0:
448,192,134271,128,0,134388:0:0:0:0:
64,192,134271,128,0,134388:0:0:0:0:
192,192,134271,128,0,134388:0:0:0:0:
448,192,134505,128,0,134622:0:0:0:0:
320,192,134505,128,0,134739:0:0:0:0:
64,192,134505,128,0,134857:0:0:0:0:
192,192,134622,128,0,134857:0:0:0:0:
448,192,134739,128,0,134857:0:0:0:0:
320,192,134857,128,0,134974:0:0:0:0:
192,192,134974,128,0,135091:0:0:0:0:
448,192,134974,128,0,135091:0:0:0:0:
64,192,134974,1,0,0:0:0:0:
320,192,135091,128,0,135208:0:0:0:0:
448,192,135208,128,0,135325:0:0:0:0:
64,192,135208,128,0,135325:0:0:0:0:
448,192,135443,128,0,135677:0:0:0:0:
320,192,135443,128,0,135677:0:0:0:0:
192,192,135443,128,0,135677:0:0:0:0:
64,192,135443,128,0,135677:0:0:0:0:
64,192,135794,1,0,0:0:0:0:
448,192,135794,1,0,0:0:0:0:
192,192,135794,1,0,0:0:0:0:
448,192,135911,1,0,0:0:0:0:
320,192,135911,1,0,0:0:0:0:
64,192,135911,1,0,0:0:0:0:
320,192,136146,128,0,136263:0:0:0:0:
448,192,136146,128,0,136263:0:0:0:0:
192,192,136146,128,0,136263:0:0:0:0:
192,192,136380,128,0,136614:0:0:0:0:
64,192,136380,128,0,136497:0:0:0:0:
448,192,136380,128,0,136732:0:0:0:0:
320,192,136497,128,0,136732:0:0:0:0:
64,192,136614,128,0,136732:0:0:0:0:
192,192,136732,128,0,136849:0:0:0:0:
320,192,136849,128,0,136966:0:0:0:0:
64,192,136849,128,0,136966:0:0:0:0:
448,192,136849,1,0,0:0:0:0:
192,192,137083,128,0,137200:0:0:0:0:
448,192,137083,128,0,137200:0:0:0:0:
64,192,137083,1,0,0:0:0:0:
192,192,137318,128,0,137552:0:0:0:0:
64,192,137318,128,0,137552:0:0:0:0:
448,192,137318,128,0,137552:0:0:0:0:
320,192,137318,128,0,137552:0:0:0:0:
320,192,137669,1,0,0:0:0:0:
448,192,137669,1,0,0:0:0:0:
64,192,137669,1,0,0:0:0:0:
448,192,137786,128,0,137903:0:0:0:0:
192,192,137786,128,0,137903:0:0:0:0:
64,192,137786,128,0,137903:0:0:0:0:
320,192,138021,128,0,138138:0:0:0:0:
64,192,138021,128,0,138138:0:0:0:0:
448,192,138021,128,0,138138:0:0:0:0:
192,192,138255,128,0,138607:0:0:0:0:
448,192,138255,128,0,138372:0:0:0:0:
320,192,138255,128,0,138489:0:0:0:0:
64,192,138372,128,0,138607:0:0:0:0:
448,192,138489,128,0,138607:0:0:0:0:
320,192,138607,128,0,138724:0:0:0:0:
64,192,138724,128,0,138841:0:0:0:0:
192,192,138724,1,0,0:0:0:0:
448,192,138724,1,0,0:0:0:0:
320,192,138841,128,0,138958:0:0:0:0:
448,192,138958,128,0,139075:0:0:0:0:
64,192,138958,128,0,139075:0:0:0:0:
192,192,139075,1,0,0:0:0:0:
64,192,139193,1,0,0:0:0:0:
448,192,139193,1,0,0:0:0:0:
320,192,139193,128,0,139310:0:0:0:0:
192,192,139310,128,0,139427:0:0:0:0:
448,192,139427,128,0,139544:0:0:0:0:
64,192,139427,128,0,139661:0:0:0:0:
320,192,139544,128,0,139661:0:0:0:0:
192,192,139661,128,0,139896:0:0:0:0:
320,192,139896,128,0,140247:0:0:0:0:
448,192,139896,128,0,140247:0:0:0:0:
64,192,140364,128,0,140482:0:0:0:0:
320,192,140482,128,0,140599:0:0:0:0:
64,192,140599,128,0,140716:0:0:0:0:
448,192,140716,128,0,140833:0:0:0:0:
192,192,140833,128,0,140950:0:0:0:0:
64,192,140833,128,0,141068:0:0:0:0:
320,192,140950,128,0,141068:0:0:0:0:
192,192,141068,128,0,141302:0:0:0:0:
448,192,141068,128,0,141185:0:0:0:0:
320,192,141185,128,0,141302:0:0:0:0:
64,192,141302,128,0,141419:0:0:0:0:
448,192,141302,128,0,141419:0:0:0:0:
320,192,141419,1,0,0:0:0:0:
64,192,141536,1,0,0:0:0:0:
192,192,141536,128,0,141653:0:0:0:0:
448,192,141536,1,0,0:0:0:0:
320,192,141653,128,0,141771:0:0:0:0:
448,192,141771,128,0,141888:0:0:0:0:
64,192,141771,128,0,141888:0:0:0:0:
192,192,141888,1,0,0:0:0:0:
320,192,142005,128,0,142122:0:0:0:0:
448,192,142005,128,0,142122:0:0:0:0:
64,192,142005,1,0,0:0:0:0:
192,192,142122,1,0,0:0:0:0:
320,192,142239,1,0,0:0:0:0:
448,192,142357,128,0,142474:0:0:0:0:
64,192,142357,1,0,0:0:0:0:
320,192,142474,1,0,0:0:0:0:
192,192,142591,1,0,0:0:0:0:
320,192,142708,128,0,142825:0:0:0:0:
448,192,142708,128,0,142825:0:0:0:0:
64,192,142825,1,0,0:0:0:0:
192,192,142943,128,0,143060:0:0:0:0:
320,192,142943,128,0,143060:0:0:0:0:
448,192,142943,1,0,0:0:0:0:
64,192,143060,128,0,143177:0:0:0:0:
448,192,143177,128,0,143294:0:0:0:0:
320,192,143177,128,0,143294:0:0:0:0:
192,192,143294,128,0,143411:0:0:0:0:
320,192,143411,128,0,143528:0:0:0:0:
64,192,143411,128,0,143528:0:0:0:0:
448,192,143528,128,0,143646:0:0:0:0:
192,192,143646,128,0,143763:0:0:0:0:
64,192,143646,128,0,143763:0:0:0:0:
320,192,143646,1,0,0:0:0:0:
448,192,143880,128,0,143997:0:0:0:0:
64,192,143880,1,0,0:0:0:0:
192,192,143880,128,0,143997:0:0:0:0:
320,192,143997,128,0,144114:0:0:0:0:
192,192,144114,128,0,144232:0:0:0:0:
64,192,144114,128,0,144349:0:0:0:0:
320,192,144232,1,0,0:0:0:0:
448,192,144232,128,0,144466:0:0:0:0:
320,192,144349,128,0,144466:0:0:0:0:
192,192,144349,128,0,144583:0:0:0:0:
64,192,144466,128,0,144583:0:0:0:0:
320,192,144583,128,0,144700:0:0:0:0:
448,192,144583,1,0,0:0:0:0:
192,192,144700,128,0,144818:0:0:0:0:
320,192,144818,1,0,0:0:0:0:
448,192,144818,1,0,0:0:0:0:
64,192,144818,1,0,0:0:0:0:
64,192,145052,128,0,145169:0:0:0:0:
192,192,145052,128,0,145169:0:0:0:0:
448,192,145052,1,0,0:0:0:0:
320,192,145169,1,0,0:0:0:0:
192,192,145286,128,0,145403:0:0:0:0:
448,192,145286,128,0,145521:0:0:0:0:
64,192,145286,1,0,0:0:0:0:
320,192,145403,128,0,145521:0:0:0:0:
64,192,145521,128,0,145638:0:0:0:0:
192,192,145521,128,0,145638:0:0:0:0:
448,192,145638,1,0,0:0:0:0:
320,192,145755,1,0,0:0:0:0:
192,192,145755,128,0,145872:0:0:0:0:
64,192,145755,128,0,145989:0:0:0:0:
448,192,145872,128,0,145989:0:0:0:0:
320,192,145989,1,0,0:0:0:0:
64,192,146107,128,0,146341:0:0:0:0:
192,192,146107,128,0,146224:0:0:0:0:
448,192,146224,1,0,0:0:0:0:
320,192,146224,128,0,146341:0:0:0:0:
192,192,146341,1,0,0:0:0:0:
64,192,146458,1,0,0:0:0:0:
320,192,146458,128,0,146575:0:0:0:0:
448,192,146458,128,0,146575:0:0:0:0:
192,192,146575,1,0,0:0:0:0:
448,192,146693,1,0,0:0:0:0:
64,192,146693,1,0,0:0:0:0:
320,192,146693,1,0,0:0:0:0:
192,192,146810,1,0,0:0:0:0:
448,192,146927,128,0,147044:0:0:0:0:
320,192,146927,128,0,147044:0:0:0:0:
192,192,147044,128,0,147161:0:0:0:0:
320,192,147161,128,0,147278:0:0:0:0:
64,192,147161,128,0,147278:0:0:0:0:
448,192,147278,128,0,147396:0:0:0:0:
192,192,147396,128,0,147513:0:0:0:0:
64,192,147396,128,0,147513:0:0:0:0:
320,192,147396,1,0,0:0:0:0:
448,192,147630,128,0,147747:0:0:0:0:
64,192,147630,1,0,0:0:0:0:
192,192,147630,128,0,147747:0:0:0:0:
448,192,147864,128,0,147982:0:0:0:0:
192,192,147864,128,0,147982:0:0:0:0:
64,192,148099,128,0,148216:0:0:0:0:
192,192,148099,128,0,148333:0:0:0:0:
320,192,148216,128,0,148450:0:0:0:0:
448,192,148333,128,0,148450:0:0:0:0:
64,192,148333,1,0,0:0:0:0:
192,192,148450,1,0,0:0:0:0:
448,192,148568,1,0,0:0:0:0:
320,192,148568,1,0,0:0:0:0:
64,192,148568,1,0,0:0:0:0:
320,192,148802,1,0,0:0:0:0:
448,192,148802,1,0,0:0:0:0:
64,192,148919,1,0,0:0:0:0:
448,192,148919,1,0,0:0:0:0:
320,192,149036,1,0,0:0:0:0:
64,192,149036,128,0,149153:0:0:0:0:
192,192,149036,128,0,149153:0:0:0:0:
448,192,149271,128,0,149388:0:0:0:0:
64,192,149271,128,0,149388:0:0:0:0:
192,192,149271,1,0,0:0:0:0:
64,192,149505,1,0,0:0:0:0:
320,192,149505,1,0,0:0:0:0:
448,192,149505,1,0,0:0:0:0:
320,192,149857,1,0,0:0:0:0:
448,192,149857,1,0,0:0:0:0:
64,192,149857,1,0,0:0:0:0:
64,192,149974,128,0,150091:0:0:0:0:
192,192,149974,128,0,150091:0:0:0:0:
448,192,149974,128,0,150091:0:0:0:0:
192,192,150208,128,0,150325:0:0:0:0:
320,192,150208,128,0,150325:0:0:0:0:
320,192,150443,1,0,0:0:0:0:
448,192,150443,1,0,0:0:0:0:
64,192,150443,1,0,0:0:0:0:
64,192,150677,1,0,0:0:0:0:
192,192,150677,1,0,0:0:0:0:
64,192,150794,1,0,0:0:0:0:
448,192,150794,1,0,0:0:0:0:
320,192,150911,1,0,0:0:0:0:
448,192,150911,1,0,0:0:0:0:
192,192,150911,1,0,0:0:0:0:
64,192,151028,1,0,0:0:0:0:
320,192,151028,1,0,0:0:0:0:
448,192,151146,1,0,0:0:0:0:
192,192,151146,1,0,0:0:0:0:
192,192,151263,1,0,0:0:0:0:
64,192,151263,1,0,0:0:0:0:
64,192,151380,128,0,151614:0:0:0:0:
320,192,151380,1,0,0:0:0:0:
448,192,151380,128,0,151497:0:0:0:0:
192,192,151497,128,0,151614:0:0:0:0:
320,192,151614,128,0,151732:0:0:0:0:
448,192,151614,128,0,151732:0:0:0:0:
192,192,151732,1,0,0:0:0:0:
64,192,151732,1,0,0:0:0:0:
320,192,151849,128,0,152083:0:0:0:0:
448,192,151849,128,0,151966:0:0:0:0:
64,192,151849,1,0,0:0:0:0:
192,192,151966,128,0,152200:0:0:0:0:
64,192,152083,128,0,152200:0:0:0:0:
448,192,152083,1,0,0:0:0:0:
64,192,152318,1,0,0:0:0:0:
320,192,152318,128,0,152435:0:0:0:0:
448,192,152318,128,0,152435:0:0:0:0:
192,192,152552,1,0,0:0:0:0:
64,192,152552,1,0,0:0:0:0:
448,192,152669,1,0,0:0:0:0:
64,192,152669,1,0,0:0:0:0:
192,192,152786,1,0,0:0:0:0:
448,192,152786,128,0,152903:0:0:0:0:
320,192,152786,128,0,152903:0:0:0:0:
64,192,153021,128,0,153138:0:0:0:0:
448,192,153021,128,0,153138:0:0:0:0:
320,192,153021,1,0,0:0:0:0:
448,192,153255,1,0,0:0:0:0:
192,192,153255,1,0,0:0:0:0:
64,192,153255,1,0,0:0:0:0:
192,192,153607,1,0,0:0:0:0:
64,192,153607,1,0,0:0:0:0:
448,192,153607,1,0,0:0:0:0:
448,192,153724,128,0,153841:0:0:0:0:
320,192,153724,128,0,153841:0:0:0:0:
64,192,153724,128,0,153841:0:0:0:0:
320,192,153958,128,0,154075:0:0:0:0:
192,192,153958,128,0,154075:0:0:0:0:
192,192,154193,1,0,0:0:0:0:
64,192,154193,1,0,0:0:0:0:
448,192,154193,1,0,0:0:0:0:
448,192,154427,1,0,0:0:0:0:
320,192,154427,1,0,0:0:0:0:
448,192,154544,1,0,0:0:0:0:
64,192,154544,1,0,0:0:0:0:
192,192,154661,1,0,0:0:0:0:
64,192,154661,1,0,0:0:0:0:
320,192,154661,1,0,0:0:0:0:
448,192,154778,1,0,0:0:0:0:
192,192,154778,1,0,0:0:0:0:
64,192,154896,1,0,0:0:0:0:
320,192,154896,1,0,0:0:0:0:
320,192,155130,1,0,0:0:0:0:
448,192,155130,1,0,0:0:0:0:
64,192,155130,1,0,0:0:0:0:
192,192,155286,1,0,0:0:0:0:
64,192,155286,1,0,0:0:0:0:
448,192,155286,1,0,0:0:0:0:
320,192,155443,1,0,0:0:0:0:
64,192,155443,1,0,0:0:0:0:
192,192,155443,1,0,0:0:0:0:
64,192,155599,128,0,155950:0:0:0:0:
320,192,155599,128,0,155950:0:0:0:0:
448,192,155599,128,0,155950:0:0:0:0:
192,192,156068,1,0,0:0:0:0:
320,192,156068,1,0,0:0:0:0:
64,192,156068,1,0,0:0:0:0:
448,192,156068,1,0,0:0:0:0:
448,192,156536,1,0,0:0:0:0:
64,192,156536,1,0,0:0:0:0:
320,192,156771,128,0,157239:0:0:0:0:
448,192,157005,128,0,157239:0:0:0:0:
64,192,157005,1,0,0:0:0:0:
192,192,157239,128,0,157708:0:0:0:0:
320,192,157474,128,0,157708:0:0:0:0:
448,192,157474,1,0,0:0:0:0:
448,192,157708,128,0,158177:0:0:0:0:
64,192,157708,1,0,0:0:0:0:
64,192,157943,1,0,0:0:0:0:
192,192,157943,1,0,0:0:0:0:
64,192,158177,128,0,158646:0:0:0:0:
192,192,158411,1,0,0:0:0:0:
448,192,158646,128,0,159114:0:0:0:0:
320,192,158880,1,0,0:0:0:0:
192,192,158880,1,0,0:0:0:0:
64,192,159114,128,0,159583:0:0:0:0:
448,192,159349,1,0,0:0:0:0:
320,192,159583,128,0,160286:0:0:0:0:
192,192,159818,1,0,0:0:0:0:
64,192,159818,1,0,0:0:0:0:
192,192,160286,1,0,0:0:0:0:
448,192,160521,128,0,160638:0:0:0:0:
192,192,160638,128,0,160755:0:0:0:0:
64,192,160755,128,0,160989:0:0:0:0:
320,192,160755,1,0,0:0:0:0:
192,192,160989,128,0,161224:0:0:0:0:
320,192,161224,128,0,161458:0:0:0:0:
64,192,161458,128,0,161927:0:0:0:0:
448,192,161458,1,0,0:0:0:0:
192,192,161458,1,0,0:0:0:0:
320,192,161693,1,0,0:0:0:0:
448,192,161693,1,0,0:0:0:0:
192,192,161927,128,0,162161:0:0:0:0:
320,192,162161,128,0,162630:0:0:0:0:
448,192,162161,1,0,0:0:0:0:
64,192,162396,1,0,0:0:0:0:
192,192,162630,1,0,0:0:0:0:
448,192,162630,1,0,0:0:0:0:
320,192,162864,128,0,162982:0:0:0:0:
64,192,162982,1,0,0:0:0:0:
192,192,162982,128,0,163099:0:0:0:0:
320,192,163099,128,0,163216:0:0:0:0:
448,192,163216,128,0,163568:0:0:0:0:
64,192,163333,1,0,0:0:0:0:
192,192,163333,1,0,0:0:0:0:
64,192,163568,1,0,0:0:0:0:
320,192,163568,1,0,0:0:0:0:
448,192,164036,1,0,0:0:0:0:
64,192,164036,1,0,0:0:0:0:
320,192,164271,128,0,164505:0:0:0:0:
448,192,164505,128,0,164739:0:0:0:0:
192,192,164505,1,0,0:0:0:0:
64,192,164505,128,0,164622:0:0:0:0:
192,192,164739,128,0,164974:0:0:0:0:
64,192,164974,128,0,165208:0:0:0:0:
448,192,164974,128,0,165091:0:0:0:0:
320,192,165208,1,0,0:0:0:0:
448,192,165208,128,0,165443:0:0:0:0:
192,192,165208,1,0,0:0:0:0:
64,192,165443,1,0,0:0:0:0:
192,192,165443,1,0,0:0:0:0:
320,192,165677,128,0,165911:0:0:0:0:
448,192,165911,1,0,0:0:0:0:
192,192,165911,1,0,0:0:0:0:
64,192,166146,128,0,166380:0:0:0:0:
320,192,166146,1,0,0:0:0:0:
192,192,166380,1,0,0:0:0:0:
448,192,166380,1,0,0:0:0:0:
320,192,166614,128,0,167083:0:0:0:0:
64,192,166614,1,0,0:0:0:0:
192,192,166849,1,0,0:0:0:0:
448,192,167083,128,0,167552:0:0:0:0:
64,192,167083,1,0,0:0:0:0:
192,192,167318,1,0,0:0:0:0:
320,192,167318,1,0,0:0:0:0:
64,192,167552,128,0,167786:0:0:0:0:
320,192,167552,128,0,167669:0:0:0:0:
192,192,167786,128,0,168021:0:0:0:0:
448,192,167786,128,0,167903:0:0:0:0:
320,192,168021,128,0,168255:0:0:0:0:
64,192,168021,128,0,168138:0:0:0:0:
64,192,168255,1,0,0:0:0:0:
192,192,168255,128,0,168489:0:0:0:0:
448,192,168255,128,0,168372:0:0:0:0:
448,192,168489,128,0,168958:0:0:0:0:
64,192,168724,1,0,0:0:0:0:
320,192,168958,1,0,0:0:0:0:
192,192,168958,1,0,0:0:0:0:
64,192,169193,1,0,0:0:0:0:
448,192,169193,128,0,169310:0:0:0:0:
320,192,169193,128,0,169310:0:0:0:0:
192,192,169310,128,0,169427:0:0:0:0:
64,192,169427,128,0,169544:0:0:0:0:
320,192,169427,128,0,169544:0:0:0:0:
448,192,169544,128,0,169661:0:0:0:0:
192,192,169661,128,0,169778:0:0:0:0:
64,192,169661,128,0,169778:0:0:0:0:
320,192,169778,128,0,169896:0:0:0:0:
192,192,169896,128,0,170013:0:0:0:0:
448,192,169896,128,0,170013:0:0:0:0:
64,192,170013,128,0,170130:0:0:0:0:
448,192,170130,128,0,170247:0:0:0:0:
320,192,170130,128,0,170247:0:0:0:0:
192,192,170247,128,0,170364:0:0:0:0:
64,192,170364,128,0,170482:0:0:0:0:
448,192,170364,128,0,170482:0:0:0:0:
320,192,170482,128,0,170599:0:0:0:0:
64,192,170599,128,0,170716:0:0:0:0:
192,192,170599,128,0,170716:0:0:0:0:
320,192,170716,128,0,170833:0:0:0:0:
64,192,170833,128,0,170950:0:0:0:0:
448,192,170833,128,0,171068:0:0:0:0:
320,192,170950,128,0,171068:0:0:0:0:
192,192,171068,128,0,171536:0:0:0:0:
64,192,171068,128,0,172239:0:0:0:0:
448,192,171536,128,0,172005:0:0:0:0:
192,192,171771,128,0,172005:0:0:0:0:
320,192,172005,128,0,172708:0:0:0:0:
192,192,172239,128,0,172708:0:0:0:0:
448,192,172474,128,0,172708:0:0:0:0:
64,192,172474,128,0,172708:0:0:0:0:
448,192,172943,128,0,173177:0:0:0:0:
320,192,172943,128,0,173177:0:0:0:0:
192,192,172943,128,0,173177:0:0:0:0:
64,192,172943,128,0,173177:0:0:0:0:
320,192,173294,1,0,0:0:0:0:
448,192,173294,1,0,0:0:0:0:
64,192,173294,1,0,0:0:0:0:
448,192,173411,1,0,0:0:0:0:
64,192,173411,1,0,0:0:0:0:
192,192,173411,1,0,0:0:0:0:
448,192,173646,128,0,173763:0:0:0:0:
64,192,173646,128,0,173763:0:0:0:0:
192,192,173646,128,0,173763:0:0:0:0:
448,192,173880,128,0,173997:0:0:0:0:
320,192,173880,128,0,174114:0:0:0:0:
64,192,173880,128,0,174232:0:0:0:0:
192,192,173997,128,0,174232:0:0:0:0:
448,192,174114,128,0,174232:0:0:0:0:
320,192,174232,128,0,174349:0:0:0:0:
192,192,174349,128,0,174466:0:0:0:0:
448,192,174349,128,0,174466:0:0:0:0:
64,192,174349,1,0,0:0:0:0:
320,192,174466,128,0,174583:0:0:0:0:
448,192,174583,128,0,174700:0:0:0:0:
64,192,174583,128,0,174700:0:0:0:0:
448,192,174818,128,0,175052:0:0:0:0:
320,192,174818,128,0,175052:0:0:0:0:
192,192,174818,128,0,175052:0:0:0:0:
64,192,174818,128,0,175052:0:0:0:0:
64,192,175169,1,0,0:0:0:0:
448,192,175169,1,0,0:0:0:0:
192,192,175169,1,0,0:0:0:0:
448,192,175286,1,0,0:0:0:0:
320,192,175286,1,0,0:0:0:0:
64,192,175286,1,0,0:0:0:0:
320,192,175521,128,0,175638:0:0:0:0:
448,192,175521,128,0,175638:0:0:0:0:
192,192,175521,128,0,175638:0:0:0:0:
192,192,175755,128,0,175989:0:0:0:0:
64,192,175755,128,0,175872:0:0:0:0:
448,192,175755,128,0,176107:0:0:0:0:
320,192,175872,128,0,176107:0:0:0:0:
64,192,175989,128,0,176107:0:0:0:0:
192,192,176107,128,0,176224:0:0:0:0:
320,192,176224,128,0,176341:0:0:0:0:
64,192,176224,128,0,176341:0:0:0:0:
448,192,176224,1,0,0:0:0:0:
192,192,176458,128,0,176575:0:0:0:0:
448,192,176458,128,0,176575:0:0:0:0:
64,192,176458,1,0,0:0:0:0:
192,192,176693,128,0,176927:0:0:0:0:
64,192,176693,128,0,176927:0:0:0:0:
448,192,176693,128,0,176927:0:0:0:0:
320,192,176693,128,0,176927:0:0:0:0:
320,192,177044,1,0,0:0:0:0:
448,192,177044,1,0,0:0:0:0:
64,192,177044,1,0,0:0:0:0:
448,192,177161,128,0,177278:0:0:0:0:
192,192,177161,128,0,177278:0:0:0:0:
64,192,177161,128,0,177278:0:0:0:0:
320,192,177396,128,0,177513:0:0:0:0:
64,192,177396,128,0,177513:0:0:0:0:
448,192,177396,128,0,177513:0:0:0:0:
448,192,177630,128,0,177747:0:0:0:0:
320,192,177630,128,0,177864:0:0:0:0:
192,192,177630,128,0,177982:0:0:0:0:
64,192,177747,128,0,177982:0:0:0:0:
448,192,177864,128,0,177982:0:0:0:0:
320,192,177982,128,0,178099:0:0:0:0:
64,192,178099,128,0,178216:0:0:0:0:
192,192,178099,1,0,0:0:0:0:
448,192,178099,1,0,0:0:0:0:
320,192,178216,128,0,178333:0:0:0:0:
448,192,178333,128,0,178450:0:0:0:0:
64,192,178333,128,0,178450:0:0:0:0:
192,192,178450,1,0,0:0:0:0:
64,192,178568,128,0,178802:0:0:0:0:
192,192,178568,128,0,178802:0:0:0:0:
320,192,178568,128,0,178802:0:0:0:0:
448,192,178568,128,0,178802:0:0:0:0:
448,192,178919,1,0,0:0:0:0:
64,192,178919,1,0,0:0:0:0:
320,192,178919,1,0,0:0:0:0:
64,192,179036,1,0,0:0:0:0:
192,192,179036,1,0,0:0:0:0:
448,192,179036,1,0,0:0:0:0:
192,192,179271,128,0,179388:0:0:0:0:
64,192,179271,128,0,179388:0:0:0:0:
320,192,179271,128,0,179388:0:0:0:0:
320,192,179505,128,0,179739:0:0:0:0:
448,192,179505,128,0,179622:0:0:0:0:
64,192,179505,128,0,179857:0:0:0:0:
192,192,179622,128,0,179857:0:0:0:0:
448,192,179739,128,0,179857:0:0:0:0:
320,192,179857,128,0,179974:0:0:0:0:
192,192,179974,128,0,180091:0:0:0:0:
448,192,179974,128,0,180091:0:0:0:0:
64,192,179974,1,0,0:0:0:0:
320,192,180208,128,0,180325:0:0:0:0:
64,192,180208,128,0,180325:0:0:0:0:
448,192,180208,1,0,0:0:0:0:
64,192,180443,128,0,180677:0:0:0:0:
192,192,180443,128,0,180677:0:0:0:0:
448,192,180443,128,0,180677:0:0:0:0:
320,192,180794,1,0,0:0:0:0:
448,192,180794,1,0,0:0:0:0:
64,192,180794,1,0,0:0:0:0:
448,192,180911,1,0,0:0:0:0:
64,192,180911,1,0,0:0:0:0:
192,192,180911,1,0,0:0:0:0:
64,192,181146,128,0,181263:0:0:0:0:
448,192,181146,128,0,181263:0:0:0:0:
320,192,181146,128,0,181263:0:0:0:0:
64,192,181380,128,0,181497:0:0:0:0:
192,192,181380,128,0,181614:0:0:0:0:
448,192,181380,128,0,181732:0:0:0:0:
320,192,181497,128,0,181732:0:0:0:0:
64,192,181614,128,0,181732:0:0:0:0:
192,192,181732,128,0,181849:0:0:0:0:
320,192,181849,128,0,181966:0:0:0:0:
64,192,181849,128,0,181966:0:0:0:0:
448,192,181849,1,0,0:0:0:0:
192,192,181966,128,0,182083:0:0:0:0:
64,192,182083,128,0,182200:0:0:0:0:
448,192,182083,128,0,182200:0:0:0:0:
64,192,182318,128,0,182552:0:0:0:0:
192,192,182318,128,0,182552:0:0:0:0:
320,192,182318,128,0,182552:0:0:0:0:
448,192,182318,128,0,182552:0:0:0:0:
448,192,182669,1,0,0:0:0:0:
64,192,182669,1,0,0:0:0:0:
320,192,182669,1,0,0:0:0:0:
64,192,182786,1,0,0:0:0:0:
192,192,182786,1,0,0:0:0:0:
448,192,182786,1,0,0:0:0:0:
192,192,183021,128,0,183138:0:0:0:0:
64,192,183021,128,0,183138:0:0:0:0:
320,192,183021,128,0,183138:0:0:0:0:
320,192,183255,128,0,183489:0:0:0:0:
448,192,183255,128,0,183372:0:0:0:0:
64,192,183255,128,0,183607:0:0:0:0:
192,192,183372,128,0,183607:0:0:0:0:
448,192,183489,128,0,183607:0:0:0:0:
320,192,183607,128,0,183724:0:0:0:0:
192,192,183724,128,0,183841:0:0:0:0:
448,192,183724,128,0,183841:0:0:0:0:
64,192,183724,1,0,0:0:0:0:
320,192,183958,128,0,184075:0:0:0:0:
64,192,183958,128,0,184075:0:0:0:0:
448,192,183958,1,0,0:0:0:0:
320,192,184193,128,0,184427:0:0:0:0:
448,192,184193,128,0,184427:0:0:0:0:
64,192,184193,128,0,184427:0:0:0:0:
192,192,184193,128,0,184427:0:0:0:0:
192,192,184544,1,0,0:0:0:0:
64,192,184544,1,0,0:0:0:0:
448,192,184544,1,0,0:0:0:0:
64,192,184661,128,0,184778:0:0:0:0:
320,192,184661,128,0,184778:0:0:0:0:
448,192,184661,128,0,184778:0:0:0:0:
192,192,184896,128,0,185013:0:0:0:0:
448,192,184896,128,0,185013:0:0:0:0:
64,192,184896,128,0,185013:0:0:0:0:
320,192,185130,128,0,185482:0:0:0:0:
64,192,185130,128,0,185247:0:0:0:0:
192,192,185130,128,0,185364:0:0:0:0:
448,192,185247,128,0,185482:0:0:0:0:
64,192,185364,128,0,185482:0:0:0:0:
192,192,185482,128,0,185599:0:0:0:0:
448,192,185599,128,0,185716:0:0:0:0:
320,192,185599,1,0,0:0:0:0:
64,192,185599,1,0,0:0:0:0:
192,192,185716,128,0,185833:0:0:0:0:
64,192,185833,128,0,185950:0:0:0:0:
448,192,185833,128,0,185950:0:0:0:0:
320,192,185950,1,0,0:0:0:0:
192,192,186068,128,0,186302:0:0:0:0:
64,192,186068,128,0,186302:0:0:0:0:
448,192,186068,128,0,186302:0:0:0:0:
320,192,186068,128,0,186302:0:0:0:0:
192,192,186419,1,0,0:0:0:0:
448,192,186419,1,0,0:0:0:0:
64,192,186419,1,0,0:0:0:0:
64,192,186536,1,0,0:0:0:0:
320,192,186536,1,0,0:0:0:0:
448,192,186536,1,0,0:0:0:0:
192,192,186771,128,0,186888:0:0:0:0:
448,192,186771,128,0,186888:0:0:0:0:
320,192,186771,128,0,186888:0:0:0:0:
448,192,187005,128,0,187357:0:0:0:0:
64,192,187005,128,0,187122:0:0:0:0:
192,192,187005,128,0,187239:0:0:0:0:
320,192,187122,128,0,187357:0:0:0:0:
64,192,187239,128,0,187357:0:0:0:0:
192,192,187357,128,0,187474:0:0:0:0:
64,192,187474,128,0,187591:0:0:0:0:
320,192,187474,128,0,187591:0:0:0:0:
448,192,187708,128,0,187825:0:0:0:0:
192,192,187708,128,0,187825:0:0:0:0:
448,192,187943,128,0,188294:0:0:0:0:
64,192,187943,128,0,188294:0:0:0:0:
320,192,187943,1,0,0:0:0:0:
192,192,188060,128,0,188294:0:0:0:0:
320,192,188177,128,0,188294:0:0:0:0:
192,192,188411,128,0,188528:0:0:0:0:
64,192,188411,128,0,188528:0:0:0:0:
448,192,188411,128,0,188528:0:0:0:0:
192,192,188646,128,0,188763:0:0:0:0:
320,192,188646,128,0,188763:0:0:0:0:
448,192,188880,128,0,189232:0:0:0:0:
192,192,188880,1,0,0:0:0:0:
64,192,188880,1,0,0:0:0:0:
320,192,188997,128,0,189232:0:0:0:0:
192,192,189114,128,0,189232:0:0:0:0:
64,192,189232,1,0,0:0:0:0:
192,192,189349,128,0,189466:0:0:0:0:
320,192,189349,128,0,189583:0:0:0:0:
448,192,189349,128,0,189700:0:0:0:0:
64,192,189466,1,0,0:0:0:0:
192,192,189583,1,0,0:0:0:0:
320,192,189700,1,0,0:0:0:0:
64,192,189818,128,0,190169:0:0:0:0:
448,192,189818,128,0,190169:0:0:0:0:
192,192,189818,1,0,0:0:0:0:
320,192,189935,128,0,190169:0:0:0:0:
192,192,190052,128,0,190169:0:0:0:0:
320,192,190286,128,0,190403:0:0:0:0:
448,192,190286,128,0,190403:0:0:0:0:
64,192,190286,128,0,190403:0:0:0:0:
320,192,190521,128,0,190638:0:0:0:0:
192,192,190521,128,0,190638:0:0:0:0:
64,192,190755,128,0,191107:0:0:0:0:
320,192,190755,1,0,0:0:0:0:
448,192,190755,1,0,0:0:0:0:
192,192,190872,128,0,191107:0:0:0:0:
320,192,190989,128,0,191107:0:0:0:0:
448,192,191107,1,0,0:0:0:0:
320,192,191224,128,0,191341:0:0:0:0:
192,192,191224,128,0,191458:0:0:0:0:
64,192,191224,128,0,191575:0:0:0:0:
448,192,191341,1,0,0:0:0:0:
320,192,191458,1,0,0:0:0:0:
192,192,191575,1,0,0:0:0:0:
320,192,191693,1,0,0:0:0:0:
64,192,191693,128,0,192044:0:0:0:0:
448,192,191693,128,0,192044:0:0:0:0:
192,192,191810,128,0,192044:0:0:0:0:
320,192,191927,128,0,192044:0:0:0:0:
448,192,192161,128,0,192278:0:0:0:0:
64,192,192161,128,0,192278:0:0:0:0:
192,192,192161,128,0,192278:0:0:0:0:
320,192,192396,128,0,192513:0:0:0:0:
192,192,192396,128,0,192513:0:0:0:0:
64,192,192630,1,0,0:0:0:0:
192,192,192630,1,0,0:0:0:0:
448,192,192630,128,0,192982:0:0:0:0:
320,192,192747,128,0,192982:0:0:0:0:
192,192,192864,128,0,192982:0:0:0:0:
64,192,192982,1,0,0:0:0:0:
192,192,193099,128,0,193216:0:0:0:0:
320,192,193099,128,0,193333:0:0:0:0:
448,192,193099,128,0,193450:0:0:0:0:
64,192,193216,1,0,0:0:0:0:
192,192,193333,1,0,0:0:0:0:
320,192,193450,1,0,0:0:0:0:
192,192,193568,128,0,193685:0:0:0:0:
64,192,193568,128,0,193685:0:0:0:0:
448,192,193568,128,0,193802:0:0:0:0:
320,192,193685,128,0,193802:0:0:0:0:
64,192,193802,128,0,193919:0:0:0:0:
192,192,193919,1,0,0:0:0:0:
320,192,194036,1,0,0:0:0:0:
448,192,194036,128,0,194153:0:0:0:0:
64,192,194036,1,0,0:0:0:0:
192,192,194153,1,0,0:0:0:0:
448,192,194271,128,0,194388:0:0:0:0:
320,192,194271,128,0,194388:0:0:0:0:
192,192,194388,1,0,0:0:0:0:
448,192,194505,128,0,194622:0:0:0:0:
320,192,194505,128,0,194739:0:0:0:0:
64,192,194505,1,0,0:0:0:0:
192,192,194622,128,0,194857:0:0:0:0:
64,192,194739,128,0,194857:0:0:0:0:
448,192,194739,128,0,194857:0:0:0:0:
320,192,194857,128,0,194974:0:0:0:0:
448,192,194974,1,0,0:0:0:0:
192,192,194974,128,0,195091:0:0:0:0:
64,192,194974,1,0,0:0:0:0:
320,192,195091,128,0,195208:0:0:0:0:
192,192,195208,128,0,195325:0:0:0:0:
64,192,195208,128,0,195325:0:0:0:0:
320,192,195443,128,0,195560:0:0:0:0:
448,192,195443,128,0,195677:0:0:0:0:
192,192,195443,1,0,0:0:0:0:
64,192,195560,128,0,195794:0:0:0:0:
192,192,195677,128,0,195794:0:0:0:0:
320,192,195794,1,0,0:0:0:0:
448,192,195794,1,0,0:0:0:0:
64,192,195911,1,0,0:0:0:0:
192,192,195911,1,0,0:0:0:0:
448,192,195911,1,0,0:0:0:0:
64,192,196146,128,0,196263:0:0:0:0:
448,192,196146,128,0,196263:0:0:0:0:
320,192,196146,128,0,196263:0:0:0:0:
64,192,196380,128,0,196497:0:0:0:0:
192,192,196380,128,0,196614:0:0:0:0:
448,192,196380,128,0,196732:0:0:0:0:
320,192,196497,128,0,196732:0:0:0:0:
64,192,196614,128,0,196732:0:0:0:0:
192,192,196732,128,0,196849:0:0:0:0:
320,192,196849,128,0,196966:0:0:0:0:
64,192,196849,128,0,196966:0:0:0:0:
448,192,196849,1,0,0:0:0:0:
192,192,196966,128,0,197083:0:0:0:0:
64,192,197083,128,0,197200:0:0:0:0:
448,192,197083,128,0,197200:0:0:0:0:
448,192,197318,128,0,197552:0:0:0:0:
320,192,197318,128,0,197552:0:0:0:0:
192,192,197318,128,0,197552:0:0:0:0:
64,192,197318,128,0,197552:0:0:0:0:
64,192,197669,1,0,0:0:0:0:
448,192,197669,1,0,0:0:0:0:
192,192,197669,1,0,0:0:0:0:
448,192,197786,1,0,0:0:0:0:
320,192,197786,1,0,0:0:0:0:
64,192,197786,1,0,0:0:0:0:
320,192,198021,128,0,198138:0:0:0:0:
448,192,198021,128,0,198138:0:0:0:0:
192,192,198021,128,0,198138:0:0:0:0:
192,192,198255,128,0,198489:0:0:0:0:
64,192,198255,128,0,198372:0:0:0:0:
448,192,198255,128,0,198607:0:0:0:0:
320,192,198372,128,0,198607:0:0:0:0:
64,192,198489,128,0,198607:0:0:0:0:
192,192,198607,1,0,0:0:0:0:
320,192,198724,128,0,198841:0:0:0:0:
448,192,198724,128,0,198841:0:0:0:0:
64,192,198724,1,0,0:0:0:0:
192,192,198841,1,0,0:0:0:0:
448,192,198958,128,0,199075:0:0:0:0:
64,192,198958,128,0,199075:0:0:0:0:
320,192,199075,1,0,0:0:0:0:
192,192,199193,1,0,0:0:0:0:
64,192,199193,1,0,0:0:0:0:
448,192,199193,128,0,199544:0:0:0:0:
320,192,199310,128,0,199544:0:0:0:0:
192,192,199427,128,0,199544:0:0:0:0:
64,192,199427,1,0,0:0:0:0:
448,192,199661,128,0,199778:0:0:0:0:
320,192,199661,128,0,199778:0:0:0:0:
64,192,199661,128,0,199778:0:0:0:0:
192,192,199896,128,0,200013:0:0:0:0:
64,192,199896,128,0,200013:0:0:0:0:
448,192,199896,128,0,200013:0:0:0:0:
192,192,200130,128,0,200482:0:0:0:0:
448,192,200130,128,0,200247:0:0:0:0:
320,192,200130,128,0,200364:0:0:0:0:
64,192,200247,128,0,200482:0:0:0:0:
448,192,200364,128,0,200482:0:0:0:0:
320,192,200482,128,0,200599:0:0:0:0:
192,192,200599,128,0,200833:0:0:0:0:
64,192,200599,128,0,200950:0:0:0:0:
448,192,200599,1,0,0:0:0:0:
320,192,200716,128,0,200950:0:0:0:0:
448,192,200833,128,0,200950:0:0:0:0:
192,192,200950,128,0,201068:0:0:0:0:
64,192,201068,1,0,0:0:0:0:
448,192,201068,1,0,0:0:0:0:
320,192,201068,1,0,0:0:0:0:
64,192,201302,128,0,201419:0:0:0:0:
320,192,201302,128,0,201419:0:0:0:0:
448,192,201536,128,0,201653:0:0:0:0:
192,192,201536,128,0,201653:0:0:0:0:
320,192,201771,128,0,202122:0:0:0:0:
64,192,202239,128,0,202357:0:0:0:0:
320,192,202357,128,0,202474:0:0:0:0:
192,192,202474,128,0,202591:0:0:0:0:
448,192,202591,128,0,202708:0:0:0:0:
64,192,202708,1,0,0:0:0:0:
320,192,202708,128,0,202825:0:0:0:0:
192,192,202825,128,0,202943:0:0:0:0:
64,192,202943,1,0,0:0:0:0:
320,192,202943,1,0,0:0:0:0:
448,192,202943,1,0,0:0:0:0:
64,192,203177,1,0,0:0:0:0:
320,192,203177,1,0,0:0:0:0:
448,192,203294,1,0,0:0:0:0:
192,192,203294,1,0,0:0:0:0:
448,192,203411,128,0,203528:0:0:0:0:
320,192,203411,128,0,203528:0:0:0:0:
64,192,203411,1,0,0:0:0:0:
64,192,203646,128,0,203763:0:0:0:0:
192,192,203646,128,0,203763:0:0:0:0:
448,192,203646,1,0,0:0:0:0:
448,192,203880,1,0,0:0:0:0:
64,192,203880,1,0,0:0:0:0:
320,192,203880,1,0,0:0:0:0:
64,192,204114,128,0,204232:0:0:0:0:
448,192,204114,128,0,204232:0:0:0:0:
320,192,204232,128,0,204349:0:0:0:0:
448,192,204349,1,0,0:0:0:0:
192,192,204349,128,0,204466:0:0:0:0:
64,192,204349,128,0,204583:0:0:0:0:
320,192,204466,128,0,204583:0:0:0:0:
192,192,204583,128,0,204700:0:0:0:0:
448,192,204583,128,0,204700:0:0:0:0:
448,192,204818,1,0,0:0:0:0:
64,192,204818,128,0,204935:0:0:0:0:
320,192,204818,128,0,204935:0:0:0:0:
192,192,205052,1,0,0:0:0:0:
448,192,205052,128,0,205169:0:0:0:0:
320,192,205169,1,0,0:0:0:0:
64,192,205169,1,0,0:0:0:0:
448,192,205286,1,0,0:0:0:0:
192,192,205286,128,0,205403:0:0:0:0:
64,192,205286,128,0,205403:0:0:0:0:
320,192,205521,128,0,205638:0:0:0:0:
448,192,205521,128,0,205638:0:0:0:0:
64,192,205521,1,0,0:0:0:0:
192,192,205755,1,0,0:0:0:0:
64,192,205755,1,0,0:0:0:0:
448,192,205755,128,0,205872:0:0:0:0:
64,192,205989,1,0,0:0:0:0:
192,192,205989,128,0,206107:0:0:0:0:
320,192,206107,1,0,0:0:0:0:
448,192,206107,1,0,0:0:0:0:
192,192,206224,1,0,0:0:0:0:
64,192,206224,128,0,206341:0:0:0:0:
448,192,206224,128,0,206341:0:0:0:0:
320,192,206458,128,0,206575:0:0:0:0:
448,192,206458,128,0,206575:0:0:0:0:
64,192,206458,1,0,0:0:0:0:
64,192,206693,128,0,206810:0:0:0:0:
448,192,206693,128,0,206810:0:0:0:0:
192,192,206693,128,0,206810:0:0:0:0:
320,192,206693,128,0,206810:0:0:0:0:
448,192,206927,1,0,0:0:0:0:
192,192,206927,1,0,0:0:0:0:
64,192,207044,1,0,0:0:0:0:
320,192,207044,1,0,0:0:0:0:
64,192,207161,128,0,207278:0:0:0:0:
192,192,207161,128,0,207278:0:0:0:0:
448,192,207161,1,0,0:0:0:0:
448,192,207396,128,0,207513:0:0:0:0:
320,192,207396,128,0,207513:0:0:0:0:
64,192,207396,1,0,0:0:0:0:
64,192,207630,1,0,0:0:0:0:
448,192,207630,1,0,0:0:0:0:
192,192,207630,1,0,0:0:0:0:
448,192,207864,128,0,207982:0:0:0:0:
64,192,207864,128,0,207982:0:0:0:0:
192,192,207982,128,0,208099:0:0:0:0:
64,192,208099,1,0,0:0:0:0:
320,192,208099,128,0,208216:0:0:0:0:
448,192,208099,128,0,208333:0:0:0:0:
192,192,208216,128,0,208333:0:0:0:0:
64,192,208333,128,0,208450:0:0:0:0:
320,192,208333,128,0,208450:0:0:0:0:
64,192,208568,1,0,0:0:0:0:
448,192,208568,128,0,208685:0:0:0:0:
192,192,208568,128,0,208685:0:0:0:0:
320,192,208802,1,0,0:0:0:0:
64,192,208802,128,0,208919:0:0:0:0:
192,192,208919,1,0,0:0:0:0:
448,192,208919,1,0,0:0:0:0:
64,192,209036,1,0,0:0:0:0:
320,192,209036,128,0,209153:0:0:0:0:
448,192,209036,128,0,209153:0:0:0:0:
192,192,209271,128,0,209388:0:0:0:0:
64,192,209271,128,0,209388:0:0:0:0:
448,192,209271,1,0,0:0:0:0:
320,192,209505,1,0,0:0:0:0:
448,192,209505,1,0,0:0:0:0:
64,192,209505,128,0,209622:0:0:0:0:
448,192,209739,1,0,0:0:0:0:
320,192,209739,128,0,209857:0:0:0:0:
192,192,209857,1,0,0:0:0:0:
64,192,209857,1,0,0:0:0:0:
320,192,209974,1,0,0:0:0:0:
448,192,209974,128,0,210091:0:0:0:0:
64,192,209974,128,0,210091:0:0:0:0:
192,192,210208,128,0,210325:0:0:0:0:
64,192,210208,128,0,210325:0:0:0:0:
448,192,210208,1,0,0:0:0:0:
320,192,210443,128,0,210560:0:0:0:0:
192,192,210443,128,0,210560:0:0:0:0:
448,192,210443,128,0,210560:0:0:0:0:
64,192,210443,128,0,210560:0:0:0:0:
320,192,210677,1,0,0:0:0:0:
64,192,210677,1,0,0:0:0:0:
192,192,210794,1,0,0:0:0:0:
448,192,210794,1,0,0:0:0:0:
64,192,210911,1,0,0:0:0:0:
320,192,210911,128,0,211028:0:0:0:0:
448,192,210911,128,0,211028:0:0:0:0:
448,192,211146,1,0,0:0:0:0:
192,192,211146,128,0,211263:0:0:0:0:
64,192,211146,128,0,211263:0:0:0:0:
320,192,211380,1,0,0:0:0:0:
64,192,211380,1,0,0:0:0:0:
448,192,211380,1,0,0:0:0:0:
448,192,211614,128,0,211732:0:0:0:0:
64,192,211614,128,0,211732:0:0:0:0:
320,192,211732,128,0,211849:0:0:0:0:
192,192,211849,128,0,211966:0:0:0:0:
448,192,211849,1,0,0:0:0:0:
64,192,211849,128,0,212083:0:0:0:0:
320,192,211966,128,0,212083:0:0:0:0:
192,192,212083,128,0,212200:0:0:0:0:
448,192,212083,128,0,212200:0:0:0:0:
448,192,212318,1,0,0:0:0:0:
64,192,212318,128,0,212435:0:0:0:0:
320,192,212318,128,0,212435:0:0:0:0:
448,192,212552,128,0,212669:0:0:0:0:
192,192,212552,1,0,0:0:0:0:
64,192,212669,1,0,0:0:0:0:
320,192,212669,1,0,0:0:0:0:
64,192,212786,128,0,212903:0:0:0:0:
192,192,212786,128,0,212903:0:0:0:0:
448,192,212786,1,0,0:0:0:0:
64,192,213021,1,0,0:0:0:0:
448,192,213021,128,0,213138:0:0:0:0:
320,192,213021,128,0,213138:0:0:0:0:
448,192,213255,128,0,213372:0:0:0:0:
64,192,213255,1,0,0:0:0:0:
192,192,213255,1,0,0:0:0:0:
192,192,213489,128,0,213607:0:0:0:0:
64,192,213489,1,0,0:0:0:0:
448,192,213607,1,0,0:0:0:0:
320,192,213607,1,0,0:0:0:0:
448,192,213724,128,0,213841:0:0:0:0:
64,192,213724,128,0,213841:0:0:0:0:
192,192,213724,1,0,0:0:0:0:
64,192,213958,1,0,0:0:0:0:
448,192,213958,128,0,214075:0:0:0:0:
320,192,213958,128,0,214075:0:0:0:0:
64,192,214193,128,0,214310:0:0:0:0:
448,192,214193,128,0,214310:0:0:0:0:
192,192,214193,128,0,214310:0:0:0:0:
320,192,214193,128,0,214310:0:0:0:0:
448,192,214427,1,0,0:0:0:0:
192,192,214427,1,0,0:0:0:0:
64,192,214544,1,0,0:0:0:0:
320,192,214544,1,0,0:0:0:0:
64,192,214661,128,0,214778:0:0:0:0:
192,192,214661,128,0,214778:0:0:0:0:
448,192,214661,1,0,0:0:0:0:
448,192,214896,128,0,215013:0:0:0:0:
320,192,214896,128,0,215013:0:0:0:0:
64,192,214896,1,0,0:0:0:0:
64,192,215130,1,0,0:0:0:0:
448,192,215130,1,0,0:0:0:0:
192,192,215130,1,0,0:0:0:0:
448,192,215364,128,0,215482:0:0:0:0:
64,192,215364,128,0,215482:0:0:0:0:
192,192,215482,128,0,215599:0:0:0:0:
448,192,215599,128,0,215833:0:0:0:0:
64,192,215599,1,0,0:0:0:0:
320,192,215599,128,0,215716:0:0:0:0:
192,192,215716,128,0,215833:0:0:0:0:
64,192,215833,128,0,215950:0:0:0:0:
320,192,215833,128,0,215950:0:0:0:0:
64,192,216068,1,0,0:0:0:0:
448,192,216068,128,0,216185:0:0:0:0:
192,192,216068,128,0,216185:0:0:0:0:
320,192,216302,1,0,0:0:0:0:
64,192,216302,128,0,216419:0:0:0:0:
192,192,216419,1,0,0:0:0:0:
448,192,216419,1,0,0:0:0:0:
64,192,216536,1,0,0:0:0:0:
320,192,216536,128,0,216653:0:0:0:0:
448,192,216536,128,0,216653:0:0:0:0:
192,192,216771,128,0,216888:0:0:0:0:
64,192,216771,128,0,216888:0:0:0:0:
448,192,216771,1,0,0:0:0:0:
320,192,217005,1,0,0:0:0:0:
448,192,217005,1,0,0:0:0:0:
64,192,217005,1,0,0:0:0:0:
192,192,217161,1,0,0:0:0:0:
64,192,217161,1,0,0:0:0:0:
448,192,217161,1,0,0:0:0:0:
320,192,217318,1,0,0:0:0:0:
448,192,217318,1,0,0:0:0:0:
64,192,217318,1,0,0:0:0:0:
192,192,217474,1,0,0:0:0:0:
64,192,217474,1,0,0:0:0:0:
448,192,217474,1,0,0:0:0:0:
