osu file format v14

[General]
AudioFilename: audio.mp3
AudioLeadIn: 0
PreviewTime: 62318
Countdown: 0
SampleSet: Soft
StackLeniency: 0.7
Mode: 3
LetterboxInBreaks: 0
SpecialStyle: 0
WidescreenStoryboard: 1

[Editor]
Bookmarks: 677,2318,9818,17318,24818,32318,39818,47318,54818,62318,64193,71693,79193,86693,92318,94193,96068,103568,111068,118568,126068,133568,139193,141068,148568,156068,163568,171068,172943,180443,187943,195443,201068,202943,210443,217474
DistanceSpacing: 1
BeatDivisor: 4
GridSize: 16
TimelineZoom: 1

[Metadata]
Title:Ye Mingzhu
TitleUnicode:夜明珠 (イエミンジュ)
Artist:Zhong Lanzhu (CV: Homoto Akina)
ArtistUnicode:鐘嵐珠 (CV: 法元明菜)
Creator:[HD]Draftz
Version:Beginner
Source:スクールアイドルフェスティバル2 MIRACLE LIVE!
Tags:LoveLive Love Live! SIF2 MIRACLE LIVE! school idol festival video game mobile gacha Nijigasaki japanese pop j-pop jpop イエミンジュ ye ming zhu
BeatmapID:4352533
BeatmapSetID:1699323

[Difficulty]
HPDrainRate:6.5
CircleSize:4
OverallDifficulty:6.5
ApproachRate:5
SliderMultiplier:1.4
SliderTickRate:1

[Events]
//Background and Video events
0,0,"Ye Mingzhu.jpg",0,0
//Break Periods
//Storyboard Layer 0 (Background)
//Storyboard Layer 1 (Fail)
//Storyboard Layer 2 (Pass)
//Storyboard Layer 3 (Foreground)
//Storyboard Layer 4 (Overlay)
//Storyboard Sound Samples

[TimingPoints]
2318,468.75,4,2,0,45,1,0
64193,-100,4,2,0,15,0,1
94193,-100,4,2,0,15,0,0
126068,-100,4,2,0,15,0,1
141068,-100,4,2,0,15,0,0
172943,-100,4,2,0,15,0,1
202943,-100,4,2,0,15,0,0

[HitObjects]
448,192,677,128,0,1380:0:0:0:0:
192,192,1614,128,0,2318:0:0:0:0:
448,192,2318,1,0,0:0:0:0:
64,192,2318,1,0,0:0:0:0:
320,192,2786,1,0,0:0:0:0:
192,192,3255,1,0,0:0:0:0:
64,192,3607,1,0,0:0:0:0:
320,192,3958,1,0,0:0:0:0:
64,192,4193,1,0,0:0:0:0:
448,192,4661,1,0,0:0:0:0:
192,192,5130,1,0,0:0:0:0:
448,192,5482,1,0,0:0:0:0:
64,192,5833,1,0,0:0:0:0:
448,192,6068,1,0,0:0:0:0:
192,192,6536,1,0,0:0:0:0:
320,192,7005,1,0,0:0:0:0:
448,192,7357,1,0,0:0:0:0:
64,192,7708,1,0,0:0:0:0:
192,192,7943,1,0,0:0:0:0:
448,192,8411,1,0,0:0:0:0:
320,192,8880,1,0,0:0:0:0:
64,192,9232,1,0,0:0:0:0:
448,192,9583,1,0,0:0:0:0:
192,192,9818,1,0,0:0:0:0:
320,192,10286,1,0,0:0:0:0:
192,192,10755,1,0,0:0:0:0:
448,192,11107,1,0,0:0:0:0:
64,192,11458,1,0,0:0:0:0:
448,192,11693,1,0,0:0:0:0:
192,192,12161,1,0,0:0:0:0:
320,192,12630,1,0,0:0:0:0:
64,192,12982,1,0,0:0:0:0:
448,192,13333,1,0,0:0:0:0:
320,192,13568,1,0,0:0:0:0:
192,192,14036,1,0,0:0:0:0:
64,192,14505,1,0,0:0:0:0:
448,192,14857,1,0,0:0:0:0:
320,192,15208,1,0,0:0:0:0:
64,192,15443,1,0,0:0:0:0:
64,192,15911,1,0,0:0:0:0:
64,192,16380,1,0,0:0:0:0:
448,192,16614,1,0,0:0:0:0:
64,192,16849,128,0,17318:0:0:0:0:
448,192,17318,1,0,0:0:0:0:
320,192,17318,128,0,17786:0:0:0:0:
192,192,17786,1,0,0:0:0:0:
448,192,18255,1,0,0:0:0:0:
64,192,18724,1,0,0:0:0:0:
448,192,19193,128,0,19661:0:0:0:0:
320,192,19193,1,0,0:0:0:0:
64,192,19661,1,0,0:0:0:0:
192,192,20130,1,0,0:0:0:0:
448,192,20599,1,0,0:0:0:0:
64,192,21068,1,0,0:0:0:0:
192,192,21068,128,0,21536:0:0:0:0:
448,192,21536,1,0,0:0:0:0:
320,192,22005,1,0,0:0:0:0:
192,192,22474,1,0,0:0:0:0:
64,192,22943,128,0,23411:0:0:0:0:
448,192,22943,1,0,0:0:0:0:
320,192,23411,1,0,0:0:0:0:
192,192,23880,1,0,0:0:0:0:
448,192,24349,1,0,0:0:0:0:
192,192,24583,1,0,0:0:0:0:
320,192,24818,128,0,25286:0:0:0:0:
64,192,24818,1,0,0:0:0:0:
448,192,25286,1,0,0:0:0:0:
320,192,25521,1,0,0:0:0:0:
192,192,25755,128,0,26224:0:0:0:0:
64,192,26224,1,0,0:0:0:0:
192,192,26458,1,0,0:0:0:0:
320,192,26693,128,0,27161:0:0:0:0:
448,192,26693,1,0,0:0:0:0:
192,192,27161,1,0,0:0:0:0:
320,192,27396,1,0,0:0:0:0:
64,192,27630,128,0,28099:0:0:0:0:
320,192,28099,1,0,0:0:0:0:
448,192,28568,128,0,29036:0:0:0:0:
64,192,28568,1,0,0:0:0:0:
192,192,29036,128,0,29505:0:0:0:0:
320,192,29036,1,0,0:0:0:0:
320,192,29505,128,0,29974:0:0:0:0:
64,192,29505,1,0,0:0:0:0:
64,192,29974,128,0,30443:0:0:0:0:
192,192,29974,1,0,0:0:0:0:
320,192,30443,128,0,30911:0:0:0:0:
448,192,30443,1,0,0:0:0:0:
192,192,30911,1,0,0:0:0:0:
448,192,31146,1,0,0:0:0:0:
64,192,31380,128,0,31849:0:0:0:0:
448,192,31849,1,0,0:0:0:0:
320,192,32083,1,0,0:0:0:0:
192,192,32083,1,0,0:0:0:0:
64,192,32318,1,0,0:0:0:0:
448,192,32318,1,0,0:0:0:0:
64,192,32786,1,0,0:0:0:0:
192,192,33021,1,0,0:0:0:0:
320,192,33255,1,0,0:0:0:0:
448,192,33489,1,0,0:0:0:0:
192,192,33724,1,0,0:0:0:0:
320,192,33958,1,0,0:0:0:0:
64,192,34193,1,0,0:0:0:0:
192,192,34427,1,0,0:0:0:0:
320,192,34661,1,0,0:0:0:0:
448,192,34896,1,0,0:0:0:0:
64,192,35130,1,0,0:0:0:0:
192,192,35599,1,0,0:0:0:0:
64,192,35833,1,0,0:0:0:0:
448,192,36068,1,0,0:0:0:0:
320,192,36068,1,0,0:0:0:0:
448,192,36536,1,0,0:0:0:0:
320,192,36771,1,0,0:0:0:0:
192,192,37005,1,0,0:0:0:0:
448,192,37239,1,0,0:0:0:0:
64,192,37474,1,0,0:0:0:0:
192,192,37708,1,0,0:0:0:0:
320,192,37943,1,0,0:0:0:0:
448,192,38177,1,0,0:0:0:0:
192,192,38411,1,0,0:0:0:0:
64,192,38646,1,0,0:0:0:0:
448,192,38880,1,0,0:0:0:0:
192,192,39349,1,0,0:0:0:0:
448,192,39583,1,0,0:0:0:0:
320,192,39818,128,0,40286:0:0:0:0:
64,192,40286,1,0,0:0:0:0:
320,192,40521,1,0,0:0:0:0:
192,192,40755,128,0,41224:0:0:0:0:
448,192,41224,1,0,0:0:0:0:
192,192,41458,1,0,0:0:0:0:
320,192,41693,128,0,42161:0:0:0:0:
64,192,42161,1,0,0:0:0:0:
320,192,42396,1,0,0:0:0:0:
192,192,42630,128,0,43099:0:0:0:0:
64,192,43099,1,0,0:0:0:0:
320,192,43333,1,0,0:0:0:0:
448,192,43568,128,0,44036:0:0:0:0:
192,192,43568,1,0,0:0:0:0:
192,192,44036,128,0,44505:0:0:0:0:
64,192,44036,1,0,0:0:0:0:
320,192,44505,128,0,44974:0:0:0:0:
448,192,44505,1,0,0:0:0:0:
64,192,44974,128,0,45443:0:0:0:0:
192,192,44974,1,0,0:0:0:0:
448,192,45443,1,0,0:0:0:0:
320,192,45443,1,0,0:0:0:0:
64,192,45911,1,0,0:0:0:0:
320,192,46146,1,0,0:0:0:0:
192,192,46380,128,0,46849:0:0:0:0:
448,192,46380,1,0,0:0:0:0:
64,192,46849,128,0,47318:0:0:0:0:
320,192,46849,1,0,0:0:0:0:
192,192,47318,1,0,0:0:0:0:
448,192,47318,128,0,48958:0:0:0:0:
320,192,48255,1,0,0:0:0:0:
64,192,48958,1,0,0:0:0:0:
192,192,49193,128,0,51068:0:0:0:0:
320,192,49193,1,0,0:0:0:0:
448,192,50130,1,0,0:0:0:0:
448,192,51068,1,0,0:0:0:0:
320,192,51068,128,0,52708:0:0:0:0:
64,192,52005,1,0,0:0:0:0:
192,192,52708,1,0,0:0:0:0:
64,192,52943,128,0,53880:0:0:0:0:
448,192,52943,1,0,0:0:0:0:
320,192,53880,1,0,0:0:0:0:
448,192,54232,1,0,0:0:0:0:
192,192,54583,1,0,0:0:0:0:
320,192,54818,1,0,0:0:0:0:
192,192,55286,1,0,0:0:0:0:
448,192,55755,1,0,0:0:0:0:
320,192,56224,1,0,0:0:0:0:
64,192,56458,1,0,0:0:0:0:
192,192,56693,1,0,0:0:0:0:
448,192,57161,1,0,0:0:0:0:
320,192,57630,1,0,0:0:0:0:
64,192,58099,1,0,0:0:0:0:
448,192,58568,1,0,0:0:0:0:
192,192,59036,1,0,0:0:0:0:
64,192,59505,1,0,0:0:0:0:
448,192,59974,1,0,0:0:0:0:
64,192,60208,1,0,0:0:0:0:
192,192,60443,128,0,62318:0:0:0:0:
448,192,62318,128,0,62786:0:0:0:0:
64,192,62786,128,0,63255:0:0:0:0:
320,192,63255,128,0,63724:0:0:0:0:
192,192,63724,128,0,64193:0:0:0:0:
320,192,64193,1,0,0:0:0:0:
448,192,64193,1,0,0:0:0:0:
64,192,64661,1,0,0:0:0:0:
320,192,64896,1,0,0:0:0:0:
192,192,65130,1,0,0:0:0:0:
448,192,65130,128,0,65599:0:0:0:0:
64,192,65599,128,0,66068:0:0:0:0:
320,192,66068,1,0,0:0:0:0:
192,192,66068,1,0,0:0:0:0:
448,192,66536,1,0,0:0:0:0:
192,192,66771,1,0,0:0:0:0:
320,192,67005,128,0,67474:0:0:0:0:
448,192,67005,1,0,0:0:0:0:
64,192,67474,128,0,67943:0:0:0:0:
192,192,67943,1,0,0:0:0:0:
448,192,67943,1,0,0:0:0:0:
320,192,68411,1,0,0:0:0:0:
448,192,68646,1,0,0:0:0:0:
192,192,68880,1,0,0:0:0:0:
64,192,68880,128,0,69349:0:0:0:0:
320,192,69349,128,0,69818:0:0:0:0:
448,192,69818,1,0,0:0:0:0:
192,192,69818,1,0,0:0:0:0:
64,192,70286,1,0,0:0:0:0:
448,192,70521,1,0,0:0:0:0:
64,192,70755,1,0,0:0:0:0:
192,192,70755,128,0,71224:0:0:0:0:
320,192,71224,128,0,71693:0:0:0:0:
448,192,71693,1,0,0:0:0:0:
64,192,71693,1,0,0:0:0:0:
448,192,72161,1,0,0:0:0:0:
320,192,72396,1,0,0:0:0:0:
192,192,72630,1,0,0:0:0:0:
64,192,72630,128,0,73099:0:0:0:0:
448,192,73099,128,0,73568:0:0:0:0:
320,192,73568,1,0,0:0:0:0:
192,192,73568,1,0,0:0:0:0:
64,192,74036,1,0,0:0:0:0:
448,192,74271,1,0,0:0:0:0:
192,192,74505,1,0,0:0:0:0:
320,192,74505,128,0,74974:0:0:0:0:
64,192,74974,128,0,75443:0:0:0:0:
192,192,75443,1,0,0:0:0:0:
448,192,75443,1,0,0:0:0:0:
320,192,75911,1,0,0:0:0:0:
192,192,76146,1,0,0:0:0:0:
64,192,76380,1,0,0:0:0:0:
448,192,76380,128,0,76849:0:0:0:0:
320,192,76849,128,0,77318:0:0:0:0:
64,192,77318,1,0,0:0:0:0:
448,192,77318,1,0,0:0:0:0:
320,192,77786,1,0,0:0:0:0:
448,192,78021,1,0,0:0:0:0:
192,192,78255,128,0,78724:0:0:0:0:
64,192,78255,1,0,0:0:0:0:
448,192,78724,1,0,0:0:0:0:
320,192,78958,1,0,0:0:0:0:
64,192,79193,1,0,0:0:0:0:
192,192,79193,1,0,0:0:0:0:
192,192,79661,1,0,0:0:0:0:
320,192,79896,1,0,0:0:0:0:
64,192,80130,128,0,80599:0:0:0:0:
448,192,80130,1,0,0:0:0:0:
448,192,80599,128,0,81068:0:0:0:0:
192,192,81068,1,0,0:0:0:0:
64,192,81068,1,0,0:0:0:0:
320,192,81536,1,0,0:0:0:0:
192,192,81771,1,0,0:0:0:0:
320,192,82005,128,0,82474:0:0:0:0:
64,192,82005,1,0,0:0:0:0:
64,192,82474,128,0,82943:0:0:0:0:
192,192,82943,1,0,0:0:0:0:
448,192,82943,1,0,0:0:0:0:
192,192,83411,1,0,0:0:0:0:
320,192,83646,1,0,0:0:0:0:
448,192,83880,1,0,0:0:0:0:
64,192,83880,128,0,84349:0:0:0:0:
320,192,84349,128,0,84818:0:0:0:0:
64,192,84818,1,0,0:0:0:0:
448,192,84818,1,0,0:0:0:0:
192,192,85052,128,0,85286:0:0:0:0:
448,192,85286,128,0,85521:0:0:0:0:
64,192,85521,128,0,85755:0:0:0:0:
320,192,85755,1,0,0:0:0:0:
448,192,85755,1,0,0:0:0:0:
192,192,85989,128,0,86224:0:0:0:0:
448,192,86224,128,0,86458:0:0:0:0:
64,192,86458,128,0,86693:0:0:0:0:
448,192,86693,1,0,0:0:0:0:
320,192,86693,1,0,0:0:0:0:
448,192,87161,1,0,0:0:0:0:
192,192,87396,1,0,0:0:0:0:
320,192,87630,1,0,0:0:0:0:
64,192,87630,128,0,88099:0:0:0:0:
448,192,88099,128,0,88568:0:0:0:0:
320,192,88568,1,0,0:0:0:0:
192,192,88568,1,0,0:0:0:0:
64,192,89036,1,0,0:0:0:0:
320,192,89271,1,0,0:0:0:0:
192,192,89505,128,0,89974:0:0:0:0:
64,192,89505,1,0,0:0:0:0:
448,192,89974,128,0,90443:0:0:0:0:
320,192,90443,1,0,0:0:0:0:
64,192,90443,1,0,0:0:0:0:
192,192,90911,1,0,0:0:0:0:
64,192,91146,1,0,0:0:0:0:
320,192,91380,128,0,91849:0:0:0:0:
448,192,91380,1,0,0:0:0:0:
192,192,91849,128,0,92318:0:0:0:0:
64,192,92318,1,0,0:0:0:0:
448,192,92318,128,0,92786:0:0:0:0:
320,192,92786,1,0,0:0:0:0:
192,192,93021,128,0,93489:0:0:0:0:
320,192,93489,128,0,93958:0:0:0:0:
448,192,93958,1,0,0:0:0:0:
192,192,94193,1,0,0:0:0:0:
192,192,94661,1,0,0:0:0:0:
192,192,95130,1,0,0:0:0:0:
448,192,95364,1,0,0:0:0:0:
192,192,95599,128,0,96068:0:0:0:0:
320,192,95599,1,0,0:0:0:0:
448,192,96068,1,0,0:0:0:0:
64,192,96068,1,0,0:0:0:0:
320,192,96302,1,0,0:0:0:0:
64,192,96536,1,0,0:0:0:0:
192,192,96771,1,0,0:0:0:0:
320,192,97005,1,0,0:0:0:0:
64,192,97239,1,0,0:0:0:0:
448,192,97474,1,0,0:0:0:0:
320,192,97708,1,0,0:0:0:0:
192,192,97943,1,0,0:0:0:0:
64,192,97943,1,0,0:0:0:0:
448,192,98177,1,0,0:0:0:0:
320,192,98411,1,0,0:0:0:0:
448,192,98646,1,0,0:0:0:0:
64,192,98880,1,0,0:0:0:0:
192,192,99114,1,0,0:0:0:0:
448,192,99349,1,0,0:0:0:0:
320,192,99583,1,0,0:0:0:0:
192,192,99818,1,0,0:0:0:0:
64,192,99818,1,0,0:0:0:0:
448,192,100052,1,0,0:0:0:0:
64,192,100286,1,0,0:0:0:0:
320,192,100521,1,0,0:0:0:0:
64,192,100755,1,0,0:0:0:0:
448,192,100989,1,0,0:0:0:0:
192,192,101224,1,0,0:0:0:0:
64,192,101458,1,0,0:0:0:0:
320,192,101693,1,0,0:0:0:0:
448,192,101693,1,0,0:0:0:0:
192,192,101927,1,0,0:0:0:0:
448,192,102161,1,0,0:0:0:0:
64,192,102396,1,0,0:0:0:0:
320,192,102630,128,0,102864:0:0:0:0:
192,192,102864,128,0,103099:0:0:0:0:
448,192,103099,128,0,103333:0:0:0:0:
320,192,103333,128,0,103568:0:0:0:0:
64,192,103568,1,0,0:0:0:0:
192,192,103568,1,0,0:0:0:0:
320,192,103802,1,0,0:0:0:0:
448,192,104036,1,0,0:0:0:0:
192,192,104271,1,0,0:0:0:0:
64,192,104505,1,0,0:0:0:0:
448,192,104739,1,0,0:0:0:0:
320,192,104974,1,0,0:0:0:0:
64,192,105208,1,0,0:0:0:0:
448,192,105443,1,0,0:0:0:0:
320,192,105443,1,0,0:0:0:0:
192,192,105677,1,0,0:0:0:0:
448,192,105911,1,0,0:0:0:0:
320,192,106146,1,0,0:0:0:0:
64,192,106380,1,0,0:0:0:0:
192,192,106614,1,0,0:0:0:0:
448,192,106849,1,0,0:0:0:0:
320,192,107083,1,0,0:0:0:0:
192,192,107083,1,0,0:0:0:0:
448,192,107318,128,0,107786:0:0:0:0:
64,192,107318,1,0,0:0:0:0:
64,192,107786,128,0,108255:0:0:0:0:
320,192,107786,1,0,0:0:0:0:
448,192,108255,128,0,108724:0:0:0:0:
192,192,108255,1,0,0:0:0:0:
192,192,108724,128,0,109193:0:0:0:0:
320,192,108724,1,0,0:0:0:0:
448,192,109193,1,0,0:0:0:0:
64,192,109193,1,0,0:0:0:0:
320,192,109661,1,0,0:0:0:0:
64,192,109896,1,0,0:0:0:0:
192,192,110130,128,0,110599:0:0:0:0:
448,192,110599,128,0,111068:0:0:0:0:
64,192,111068,128,0,112708:0:0:0:0:
192,192,111068,1,0,0:0:0:0:
320,192,112005,1,0,0:0:0:0:
448,192,112708,1,0,0:0:0:0:
192,192,112943,1,0,0:0:0:0:
320,192,112943,128,0,114818:0:0:0:0:
64,192,113880,1,0,0:0:0:0:
64,192,114818,1,0,0:0:0:0:
192,192,114818,128,0,116458:0:0:0:0:
448,192,115755,1,0,0:0:0:0:
320,192,116458,1,0,0:0:0:0:
64,192,116693,1,0,0:0:0:0:
448,192,116693,128,0,117630:0:0:0:0:
192,192,117630,1,0,0:0:0:0:
64,192,117982,1,0,0:0:0:0:
320,192,118333,1,0,0:0:0:0:
192,192,118568,1,0,0:0:0:0:
64,192,119505,1,0,0:0:0:0:
448,192,120208,1,0,0:0:0:0:
320,192,120443,1,0,0:0:0:0:
192,192,121380,1,0,0:0:0:0:
64,192,122318,1,0,0:0:0:0:
320,192,122786,1,0,0:0:0:0:
448,192,123255,1,0,0:0:0:0:
64,192,123724,1,0,0:0:0:0:
448,192,123958,1,0,0:0:0:0:
320,192,124193,128,0,124661:0:0:0:0:
64,192,124661,128,0,125130:0:0:0:0:
448,192,125130,128,0,125599:0:0:0:0:
192,192,125599,128,0,126068:0:0:0:0:
448,192,126068,1,0,0:0:0:0:
320,192,126068,1,0,0:0:0:0:
448,192,126536,1,0,0:0:0:0:
192,192,126771,1,0,0:0:0:0:
320,192,127005,1,0,0:0:0:0:
64,192,127005,128,0,127474:0:0:0:0:
448,192,127474,128,0,127943:0:0:0:0:
192,192,127943,1,0,0:0:0:0:
320,192,127943,1,0,0:0:0:0:
64,192,128411,1,0,0:0:0:0:
320,192,128646,1,0,0:0:0:0:
192,192,128880,128,0,129349:0:0:0:0:
64,192,128880,1,0,0:0:0:0:
448,192,129349,128,0,129818:0:0:0:0:
320,192,129818,1,0,0:0:0:0:
64,192,129818,1,0,0:0:0:0:
192,192,130286,1,0,0:0:0:0:
64,192,130521,1,0,0:0:0:0:
320,192,130755,1,0,0:0:0:0:
448,192,130755,128,0,131224:0:0:0:0:
192,192,131224,128,0,131693:0:0:0:0:
64,192,131693,1,0,0:0:0:0:
320,192,131693,1,0,0:0:0:0:
448,192,132161,1,0,0:0:0:0:
64,192,132396,5,0,0:0:0:0:
448,192,132630,1,0,0:0:0:0:
320,192,132630,128,0,133099:0:0:0:0:
192,192,133099,128,0,133568:0:0:0:0:
448,192,133568,5,0,0:0:0:0:
64,192,133568,1,0,0:0:0:0:
64,192,134036,1,0,0:0:0:0:
320,192,134271,1,0,0:0:0:0:
192,192,134505,1,0,0:0:0:0:
448,192,134505,128,0,134974:0:0:0:0:
64,192,134974,128,0,135443:0:0:0:0:
192,192,135443,1,0,0:0:0:0:
320,192,135443,1,0,0:0:0:0:
448,192,135911,1,0,0:0:0:0:
192,192,136146,1,0,0:0:0:0:
320,192,136380,128,0,136849:0:0:0:0:
448,192,136380,1,0,0:0:0:0:
64,192,136849,128,0,137318:0:0:0:0:
192,192,137318,1,0,0:0:0:0:
448,192,137318,1,0,0:0:0:0:
320,192,137786,1,0,0:0:0:0:
448,192,138021,1,0,0:0:0:0:
192,192,138255,128,0,138724:0:0:0:0:
64,192,138255,1,0,0:0:0:0:
320,192,138724,128,0,139193:0:0:0:0:
448,192,139193,1,0,0:0:0:0:
64,192,139193,128,0,139661:0:0:0:0:
192,192,139661,1,0,0:0:0:0:
320,192,139896,128,0,140364:0:0:0:0:
192,192,140364,128,0,140833:0:0:0:0:
64,192,140833,1,0,0:0:0:0:
448,192,141068,5,0,0:0:0:0:
320,192,141068,1,0,0:0:0:0:
448,192,141771,1,0,0:0:0:0:
192,192,142005,1,0,0:0:0:0:
64,192,142005,1,0,0:0:0:0:
320,192,142357,1,0,0:0:0:0:
448,192,142708,1,0,0:0:0:0:
64,192,142943,1,0,0:0:0:0:
192,192,142943,1,0,0:0:0:0:
192,192,143646,1,0,0:0:0:0:
448,192,143880,1,0,0:0:0:0:
64,192,143880,1,0,0:0:0:0:
320,192,144232,1,0,0:0:0:0:
64,192,144583,1,0,0:0:0:0:
192,192,144818,1,0,0:0:0:0:
448,192,144818,1,0,0:0:0:0:
448,192,145521,1,0,0:0:0:0:
64,192,145755,1,0,0:0:0:0:
192,192,145755,1,0,0:0:0:0:
448,192,146107,1,0,0:0:0:0:
192,192,146458,1,0,0:0:0:0:
320,192,146693,1,0,0:0:0:0:
448,192,146693,1,0,0:0:0:0:
64,192,147396,1,0,0:0:0:0:
448,192,147630,1,0,0:0:0:0:
192,192,147630,1,0,0:0:0:0:
320,192,148099,128,0,148568:0:0:0:0:
192,192,148568,1,0,0:0:0:0:
64,192,148568,1,0,0:0:0:0:
320,192,149036,1,0,0:0:0:0:
64,192,149505,1,0,0:0:0:0:
192,192,149974,1,0,0:0:0:0:
448,192,150443,1,0,0:0:0:0:
64,192,150443,1,0,0:0:0:0:
320,192,150677,1,0,0:0:0:0:
192,192,150911,1,0,0:0:0:0:
448,192,151146,1,0,0:0:0:0:
64,192,151380,1,0,0:0:0:0:
192,192,151614,1,0,0:0:0:0:
448,192,151849,1,0,0:0:0:0:
320,192,152083,1,0,0:0:0:0:
192,192,152318,1,0,0:0:0:0:
64,192,152318,1,0,0:0:0:0:
448,192,152786,1,0,0:0:0:0:
192,192,153255,1,0,0:0:0:0:
320,192,153724,1,0,0:0:0:0:
192,192,154193,1,0,0:0:0:0:
64,192,154193,1,0,0:0:0:0:
448,192,154427,1,0,0:0:0:0:
320,192,154661,1,0,0:0:0:0:
448,192,154896,1,0,0:0:0:0:
64,192,155130,1,0,0:0:0:0:
192,192,155286,1,0,0:0:0:0:
448,192,155443,1,0,0:0:0:0:
320,192,155599,1,0,0:0:0:0:
192,192,156068,1,0,0:0:0:0:
64,192,156068,128,0,157708:0:0:0:0:
320,192,157005,1,0,0:0:0:0:
448,192,157708,1,0,0:0:0:0:
320,192,157943,128,0,159818:0:0:0:0:
192,192,157943,1,0,0:0:0:0:
64,192,158880,1,0,0:0:0:0:
192,192,159818,128,0,161458:0:0:0:0:
64,192,159818,1,0,0:0:0:0:
448,192,160755,1,0,0:0:0:0:
320,192,161458,1,0,0:0:0:0:
448,192,161693,128,0,162630:0:0:0:0:
64,192,161693,1,0,0:0:0:0:
192,192,162630,1,0,0:0:0:0:
64,192,162982,1,0,0:0:0:0:
320,192,163333,1,0,0:0:0:0:
192,192,163568,1,0,0:0:0:0:
320,192,164036,1,0,0:0:0:0:
64,192,164505,1,0,0:0:0:0:
192,192,164974,1,0,0:0:0:0:
448,192,165208,1,0,0:0:0:0:
320,192,165443,1,0,0:0:0:0:
64,192,165911,1,0,0:0:0:0:
192,192,166380,1,0,0:0:0:0:
448,192,166849,1,0,0:0:0:0:
64,192,167318,1,0,0:0:0:0:
320,192,167786,1,0,0:0:0:0:
448,192,168255,1,0,0:0:0:0:
64,192,168724,1,0,0:0:0:0:
448,192,168958,1,0,0:0:0:0:
320,192,169193,128,0,171068:0:0:0:0:
64,192,171068,128,0,171536:0:0:0:0:
448,192,171536,128,0,172005:0:0:0:0:
192,192,172005,128,0,172474:0:0:0:0:
320,192,172474,128,0,172943:0:0:0:0:
192,192,172943,1,0,0:0:0:0:
64,192,172943,1,0,0:0:0:0:
448,192,173411,1,0,0:0:0:0:
192,192,173646,1,0,0:0:0:0:
320,192,173880,1,0,0:0:0:0:
64,192,173880,128,0,174349:0:0:0:0:
448,192,174349,1,0,0:0:0:0:
448,192,174818,1,0,0:0:0:0:
320,192,174818,1,0,0:0:0:0:
64,192,175286,1,0,0:0:0:0:
320,192,175521,1,0,0:0:0:0:
192,192,175755,128,0,176224:0:0:0:0:
64,192,175755,1,0,0:0:0:0:
448,192,176224,1,0,0:0:0:0:
320,192,176693,1,0,0:0:0:0:
64,192,176693,1,0,0:0:0:0:
192,192,177161,1,0,0:0:0:0:
64,192,177396,1,0,0:0:0:0:
320,192,177630,1,0,0:0:0:0:
448,192,177630,128,0,178099:0:0:0:0:
192,192,178099,1,0,0:0:0:0:
64,192,178568,1,0,0:0:0:0:
320,192,178568,1,0,0:0:0:0:
448,192,179036,1,0,0:0:0:0:
64,192,179271,1,0,0:0:0:0:
448,192,179505,1,0,0:0:0:0:
320,192,179505,128,0,179974:0:0:0:0:
192,192,179974,128,0,180443:0:0:0:0:
64,192,180443,1,0,0:0:0:0:
448,192,180443,1,0,0:0:0:0:
64,192,180911,1,0,0:0:0:0:
192,192,181146,1,0,0:0:0:0:
320,192,181380,1,0,0:0:0:0:
448,192,181380,128,0,181849:0:0:0:0:
64,192,181849,1,0,0:0:0:0:
192,192,182318,1,0,0:0:0:0:
320,192,182318,1,0,0:0:0:0:
448,192,182786,1,0,0:0:0:0:
64,192,183021,1,0,0:0:0:0:
320,192,183255,1,0,0:0:0:0:
192,192,183255,128,0,183724:0:0:0:0:
448,192,183724,1,0,0:0:0:0:
320,192,184193,1,0,0:0:0:0:
64,192,184193,1,0,0:0:0:0:
192,192,184661,1,0,0:0:0:0:
320,192,184896,1,0,0:0:0:0:
448,192,185130,1,0,0:0:0:0:
64,192,185130,128,0,185599:0:0:0:0:
192,192,185599,1,0,0:0:0:0:
448,192,186068,1,0,0:0:0:0:
64,192,186068,1,0,0:0:0:0:
192,192,186536,1,0,0:0:0:0:
64,192,186771,1,0,0:0:0:0:
320,192,187005,128,0,187474:0:0:0:0:
448,192,187005,1,0,0:0:0:0:
64,192,187474,1,0,0:0:0:0:
192,192,187708,1,0,0:0:0:0:
448,192,187943,1,0,0:0:0:0:
320,192,187943,1,0,0:0:0:0:
320,192,188411,1,0,0:0:0:0:
192,192,188646,1,0,0:0:0:0:
448,192,188880,128,0,189349:0:0:0:0:
64,192,188880,1,0,0:0:0:0:
64,192,189349,128,0,189818:0:0:0:0:
320,192,189818,1,0,0:0:0:0:
448,192,189818,1,0,0:0:0:0:
192,192,190286,1,0,0:0:0:0:
320,192,190521,1,0,0:0:0:0:
192,192,190755,128,0,191224:0:0:0:0:
448,192,190755,1,0,0:0:0:0:
448,192,191224,128,0,191693:0:0:0:0:
320,192,191693,1,0,0:0:0:0:
64,192,191693,1,0,0:0:0:0:
320,192,192161,1,0,0:0:0:0:
192,192,192396,1,0,0:0:0:0:
448,192,192630,128,0,193099:0:0:0:0:
64,192,192630,1,0,0:0:0:0:
192,192,193099,128,0,193568:0:0:0:0:
64,192,193568,1,0,0:0:0:0:
448,192,193568,1,0,0:0:0:0:
320,192,193802,128,0,194036:0:0:0:0:
64,192,194036,128,0,194271:0:0:0:0:
448,192,194271,128,0,194505:0:0:0:0:
192,192,194505,1,0,0:0:0:0:
64,192,194505,1,0,0:0:0:0:
320,192,194739,128,0,194974:0:0:0:0:
64,192,194974,128,0,195208:0:0:0:0:
448,192,195208,128,0,195443:0:0:0:0:
64,192,195443,1,0,0:0:0:0:
192,192,195443,1,0,0:0:0:0:
448,192,195911,1,0,0:0:0:0:
192,192,196146,1,0,0:0:0:0:
64,192,196380,128,0,196849:0:0:0:0:
320,192,196380,1,0,0:0:0:0:
448,192,196849,128,0,197318:0:0:0:0:
192,192,197318,1,0,0:0:0:0:
320,192,197318,1,0,0:0:0:0:
64,192,197786,1,0,0:0:0:0:
320,192,198021,1,0,0:0:0:0:
64,192,198255,1,0,0:0:0:0:
192,192,198255,128,0,198724:0:0:0:0:
448,192,198724,128,0,199193:0:0:0:0:
64,192,199193,1,0,0:0:0:0:
320,192,199193,1,0,0:0:0:0:
192,192,199661,1,0,0:0:0:0:
64,192,199896,5,0,0:0:0:0:
448,192,200130,1,0,0:0:0:0:
320,192,200130,128,0,200599:0:0:0:0:
192,192,200599,128,0,201068:0:0:0:0:
448,192,201068,128,0,201536:0:0:0:0:
64,192,201068,1,0,0:0:0:0:
320,192,201536,1,0,0:0:0:0:
192,192,201771,128,0,202239:0:0:0:0:
320,192,202239,128,0,202708:0:0:0:0:
448,192,202708,1,0,0:0:0:0:
64,192,202943,1,0,0:0:0:0:
192,192,202943,1,0,0:0:0:0:
320,192,203411,1,0,0:0:0:0:
192,192,203880,1,0,0:0:0:0:
64,192,203880,1,0,0:0:0:0:
448,192,204349,1,0,0:0:0:0:
320,192,204818,1,0,0:0:0:0:
64,192,204818,1,0,0:0:0:0:
192,192,205286,1,0,0:0:0:0:
448,192,205755,1,0,0:0:0:0:
64,192,205755,1,0,0:0:0:0:
320,192,206224,1,0,0:0:0:0:
192,192,206693,1,0,0:0:0:0:
64,192,206693,1,0,0:0:0:0:
448,192,207161,1,0,0:0:0:0:
192,192,207630,1,0,0:0:0:0:
64,192,207630,1,0,0:0:0:0:
320,192,208099,1,0,0:0:0:0:
448,192,208568,1,0,0:0:0:0:
64,192,208568,1,0,0:0:0:0:
192,192,209036,1,0,0:0:0:0:
320,192,209505,1,0,0:0:0:0:
448,192,209505,1,0,0:0:0:0:
64,192,209974,1,0,0:0:0:0:
192,192,210443,1,0,0:0:0:0:
448,192,210443,1,0,0:0:0:0:
320,192,210911,1,0,0:0:0:0:
192,192,211380,1,0,0:0:0:0:
64,192,211380,1,0,0:0:0:0:
448,192,211849,1,0,0:0:0:0:
320,192,212318,1,0,0:0:0:0:
64,192,212318,1,0,0:0:0:0:
192,192,212786,1,0,0:0:0:0:
320,192,213255,1,0,0:0:0:0:
448,192,213255,1,0,0:0:0:0:
64,192,213724,1,0,0:0:0:0:
320,192,214193,1,0,0:0:0:0:
448,192,214193,1,0,0:0:0:0:
192,192,214661,1,0,0:0:0:0:
320,192,215130,1,0,0:0:0:0:
64,192,215130,1,0,0:0:0:0:
448,192,215599,1,0,0:0:0:0:
192,192,216068,5,0,0:0:0:0:
64,192,216068,1,0,0:0:0:0:
448,192,216536,1,0,0:0:0:0:
64,192,217005,5,0,0:0:0:0:
320,192,217161,1,0,0:0:0:0:
64,192,217318,1,0,0:0:0:0:
320,192,217474,1,0,0:0:0:0:
448,192,217474,1,0,0:0:0:0:
