osu file format v14

[General]
AudioFilename: audio.mp3
AudioLeadIn: 0
PreviewTime: 61052
Countdown: 0
SampleSet: Soft
StackLeniency: 0.5
Mode: 0
LetterboxInBreaks: 0
WidescreenStoryboard: 1

[Editor]
DistanceSpacing: 0.9
BeatDivisor: 4
GridSize: 4
TimelineZoom: 2.5

[Metadata]
Title:Eutopia (TV Size)
TitleUnicode:Eutopia (TV Size)
Artist:Zhong Lanzhu (CV: Homoto Akina)
ArtistUnicode:鐘 嵐珠 (CV: 法元明菜)
Creator:Doormat
Version:Pearl
Source:ラブライブ!虹ヶ咲学園スクールアイドル同好会
Tags:Froskya Revialink Houmoto Hōmoto ショウ ランジュ 鐘嵐珠 love live! nijigasaki high school idol club gakuen doukoukai doukou kai season two 2 nijigaku ニジガク llas sifas スクスタ festival all stars スクールアイドルフェスティバル Ayaka Miyake *Luna Kadono Toshikazu 角野寿和 insert anime insert video game japanese chinese electronic dance j-pop jpop pop edm music
BeatmapID:3547678
BeatmapSetID:1733247

[Difficulty]
HPDrainRate:6
CircleSize:4.2
OverallDifficulty:8.2
ApproachRate:8.5
SliderMultiplier:2.1
SliderTickRate:1

[Events]
//Background and Video events
0,0,"lanzhu.jpg",0,0
Video,0,"lanzhu solo.mp4"
//Break Periods
//Storyboard Layer 0 (Background)
//Storyboard Layer 1 (Fail)
//Storyboard Layer 2 (Pass)
//Storyboard Layer 3 (Foreground)
//Storyboard Layer 4 (Overlay)
//Storyboard Sound Samples

[TimingPoints]
420,468.75,4,2,1,60,1,0
420,-111.111111111111,4,2,1,60,0,0
654,-111.111111111111,4,2,1,5,0,0
771,-111.111111111111,4,2,1,60,0,0
1005,-111.111111111111,4,2,1,5,0,0
1123,-111.111111111111,4,2,1,60,0,0
1357,-111.111111111111,4,2,1,5,0,0
1474,-111.111111111111,4,2,1,60,0,0
1709,-111.111111111111,4,2,1,5,0,0
1826,-111.111111111111,4,2,1,60,0,0
2529,-111.111111111111,4,2,1,5,0,0
2646,-111.111111111111,4,2,1,60,0,0
2880,-111.111111111111,4,2,1,5,0,0
2998,-111.111111111111,4,2,1,60,0,0
3232,-111.111111111111,4,2,1,5,0,0
3349,-111.111111111111,4,2,1,60,0,0
3584,-111.111111111111,4,2,1,5,0,0
3701,-111.111111111111,4,2,1,60,0,0
4404,-111.111111111111,4,2,1,5,0,0
4521,-111.111111111111,4,2,1,60,0,0
4755,-111.111111111111,4,2,1,5,0,0
4873,-111.111111111111,4,2,1,60,0,0
5107,-111.111111111111,4,2,1,5,0,0
5224,-111.111111111111,4,2,1,60,0,0
5459,-111.111111111111,4,2,1,5,0,0
5576,-111.111111111111,4,2,1,60,0,0
7920,-100,4,2,1,80,0,0
12607,-500,4,2,1,80,0,0
13545,-111.111111111111,4,2,1,60,0,0
14170,-111.111111111111,4,2,1,5,0,0
14248,-111.111111111111,4,2,1,60,0,0
14404,-111.111111111111,4,2,1,5,0,0
14482,-100,4,2,1,60,0,0
14716,-100,4,2,1,5,0,0
14834,-100,4,2,1,60,0,0
15068,-100,4,2,1,5,0,0
15185,-100,4,2,1,60,0,0
15302,-100,4,2,1,5,0,0
15420,-100,4,2,1,80,0,0
22451,-500,4,2,1,80,0,0
22509,-500,4,2,1,5,0,0
22685,-500,4,2,1,80,0,0
22744,-500,4,2,1,5,0,0
22920,-100,4,2,1,80,0,0
29170,-100,4,2,1,5,0,0
29248,-100,4,2,1,80,0,0
29404,-100,4,2,1,5,0,0
29482,-100,4,2,1,80,0,0
30420,-111.111111111111,4,2,1,60,0,0
36045,-111.111111111111,4,2,1,60,0,0
37334,-111.111111111111,4,2,1,80,0,0
37920,-111.111111111111,4,2,1,80,0,0
43545,-100,4,2,1,80,0,0
44834,-100,4,2,1,60,0,0
45420,-133.333333333333,4,2,1,60,0,0
52920,-111.111111111111,4,2,1,70,0,0
56670,-100,4,2,1,80,0,0
58545,-100,4,2,1,80,0,0
59482,-500,4,2,1,80,0,0
60420,-100,4,2,1,80,0,0
62295,-90.9090909090909,4,2,1,100,0,1
77177,-90.9090909090909,4,2,1,100,0,0
77295,-90.9090909090909,4,2,1,100,0,1
92295,-90.9090909090909,4,2,1,10,0,0

[Colours]
Combo1 : 25,80,170
Combo2 : 240,190,205
Combo3 : 175,215,230
Combo4 : 155,0,0

[HitObjects]
72,140,420,6,0,P|90:183|102:228,1,94.499997116089,2|0,0:3|0:0,0:0:0:0:
107,304,771,2,0,P|153:299|201:302,1,94.499997116089
274,320,1123,2,0,P|284:273|301:229,1,94.499997116089
341,166,1474,2,0,P|300:141|263:112,1,94.499997116089
215,53,1826,5,0,0:0:0:0:
204,196,2060,1,0,0:0:0:0:
356,52,2295,6,0,P|401:63|448:69,1,94.499997116089,2|0,0:3|0:0,0:0:0:0:
448,144,2646,2,0,P|451:191|460:237,1,94.499997116089,0|0,0:0|0:0,0:0:0:0:
388,259,2998,2,0,P|344:276|302:299,1,94.499997116089,0|0,0:0|0:0,0:0:0:0:
259,238,3349,2,0,P|228:201|194:169,1,94.499997116089
239,108,3701,5,0,0:0:0:0:
116,184,3935,1,0,0:0:0:0:
207,372,4170,6,0,P|252:355|298:347,1,94.499997116089,2|0,0:3|0:0,0:0:0:0:
376,360,4521,2,0,P|374:312|380:266,1,94.499997116089,0|0,0:0|0:0,0:0:0:0:
416,196,4873,2,0,P|370:182|328:162,1,94.499997116089,0|0,0:0|0:0,0:0:0:0:
273,106,5224,2,0,P|246:145|213:179,1,94.499997116089,0|0,0:0|0:0,0:0:0:0:
144,214,5576,5,0,0:0:0:0:
158,72,5810,1,0,0:0:0:0:
272,272,6045,5,2,3:0:0:0:
356,256,6201,5,0,3:0:0:0:
440,240,6357,5,0,3:0:0:0:
484,164,6513,5,2,3:0:0:0:
400,148,6669,5,0,3:0:0:0:
316,132,6825,5,0,3:0:0:0:
232,116,6982,6,0,P|166:176|192:262,1,188.999994232178,0|0,3:0|0:0,0:0:0:0:
8,144,7685,5,0,0:0:0:0:
8,144,7802,1,0,0:0:0:0:
8,144,7920,2,0,L|16:40,1,105,8|0,0:1|0:0,0:0:0:0:
176,228,8388,2,0,L|168:332,1,105,8|0,0:1|0:0,0:0:0:0:
348,164,8857,2,0,L|356:60,1,105,8|0,0:1|0:0,0:0:0:0:
512,248,9326,1,8,0:1:0:0:
256,324,9560,5,8,0:1:0:0:
256,324,9677,1,8,0:1:0:0:
256,324,9795,1,8,0:1:0:0:
268,184,10029,1,8,0:1:0:0:
100,300,10263,1,8,0:1:0:0:
112,160,10497,1,8,0:1:0:0:
270,340,10732,5,8,0:1:0:0:
284,172,10966,1,8,0:1:0:0:
83,311,11201,1,8,0:1:0:0:
97,143,11435,5,8,0:1:0:0:
97,143,11552,1,8,0:1:0:0:
97,143,11670,1,8,3:1:0:0:
145,124,11787,1,0,3:2:0:0:
196,134,11904,1,0,3:2:0:0:
233,170,12021,1,0,3:2:0:0:
245,221,12138,1,0,3:2:0:0:
256,271,12255,1,0,3:2:0:0:
293,307,12372,1,0,3:2:0:0:
344,317,12489,1,0,3:2:0:0:
391,297,12607,6,0,L|396:295,1,5.25,0|0,3:0|3:0,0:0:0:0:
375,248,12724,2,0,L|378:244,1,5.25,0|0,3:0|3:0,0:0:0:0:
339,211,12841,2,0,L|341:206,1,5.25,0|0,3:0|3:0,0:0:0:0:
290,193,12959,2,0,L|290:187,1,5.25,0|0,3:0|3:0,0:0:0:0:
238,198,13076,2,0,L|236:192,1,5.25,0|0,3:0|3:0,0:0:0:0:
193,226,13193,2,0,L|189:221,1,5.25,0|0,3:0|3:0,0:0:0:0:
165,269,13310,2,0,L|160:266,1,5.25,0|0,3:0|3:0,0:0:0:0:
159,321,13427,2,0,L|153:319,1,5.25,0|0,3:0|3:0,0:0:0:0:
175,370,13545,5,2,3:0:0:0:
264,360,13701,5,2,3:0:0:0:
352,349,13857,5,2,3:0:0:0:
440,338,14013,6,0,L|444:272,1,62.9999980773926,2|0,3:0|0:0,0:0:0:0:
376,256,14248,6,0,L|372:193,1,62.9999980773926,2|0,3:0|0:0,0:0:0:0:
364,120,14482,6,0,P|315:108|269:131,1,105,8|0,0:3|0:0,0:0:0:0:
248,236,14834,2,0,P|203:258|153:246,1,105
104,152,15185,2,0,L|116:72,1,52.5
63,334,15420,5,6,1:2:0:0:
196,148,15654,1,2,0:2:0:0:
32,172,15888,1,10,1:2:0:0:
223,310,16123,1,2,0:2:0:0:
256,52,16357,5,2,1:2:0:0:
152,220,16591,1,2,0:2:0:0:
152,220,16709,1,2,0:2:0:0:
152,220,16826,1,8,1:2:0:0:
152,220,16943,2,0,L|32:196,1,105,2|2,0:2|0:2,0:0:0:0:
24,124,17295,5,0,1:0:0:0:
160,300,17529,1,2,0:2:0:0:
180,148,17763,1,10,1:2:0:0:
0,272,17998,1,2,0:2:0:0:
64,40,18232,5,2,1:2:0:0:
136,220,18466,1,2,0:2:0:0:
136,220,18584,1,2,0:2:0:0:
136,220,18701,1,8,1:2:0:0:
136,220,18818,2,0,L|240:200,1,105,2|2,0:2|0:2,0:0:0:0:
280,132,19170,5,0,1:0:0:0:
168,320,19404,1,2,0:2:0:0:
316,284,19638,1,10,1:2:0:0:
132,168,19873,1,2,0:2:0:0:
276,376,20107,5,2,1:2:0:0:
308,188,20341,1,2,0:2:0:0:
308,188,20459,1,2,0:2:0:0:
308,188,20576,1,8,1:2:0:0:
308,188,20693,2,0,L|441:207,1,105,2|2,0:2|0:2,0:0:0:0:
480,160,21045,6,0,P|486:108|460:64,1,105,0|0,1:2|0:0,0:0:0:0:
352,280,21513,2,0,P|345:331|371:375,1,105,8|0,1:2|0:0,0:0:0:0:
240,168,21982,1,0,1:0:0:0:
165,354,22216,5,8,0:2:0:0:
103,25,22451,2,0,L|104:20,1,5.25,8|0,1:2|0:0,0:0:0:0:
8,202,22685,2,0,L|7:207,1,5.25
240,168,22920,5,4,1:2:0:0:
40,80,23154,1,2,0:2:0:0:
188,24,23388,1,10,1:2:0:0:
92,224,23623,1,2,0:2:0:0:
362,248,23857,5,2,1:2:0:0:
186,160,24091,1,2,0:2:0:0:
186,160,24209,1,2,0:2:0:0:
186,160,24326,1,8,1:2:0:0:
186,160,24443,2,0,L|202:36,1,105,2|2,0:2|0:2,0:0:0:0:
128,16,24795,5,0,1:0:0:0:
260,192,25029,1,2,0:2:0:0:
104,168,25263,1,10,1:2:0:0:
284,40,25497,1,2,0:2:0:0:
240,308,25732,5,2,1:2:0:0:
160,128,25966,1,2,0:2:0:0:
160,128,26084,1,2,0:2:0:0:
160,128,26201,1,8,1:2:0:0:
160,128,26318,2,0,L|36:156,1,105,2|2,0:2|0:2,0:0:0:0:
8,88,26670,5,0,1:0:0:0:
200,204,26904,1,2,0:2:0:0:
168,48,27138,1,10,1:2:0:0:
40,244,27373,1,2,0:2:0:0:
316,296,27607,5,2,1:2:0:0:
140,176,27841,1,2,0:2:0:0:
140,176,27959,1,2,0:2:0:0:
140,176,28076,1,8,1:2:0:0:
140,176,28193,2,0,L|148:56,1,105,2|2,0:2|0:2,0:0:0:0:
216,24,28545,5,2,3:0:0:0:
308,50,28701,5,2,3:0:0:0:
392,3,28857,5,2,3:0:0:0:
484,29,29013,6,0,L|472:132,1,70,2|0,3:0|0:0,0:0:0:0:
412,128,29248,6,0,L|424:231,1,70,2|0,3:0|0:0,0:0:0:0:
464,252,29482,5,2,3:0:0:0:
384,304,29638,5,8,3:0:0:0:
291,286,29795,5,8,3:0:0:0:
237,204,29951,6,0,P|127:206|86:307,1,210,4|4,1:2|1:3,0:0:0:0:
36,60,30654,5,2,0:0:0:0:
5,167,30888,1,10,0:0:0:0:
110,130,31123,1,2,0:0:0:0:
79,236,31357,2,0,P|124:249|171:256,1,94.499997116089,2|0,0:0|1:0,0:0:0:0:
196,328,31709,1,2,0:0:0:0:
196,328,31826,2,0,P|241:315|288:308,1,94.499997116089,8|2,0:0|0:0,0:0:0:0:
504,352,32295,5,4,1:3:0:0:
404,304,32529,1,2,0:0:0:0:
495,241,32763,1,10,0:0:0:0:
495,241,32880,1,2,0:0:0:0:
495,241,32998,1,2,0:0:0:0:
312,116,33232,5,2,0:0:0:0:
321,226,33466,1,2,1:2:0:0:
176,328,33701,5,10,0:0:0:0:
167,218,33935,1,2,0:0:0:0:
304,368,34170,5,4,1:3:0:0:
396,308,34404,1,2,0:2:0:0:
396,308,34521,1,2,0:2:0:0:
396,308,34638,1,10,0:2:0:0:
390,198,34873,1,2,0:2:0:0:
292,147,35107,2,0,P|249:167|203:178,1,94.499997116089,2|2,0:2|1:2,0:0:0:0:
132,208,35459,1,2,0:2:0:0:
132,208,35576,2,0,P|89:188|43:177,1,94.499997116089,8|2,0:0|0:2,0:0:0:0:
32,376,36045,5,2,3:0:0:0:
120,364,36201,5,2,3:0:0:0:
208,352,36357,5,2,3:0:0:0:
236,268,36513,5,2,3:0:0:0:
324,280,36669,5,2,3:0:0:0:
412,292,36825,5,2,3:0:0:0:
499,303,36982,6,0,P|519:261|509:216,1,94.499997116089,2|0,3:0|0:0,0:0:0:0:
509,216,37334,1,8,0:1:0:0:
509,216,37451,1,0,1:1:0:0:
424,384,37685,1,8,0:1:0:0:
344,72,37920,1,4,1:2:0:0:
208,208,38154,5,2,0:2:0:0:
208,208,38271,1,2,0:2:0:0:
208,208,38388,2,0,P|162:201|116:189,1,94.499997116089,10|0,0:2|0:0,0:0:0:0:
252,376,38857,2,0,P|297:363|344:356,1,94.499997116089,2|0,0:2|1:0,0:0:0:0:
423,384,39209,1,2,0:2:0:0:
423,384,39326,2,0,P|434:338|451:294,1,94.499997116089,8|2,0:0|0:2,0:0:0:0:
511,241,39677,2,0,P|477:208|447:171,1,94.499997116089,8|0,0:0|0:0,0:0:0:0:
364,176,40029,5,2,0:2:0:0:
362,208,40146,1,2,0:2:0:0:
360,239,40263,1,6,1:2:0:0:
140,108,40498,1,2,0:2:0:0:
140,108,40615,1,2,0:2:0:0:
172,272,40849,1,2,0:2:0:0:
330,44,41084,1,2,0:2:0:0:
330,44,41201,1,10,0:2:0:0:
362,208,41435,1,2,0:2:0:0:
200,8,41670,6,0,P|156:27|109:34,1,94.499997116089,4|0,1:3|0:0,0:0:0:0:
208,248,42138,1,8,0:0:0:0:
287,112,42373,1,2,0:2:0:0:
323,101,42490,1,0,0:0:0:0:
361,105,42607,1,2,0:2:0:0:
393,124,42724,1,0,1:0:0:0:
416,154,42841,1,2,1:2:0:0:
380,0,43076,1,10,0:2:0:0:
336,280,43310,5,2,0:2:0:0:
331,244,43427,1,2,0:2:0:0:
326,209,43544,1,8,1:0:0:0:
464,336,43779,1,0,1:0:0:0:
180,276,44013,5,8,1:0:0:0:
180,276,44130,1,0,1:0:0:0:
326,209,44365,1,8,0:1:0:0:
346,175,44482,1,0,1:0:0:0:
348,137,44599,1,8,0:1:0:0:
330,102,44716,1,0,1:0:0:0:
297,80,44834,2,0,L|264:88,2,26.25,8|8|8,0:1|0:1|0:1,0:0:0:0:
8,148,45185,5,0,1:0:0:0:
8,148,45302,1,0,1:0:0:0:
8,148,45420,2,0,L|85:163,1,78.7500030040742,6|0,1:2|0:0,0:0:0:0:
152,92,45888,1,2,0:2:0:0:
184,228,46123,2,0,L|261:213,1,78.7500030040742,2|8,0:2|0:0,0:0:0:0:
352,248,46591,1,2,0:2:0:0:
387,157,46826,1,2,0:2:0:0:
442,309,47060,6,0,P|439:270|448:232,1,78.7500030040742,2|0,0:2|1:0,0:0:0:0:
387,157,47529,1,2,0:2:0:0:
336,284,47763,2,0,P|262:301|208:247,1,157.500006008148,2|8,0:2|0:0,0:0:0:0:
208,248,48701,5,2,0:2:0:0:
235,157,48935,2,0,P|275:161|313:168,1,78.7500030040742,2|0,0:2|1:0,0:0:0:0:
400,213,49404,1,2,0:2:0:0:
317,265,49638,1,2,0:2:0:0:
404,310,49872,1,2,0:2:0:0:
321,362,50107,2,0,P|281:366|243:373,1,78.7500030040742,10|2,0:2|0:2,0:0:0:0:
152,340,50576,1,2,0:2:0:0:
256,268,50810,6,0,P|267:229|270:190,1,78.7500030040742,2|0,0:2|1:0,0:0:0:0:
193,132,51279,1,2,0:2:0:0:
193,132,51513,1,2,0:2:0:0:
368,172,51748,6,0,P|474:148|474:39,1,236.250009012223,2|0,0:3|0:0,0:0:0:0:
356,0,52685,1,0,0:0:0:0:
307,239,52920,6,0,P|260:230|214:224,1,94.499997116089,4|0,1:2|0:0,0:0:0:0:
214,224,53271,1,8,0:1:0:0:
214,224,53388,1,0,1:0:0:0:
396,88,53623,2,0,P|460:100|496:104,1,94.499997116089,8|0,0:1|1:0,0:0:0:0:
432,228,54091,1,0,0:0:0:0:
432,228,54209,1,8,0:1:0:0:
432,228,54326,1,0,1:0:0:0:
328,0,54560,1,8,0:1:0:0:
215,143,54795,6,0,P|228:188|238:235,1,94.499997116089,0|0,1:0|0:0,0:0:0:0:
239,235,55146,1,8,0:1:0:0:
239,235,55263,1,0,1:0:0:0:
352,136,55498,1,8,0:1:0:0:
123,107,55732,2,0,P|78:120|32:131,1,94.499997116089,0|0,1:0|0:0,0:0:0:0:
32,131,56084,1,8,0:1:0:0:
32,131,56201,1,0,1:0:0:0:
237,9,56435,1,8,0:1:0:0:
154,296,56670,5,8,0:1:0:0:
189,146,56904,1,8,0:1:0:0:
329,344,57138,1,8,0:1:0:0:
365,194,57372,1,8,0:1:0:0:
132,305,57607,5,8,0:1:0:0:
174,125,57841,1,8,0:1:0:0:
343,364,58075,1,8,0:1:0:0:
386,183,58309,5,8,0:1:0:0:
386,183,58427,1,8,0:1:0:0:
386,183,58545,1,8,3:1:0:0:
339,160,58662,1,0,3:0:0:0:
288,167,58779,1,0,3:0:0:0:
250,202,58896,1,0,3:0:0:0:
238,253,59013,1,0,3:0:0:0:
225,303,59130,1,0,3:0:0:0:
187,337,59247,1,0,3:0:0:0:
136,344,59364,1,0,3:0:0:0:
88,320,59482,6,0,L|83:325,1,5.25,0|0,3:0|3:0,0:0:0:0:
56,280,59599,2,0,L|51:282,1,5.25,0|0,3:0|3:0,0:0:0:0:
54,229,59716,2,0,L|48:229,1,5.25,0|0,3:0|3:0,0:0:0:0:
82,186,59834,2,0,L|76:184,1,5.25,0|0,3:0|3:0,0:0:0:0:
131,168,59951,2,0,L|132:173,1,5.25,0|0,3:0|3:0,0:0:0:0:
180,150,60068,2,0,L|183:154,1,5.25,0|0,3:0|3:0,0:0:0:0:
208,107,60185,2,0,L|212:110,1,5.25,0|0,3:0|3:0,0:0:0:0:
206,56,60302,2,0,L|211:57,1,5.25,0|0,3:0|3:0,0:0:0:0:
171,17,60419,5,0,3:0:0:0:
256,192,60537,12,8,61357,0:3:0:0:
256,192,61709,5,8,3:0:0:0:
256,192,61826,1,8,3:1:0:0:
200,76,62060,1,8,3:0:0:0:
180,292,62295,5,4,1:2:0:0:
180,292,62412,1,2,0:2:0:0:
180,292,62529,2,0,P|104:280|56:264,1,115.50000352478,2|8,0:2|1:2,0:0:0:0:
360,140,62998,1,2,0:2:0:0:
183,107,63232,1,2,1:2:0:0:
336,304,63466,1,2,0:2:0:0:
147,260,63701,2,0,P|91:270|37:288,1,115.50000352478,10|0,1:2|0:0,0:0:0:0:
72,368,64052,5,2,0:2:0:0:
108,144,64287,1,2,0:2:0:0:
108,144,64404,2,0,P|130:91|130:33,1,115.50000352478,2|8,0:2|1:2,0:0:0:0:
336,288,64873,1,2,0:2:0:0:
280,104,65107,1,2,1:2:0:0:
136,344,65341,1,2,0:2:0:0:
100,156,65576,1,10,1:2:0:0:
284,384,65810,6,0,P|337:363|393:350,1,115.50000352478,2|0,0:2|1:0,0:0:0:0:
196,112,66279,1,2,0:2:0:0:
364,168,66513,1,10,1:2:0:0:
212,348,66748,1,2,0:2:0:0:
268,180,66982,1,2,1:2:0:0:
448,332,67217,1,2,0:2:0:0:
280,276,67451,1,10,1:2:0:0:
412,56,67685,6,0,P|420:112|441:166,1,115.50000352478,2|0,0:2|1:0,0:0:0:0:
152,112,68154,2,0,P|172:57|181:0,1,115.50000352478,2|8,0:2|1:2,0:0:0:0:
299,135,68623,1,2,0:2:0:0:
44,197,68857,1,2,1:2:0:0:
96,0,69091,5,10,0:2:0:0:
272,348,69326,1,10,1:2:0:0:
312,168,69560,1,2,0:2:0:0:
93,284,69795,5,4,1:2:0:0:
93,284,69912,1,2,0:2:0:0:
93,284,70029,2,0,P|37:274|-19:259,1,115.50000352478,2|8,0:2|1:2,0:0:0:0:
264,364,70498,1,2,0:2:0:0:
47,180,70732,1,2,1:2:0:0:
28,372,70966,1,2,0:2:0:0:
224,168,71201,1,10,1:2:0:0:
264,364,71435,1,2,0:2:0:0:
4,284,71670,5,2,1:2:0:0:
4,284,71787,1,2,0:2:0:0:
4,284,71904,2,0,P|60:274|116:259,1,115.50000352478,2|8,0:2|1:2,0:0:0:0:
264,48,72373,1,2,0:2:0:0:
128,128,72607,1,2,1:2:0:0:
368,200,72841,1,2,0:2:0:0:
244,300,73076,2,0,L|108:268,1,115.50000352478,10|2,1:2|0:2,0:0:0:0:
64,328,73427,5,2,0:2:0:0:
252,132,73662,1,2,0:2:0:0:
252,132,73779,2,0,P|303:161|358:177,1,115.50000352478,2|8,0:2|1:2,0:0:0:0:
108,8,74247,2,0,P|57:35|2:51,1,115.50000352478,0|0,0:0|1:0,0:0:0:0:
296,68,74716,1,2,0:2:0:0:
20,224,74951,1,10,1:2:0:0:
80,16,75185,1,2,0:2:0:0:
216,320,75420,6,0,P|269:337|318:311,1,115.50000352478,2|0,0:2|0:0,0:0:0:0:
403,371,75771,1,8,0:0:0:0:
403,371,75888,2,0,P|436:325|426:270,1,115.50000352478,2|0,0:2|0:0,0:0:0:0:
510,208,76240,1,8,0:0:0:0:
510,208,76357,2,0,P|476:162|421:154,1,115.50000352478,2|0,0:2|0:0,0:0:0:0:
108,230,76826,1,14,1:2:0:0:
144,66,77060,1,0,0:0:0:0:
376,312,77295,5,4,1:2:0:0:
356,144,77529,1,0,0:0:0:0:
192,356,77763,2,0,L|72:332,1,115.50000352478,10|0,1:2|0:0,0:0:0:0:
192,68,78232,5,2,1:2:0:0:
304,352,78466,1,0,0:0:0:0:
304,352,78584,1,2,0:2:0:0:
304,352,78701,1,8,1:2:0:0:
104,248,78935,1,2,0:2:0:0:
384,156,79170,5,0,1:0:0:0:
224,264,79404,1,0,0:0:0:0:
276,0,79638,2,0,L|390:10,1,115.50000352478,10|0,1:2|0:0,0:0:0:0:
136,112,80107,5,2,1:2:0:0:
432,220,80341,1,0,0:0:0:0:
432,220,80459,1,2,0:2:0:0:
432,220,80576,1,8,1:2:0:0:
324,40,80810,1,2,0:2:0:0:
180,328,81045,5,0,1:0:0:0:
244,128,81279,1,0,0:0:0:0:
372,384,81513,2,0,L|500:352,1,115.50000352478,10|0,1:2|0:0,0:0:0:0:
192,208,81982,5,2,1:2:0:0:
504,332,82216,1,0,0:0:0:0:
504,332,82334,1,2,0:2:0:0:
504,332,82451,1,8,1:2:0:0:
444,140,82685,1,2,0:2:0:0:
244,384,82920,1,0,1:0:0:0:
144,104,83154,5,2,0:2:0:0:
292,200,83388,1,10,1:2:0:0:
134,280,83623,1,2,0:2:0:0:
302,24,83857,6,0,P|357:12|408:38,1,115.50000352478,2|0,1:2|0:0,0:0:0:0:
512,67,84209,2,0,P|499:93|492:121,1,57.7500017623902,2|0,0:2|1:0,0:0:0:0:
362,216,84443,1,2,0:2:0:0:
362,216,84560,2,0,P|355:188|342:161,1,57.7500017623902,2|0,0:2|0:0,0:0:0:0:
212,8,84795,5,6,1:2:0:0:
408,56,85029,1,0,0:0:0:0:
144,184,85263,2,0,P|84:168|16:160,1,115.50000352478,10|0,1:2|0:0,0:0:0:0:
304,360,85732,5,2,1:2:0:0:
204,72,85966,1,0,0:0:0:0:
204,72,86084,1,2,0:2:0:0:
204,72,86201,1,8,1:2:0:0:
396,172,86435,1,2,0:2:0:0:
112,264,86670,5,0,1:2:0:0:
312,220,86905,1,0,0:0:0:0:
91,71,87138,2,0,P|36:88|-20:93,1,115.50000352478,10|0,1:2|0:0,0:0:0:0:
280,324,87607,5,2,1:2:0:0:
0,184,87841,1,0,0:0:0:0:
0,184,87959,1,2,0:2:0:0:
0,184,88076,1,8,1:2:0:0:
56,384,88310,1,2,0:2:0:0:
216,108,88545,5,0,1:0:0:0:
116,264,88779,1,0,0:0:0:0:
400,200,89013,2,0,P|456:216|512:224,1,115.50000352478,10|0,1:2|0:0,0:0:0:0:
264,16,89482,5,2,1:2:0:0:
184,328,89716,1,0,0:0:0:0:
184,328,89834,1,2,0:2:0:0:
184,328,89951,1,8,1:2:0:0:
84,108,90185,1,2,0:2:0:0:
376,88,90420,6,0,L|482:66|482:66|445:165|445:165|494:258|494:258|389:250|389:250|317:325|317:325|288:223|288:223|195:178|195:178|282:122|282:122|295:41,1,924.000028198243
