osu file format v14

[General]
AudioFilename: audio.mp3
AudioLeadIn: 0
PreviewTime: 61052
Countdown: 0
SampleSet: Soft
StackLeniency: 0.7
Mode: 0
LetterboxInBreaks: 0
WidescreenStoryboard: 1

[Editor]
DistanceSpacing: 1.4
BeatDivisor: 4
GridSize: 4
TimelineZoom: 1.2

[Metadata]
Title:Eutopia (TV Size)
TitleUnicode:Eutopia (TV Size)
Artist:Zhong Lanzhu (CV: Homoto Akina)
ArtistUnicode:鐘 嵐珠 (CV: 法元明菜)
Creator:Doormat
Version:Normal
Source:ラブライブ!虹ヶ咲学園スクールアイドル同好会
Tags:Froskya Revialink Houmoto Hōmoto ショウ ランジュ 鐘嵐珠 love live! nijigasaki high school idol club gakuen doukoukai doukou kai season two 2 nijigaku ニジガク llas sifas スクスタ festival all stars スクールアイドルフェスティバル Ayaka Miyake *Luna Kadono Toshikazu 角野寿和 insert anime insert video game japanese chinese electronic dance j-pop jpop pop edm music
BeatmapID:3542971
BeatmapSetID:1733247

[Difficulty]
HPDrainRate:4
CircleSize:3.5
OverallDifficulty:4.5
ApproachRate:5.5
SliderMultiplier:1.3
SliderTickRate:1

[Events]
//Background and Video events
0,0,"lanzhu.jpg",0,0
Video,0,"lanzhu solo.mp4"
//Break Periods
//Storyboard Layer 0 (Background)
//Storyboard Layer 1 (Fail)
//Storyboard Layer 2 (Pass)
//Storyboard Layer 3 (Foreground)
//Storyboard Layer 4 (Overlay)
//Storyboard Sound Samples

[TimingPoints]
420,468.75,4,2,1,60,1,0
1591,-100,4,2,1,5,0,0
1709,-100,4,2,1,60,0,0
3466,-100,4,2,1,5,0,0
3584,-100,4,2,1,60,0,0
5341,-100,4,2,1,5,0,0
5459,-100,4,2,1,60,0,0
7920,-100,4,2,1,80,0,0
13545,-100,4,2,1,60,0,0
15420,-100,4,2,1,80,0,0
30420,-100,4,2,1,60,0,0
37334,-100,4,2,1,80,0,0
37920,-100,4,2,1,80,0,0
44951,-100,4,2,1,60,0,0
45420,-111.111111111111,4,2,1,60,0,0
52920,-100,4,2,1,70,0,0
56670,-100,4,2,1,80,0,0
62295,-100,4,2,1,100,0,1
77177,-100,4,2,1,100,0,0
77295,-100,4,2,1,100,0,1
92295,-100,4,2,1,10,0,0

[Colours]
Combo1 : 25,80,170
Combo2 : 240,190,205
Combo3 : 175,215,230
Combo4 : 155,0,0

[HitObjects]
132,176,420,6,0,P|84:172|36:200,1,97.5,2|0,0:3|0:0,0:0:0:0:
32,332,1123,2,0,P|128:360|204:280,1,195
256,132,2295,2,0,L|150:149,1,97.5,2|0,0:3|0:0,0:0:0:0:
84,32,2998,2,0,L|276:1,1,195
428,108,4170,2,0,P|412:160|412:216,1,97.5
284,256,4873,2,0,P|279:158|250:65,1,195
155,219,6045,6,0,P|139:259|148:301,1,86.6666666666667,2|0,3:0|3:0,0:0:0:0:
128,337,6513,2,0,P|90:357|48:354,1,86.6666666666667,2|0,3:0|3:0,0:0:0:0:
12,332,6982,2,0,L|24:180,1,130,0|0,3:0|0:0,0:0:0:0:
128,56,7920,6,0,P|190:39|245:70,1,130,8|8,0:1|0:1,0:0:0:0:
228,248,8857,2,0,P|166:264|111:233,1,130,8|8,0:1|0:1,0:0:0:0:
76,148,9560,1,8,0:1:0:0:
80,152,9795,1,8,0:1:0:0:
248,88,10263,1,8,0:1:0:0:
312,256,10732,1,8,0:1:0:0:
480,192,11201,5,8,0:1:0:0:
484,196,11435,1,8,0:1:0:0:
488,200,11670,2,0,L|476:135,1,65,8|0,3:1|3:2,0:0:0:0:
456,48,12138,2,0,L|391:59,1,65,0|0,3:2|3:2,0:0:0:0:
304,80,12607,2,0,L|315:145,1,65,0|0,3:0|3:0,0:0:0:0:
336,231,13076,2,0,L|271:242,1,65,0|0,3:0|3:0,0:0:0:0:
182,260,13545,2,0,P|154:236|170:140,1,130,2|2,3:0|3:0,0:0:0:0:
332,92,14482,2,0,P|350:48|332:4,2,97.5,8|0|0,0:3|0:0|0:0,0:0:0:0:
352,180,15420,6,0,L|481:193,1,130,6|10,1:2|1:2,0:0:0:0:
512,280,16123,1,2,0:2:0:0:
467,360,16357,2,0,L|402:353,1,65,2|2,1:2|0:2,0:0:0:0:
342,287,16826,2,0,L|276:280,1,65,8|0,1:2|0:0,0:0:0:0:
186,285,17295,2,0,P|165:241|214:162,1,130,0|10,1:0|1:2,0:0:0:0:
282,140,17998,1,2,0:2:0:0:
262,51,18232,2,0,L|188:60,1,65,2|2,1:2|0:2,0:0:0:0:
111,32,18701,1,8,1:2:0:0:
0,176,19170,6,0,P|34:231|43:295,1,130,0|10,1:0|1:2,0:0:0:0:
124,341,19873,1,2,0:2:0:0:
160,256,20107,2,0,P|170:226|173:194,1,65,2|2,1:2|0:2,0:0:0:0:
128,112,20576,2,0,P|131:79|142:49,1,65,8|0,1:2|0:0,0:0:0:0:
224,8,21045,1,0,1:2:0:0:
320,160,21513,2,0,L|468:132,1,130,8|0,1:2|1:0,0:0:0:0:
480,224,22216,1,8,0:2:0:0:
512,312,22451,2,0,L|508:380,1,65,8|0,1:2|0:0,0:0:0:0:
416,371,22920,6,0,P|371:327|308:330,1,130,4|10,1:2|1:2,0:0:0:0:
244,264,23623,1,2,0:2:0:0:
180,328,23857,2,0,L|115:317,1,65,2|2,1:2|0:2,0:0:0:0:
36,360,24326,1,8,1:2:0:0:
4,179,24795,2,0,P|14:149|16:117,1,65,0|2,1:0|0:2,0:0:0:0:
84,56,25263,2,0,P|114:66|146:68,1,65,10|2,1:2|0:2,0:0:0:0:
228,28,25732,2,0,P|272:72|251:140,1,130,2|8,1:2|1:2,0:0:0:0:
360,288,26670,6,0,L|493:249,1,130,0|10,1:0|1:2,0:0:0:0:
496,160,27373,1,2,0:2:0:0:
459,76,27607,2,0,L|394:68,1,65,2|2,1:2|0:2,0:0:0:0:
316,116,28076,2,0,L|251:108,1,65,8|0,1:2|0:0,0:0:0:0:
172,64,28545,2,0,P|135:116|154:179,1,130,2|2,3:0|3:0,0:0:0:0:
228,224,29248,1,2,3:0:0:0:
232,228,29482,1,2,3:0:0:0:
56,260,29951,1,4,1:2:0:0:
188,384,30420,6,0,P|249:364|313:353,1,130,4|10,1:3|0:0,0:0:0:0:
484,288,31357,2,0,L|468:184,2,97.5,2|2|2,0:0|0:0|0:0,0:0:0:0:
416,348,32295,2,0,P|352:347|312:298,1,130,4|10,1:3|0:0,0:0:0:0:
284,120,33232,2,0,L|348:113,1,65,2|2,0:0|1:2,0:0:0:0:
338,22,33701,2,0,L|273:28,1,65,10|2,0:0|0:0,0:0:0:0:
183,12,34170,6,0,P|144:60|155:122,1,130,4|10,1:3|0:2,0:0:0:0:
112,300,35107,2,0,L|15:287,2,97.5,2|2|2,0:2|0:2|0:2,0:0:0:0:
180,360,36045,2,0,P|213:333|255:328,1,86.6666666666667,2|2,3:0|3:0,0:0:0:0:
284,297,36513,2,0,P|317:323|359:328,1,86.6666666666667,2|2,3:0|3:0,0:0:0:0:
388,361,36982,1,2,3:0:0:0:
492,213,37451,1,0,1:1:0:0:
320,168,37920,6,0,P|295:109|320:51,1,130,4|10,1:2|0:2,0:0:0:0:
244,0,38623,1,0,0:0:0:0:
248,4,38857,2,0,L|168:12,1,65,2|0,0:2|1:0,0:0:0:0:
144,92,39326,2,0,L|15:75,1,130,8|0,0:0|0:0,0:0:0:0:
124,224,40263,2,0,L|252:241,1,130,6|0,1:2|0:0,0:0:0:0:
348,84,41201,1,10,0:2:0:0:
352,88,41435,1,2,0:2:0:0:
428,140,41670,6,0,P|452:196|412:252,1,130,4|8,1:3|0:0,0:0:0:0:
236,288,42607,2,0,L|220:224,1,65,2|2,0:2|1:2,0:0:0:0:
264,144,43076,2,0,L|327:162,1,65,10|2,0:2|0:2,0:0:0:0:
416,188,43545,1,8,1:0:0:0:
432,8,44013,1,8,1:0:0:0:
252,40,44482,2,0,P|192:66|128:72,1,130,8|8,1:0|0:1,0:0:0:0:
52,20,45185,1,0,1:0:0:0:
7,99,45420,6,0,P|30:154|46:210,1,116.999996429443,6|2,1:2|0:2,0:0:0:0:
188,296,46357,2,0,P|204:233|229:173,1,116.999996429443,8|2,0:0|0:2,0:0:0:0:
324,56,47295,2,0,P|279:20|222:24,1,116.999996429443,0|2,1:0|0:2,0:0:0:0:
156,76,47998,1,0,0:0:0:0:
160,80,48232,1,8,0:0:0:0:
288,184,48701,1,2,0:2:0:0:
132,240,49170,6,0,L|16:222,1,116.999996429443,0|2,1:0|0:2,0:0:0:0:
12,60,50107,2,0,L|140:41,1,116.999996429443,10|2,0:2|0:2,0:0:0:0:
288,24,51045,2,0,P|325:66|312:124,1,116.999996429443,0|2,1:0|0:2,0:0:0:0:
239,160,51748,2,0,P|238:242|314:271,1,175.499994644165,2|0,0:3|0:0,0:0:0:0:
488,200,52920,6,0,L|472:80,2,97.5,4|8|8,1:2|0:1|0:1,0:0:0:0:
412,252,53857,2,0,L|336:244,1,65,0|0,1:0|0:0,0:0:0:0:
316,160,54326,2,0,L|240:152,1,65,8|8,1:0|0:1,0:0:0:0:
192,224,54795,2,0,L|208:344,2,97.5,0|8|8,1:0|0:1|0:1,0:0:0:0:
116,176,55732,2,0,L|132:32,1,130,0|8,1:0|1:0,0:0:0:0:
308,0,56670,5,8,0:1:0:0:
476,72,57139,1,8,0:1:0:0:
329,181,57607,1,8,0:1:0:0:
497,253,58076,1,8,0:1:0:0:
350,362,58545,2,0,L|286:348,1,65,8|0,3:1|3:0,0:0:0:0:
196,352,59013,2,0,L|188:287,1,65,0|0,3:0|3:0,0:0:0:0:
157,202,59482,2,0,L|216:174,1,65,0|0,3:0|3:0,0:0:0:0:
287,119,59951,2,0,L|331:166,1,65,0|0,3:0|3:0,0:0:0:0:
400,228,60420,6,0,B|485:236|513:176|513:176|477:108|416:103,1,260,0|8,3:0|0:3,0:0:0:0:
236,124,61826,1,8,3:1:0:0:
220,308,62295,6,0,P|160:328|104:297,1,130,4|8,1:2|1:2,0:0:0:0:
64,216,62998,1,2,0:2:0:0:
116,140,63232,2,0,L|179:155,1,65,2|2,1:2|0:2,0:0:0:0:
216,72,63701,2,0,L|279:87,1,65,10|0,1:2|0:0,0:0:0:0:
368,72,64170,2,0,P|396:120|356:200,1,130,0|8,1:0|1:2,0:0:0:0:
208,260,65107,1,2,1:2:0:0:
212,264,65341,2,0,L|196:192,1,65,2|10,0:2|1:2,0:0:0:0:
152,120,65810,6,0,P|201:80|262:95,1,130,2|2,0:2|0:2,0:0:0:0:
352,72,66513,2,0,L|372:152,1,65,10|2,1:2|0:2,0:0:0:0:
448,184,66982,1,2,1:2:0:0:
452,188,67216,2,0,L|432:268,1,65,2|10,0:2|1:2,0:0:0:0:
412,340,67685,1,2,0:2:0:0:
288,206,68154,2,0,P|226:194|179:236,1,130,2|2,0:2|0:2,0:0:0:0:
192,328,68857,1,2,1:2:0:0:
119,384,69091,1,10,0:2:0:0:
33,349,69326,2,0,L|45:273,1,65,10|2,1:2|0:2,0:0:0:0:
0,204,69795,6,0,P|29:146|29:82,1,130,4|8,1:2|1:2,0:0:0:0:
84,8,70498,1,2,0:2:0:0:
140,80,70732,2,0,P|204:79|261:50,1,130,2|10,1:2|1:2,0:0:0:0:
338,0,71435,1,2,0:2:0:0:
404,64,71670,2,0,P|404:128|434:185,1,130,2|8,1:2|1:2,0:0:0:0:
362,352,72607,2,0,L|297:343,1,65,2|2,1:2|0:2,0:0:0:0:
294,254,73076,2,0,L|228:246,1,65,10|2,1:2|0:2,0:0:0:0:
139,267,73545,6,0,P|123:207|163:155,2,130,0|8|0,1:0|1:2|1:0,0:0:0:0:
200,336,74716,1,2,0:2:0:0:
268,276,74951,2,0,L|332:282,1,65,10|2,1:2|0:2,0:0:0:0:
424,292,75420,1,2,0:2:0:0:
500,128,75888,1,2,0:2:0:0:
336,52,76357,1,2,0:2:0:0:
260,216,76826,1,14,1:2:0:0:
96,140,77295,5,4,1:2:0:0:
20,304,77763,2,0,L|83:318,1,65,10|0,1:2|0:0,0:0:0:0:
172,336,78232,1,2,1:2:0:0:
136,204,78584,2,0,P|128:156|152:115,1,97.5,2|2,0:2|0:2,0:0:0:0:
224,60,79170,1,0,1:0:0:0:
292,228,79638,2,0,L|354:210,1,65,10|0,1:2|0:0,0:0:0:0:
440,184,80107,1,2,1:2:0:0:
460,48,80459,2,0,P|418:23|371:29,1,97.5,2|2,0:2|0:2,0:0:0:0:
292,76,81045,5,0,1:0:0:0:
120,20,81513,2,0,L|104:100,1,65,10|0,1:2|0:0,0:0:0:0:
84,172,81982,1,2,1:2:0:0:
220,152,82334,2,0,P|267:151|305:181,1,97.5,2|2,0:2|0:2,0:0:0:0:
376,124,82920,2,0,L|368:52,1,65,0|2,1:0|0:2,0:0:0:0:
460,52,83388,2,0,L|468:124,1,65,10|2,1:2|0:2,0:0:0:0:
484,208,83857,2,0,P|441:231|394:223,2,97.5,2|2|2,1:2|0:2|0:2,0:0:0:0:
512,120,84795,5,6,1:2:0:0:
332,92,85263,2,0,L|268:84,1,65,10|0,1:2|0:0,0:0:0:0:
176,72,85732,1,2,1:2:0:0:
228,200,86084,2,0,P|233:247|208:288,1,97.5,2|2,0:2|0:2,0:0:0:0:
124,324,86670,1,0,1:2:0:0:
20,176,87138,2,0,L|36:112,1,65,10|0,1:2|0:0,0:0:0:0:
64,24,87607,1,2,1:2:0:0:
176,104,87959,2,0,P|223:112|264:88,1,97.5,2|2,0:2|0:2,0:0:0:0:
320,16,88545,5,0,1:0:0:0:
444,148,89013,2,0,L|436:212,1,65,10|0,1:2|0:0,0:0:0:0:
424,304,89482,1,2,1:2:0:0:
298,249,89834,2,0,P|250:242|209:266,1,97.5,2|2,0:2|0:2,0:0:0:0:
160,344,90420,1,0,0:0:0:0:
256,192,90537,12,0,92295,0:0:0:0:
