osu file format v14

[General]
AudioFilename: audio.mp3
AudioLeadIn: 0
PreviewTime: 61052
Countdown: 0
SampleSet: Soft
StackLeniency: 0.5
Mode: 0
LetterboxInBreaks: 0
WidescreenStoryboard: 1

[Editor]
DistanceSpacing: 0.9
BeatDivisor: 4
GridSize: 4
TimelineZoom: 1.2

[Metadata]
Title:Eutopia (TV Size)
TitleUnicode:Eutopia (TV Size)
Artist:Zhong Lanzhu (CV: Homoto Akina)
ArtistUnicode:鐘 嵐珠 (CV: 法元明菜)
Creator:Doormat
Version:Insane
Source:ラブライブ!虹ヶ咲学園スクールアイドル同好会
Tags:Froskya Revialink Houmoto Hōmoto ショウ ランジュ 鐘嵐珠 love live! nijigasaki high school idol club gakuen doukoukai doukou kai season two 2 nijigaku ニジガク llas sifas スクスタ festival all stars スクールアイドルフェスティバル Ayaka Miyake *Luna Kadono Toshikazu 角野寿和 insert anime insert video game japanese chinese electronic dance j-pop jpop pop edm music
BeatmapID:3545262
BeatmapSetID:1733247

[Difficulty]
HPDrainRate:5.5
CircleSize:4
OverallDifficulty:7
ApproachRate:8
SliderMultiplier:1.8
SliderTickRate:1

[Events]
//Background and Video events
0,0,"lanzhu.jpg",0,0
Video,0,"lanzhu solo.mp4"
//Break Periods
//Storyboard Layer 0 (Background)
//Storyboard Layer 1 (Fail)
//Storyboard Layer 2 (Pass)
//Storyboard Layer 3 (Foreground)
//Storyboard Layer 4 (Overlay)
//Storyboard Sound Samples

[TimingPoints]
420,468.75,4,2,1,60,1,0
420,-111.111111111111,4,2,1,60,0,0
7920,-100,4,2,1,80,0,0
13545,-100,4,2,1,60,0,0
14482,-100,4,2,1,60,0,0
14716,-100,4,2,1,5,0,0
14834,-100,4,2,1,60,0,0
15068,-100,4,2,1,5,0,0
15185,-100,4,2,1,60,0,0
15420,-100,4,2,1,80,0,0
30420,-111.111111111111,4,2,1,60,0,0
36045,-100,4,2,1,60,0,0
37334,-100,4,2,1,80,0,0
37920,-100,4,2,1,80,0,0
44834,-100,4,2,1,60,0,0
45420,-125,4,2,1,60,0,0
52920,-111.111111111111,4,2,1,70,0,0
56670,-100,4,2,1,80,0,0
58545,-100,4,2,1,80,0,0
62295,-90.9090909090909,4,2,1,100,0,1
77177,-90.9090909090909,4,2,1,100,0,0
77295,-90.9090909090909,4,2,1,100,0,1
92295,-100,4,2,1,10,0,0

[Colours]
Combo1 : 25,80,170
Combo2 : 240,190,205
Combo3 : 175,215,230
Combo4 : 155,0,0

[HitObjects]
20,144,420,6,0,P|79:136|122:176,1,121.499996292114,2|0,0:3|0:0,0:0:0:0:
161,20,1123,2,0,P|204:60|262:53,1,121.499996292114,0|0,0:0|0:0,0:0:0:0:
408,128,1826,5,0,0:0:0:0:
424,36,2060,1,0,0:0:0:0:
311,107,2295,6,0,P|251:108|211:65,1,121.499996292114,2|0,0:3|0:0,0:0:0:0:
140,212,2998,2,0,P|199:211|239:254,1,121.499996292114,0|0,0:0|0:0,0:0:0:0:
336,120,3701,5,0,0:0:0:0:
376,36,3935,1,0,0:0:0:0:
419,164,4170,6,0,P|383:210|391:268,1,121.499996292114,2|0,0:3|0:0,0:0:0:0:
260,364,4873,2,0,P|268:305|231:259,1,121.499996292114,0|0,0:0|0:0,0:0:0:0:
56,180,5576,5,0,0:0:0:0:
88,92,5810,1,0,0:0:0:0:
140,224,6045,5,2,3:0:0:0:
140,224,6201,2,0,L|204:212,1,53.9999983520508,0|0,3:0|3:0,0:0:0:0:
240,280,6513,5,2,3:0:0:0:
240,280,6669,2,0,L|304:268,1,53.9999983520508,0|0,3:0|3:0,0:0:0:0:
368,299,6982,6,0,P|397:229|344:173,1,161.999995056153,0|0,3:0|0:0,0:0:0:0:
252,180,7685,1,0,0:0:0:0:
340,76,7920,6,0,L|428:90,1,90,8|0,0:1|0:0,0:0:0:0:
384,196,8388,2,0,L|397:285,1,90,8|0,0:1|0:0,0:0:0:0:
283,274,8857,2,0,L|202:314,1,90,8|0,0:1|0:0,0:0:0:0:
176,202,9326,1,8,0:1:0:0:
48,256,9560,5,8,0:1:0:0:
48,256,9677,1,8,0:1:0:0:
48,256,9795,1,8,0:1:0:0:
60,152,10029,1,8,0:1:0:0:
140,292,10263,1,8,0:1:0:0:
152,188,10497,1,8,0:1:0:0:
232,328,10732,1,8,0:1:0:0:
244,224,10966,1,8,0:1:0:0:
324,364,11201,1,8,0:1:0:0:
336,260,11435,5,8,0:1:0:0:
336,260,11552,1,8,0:1:0:0:
336,260,11670,2,0,L|328:212,3,45,8|0|0|0,3:1|3:2|3:2|3:2,0:0:0:0:
400,184,12138,2,0,L|408:136,3,45,0|0|0|0,3:2|3:2|3:2|3:2,0:0:0:0:
336,108,12607,6,0,L|332:84,6,22.5,0|0|0|0|0|0|0,3:0|3:0|3:0|3:0|3:0|3:0|3:0,0:0:0:0:
280,160,13076,2,0,L|283:182,6,22.5,0|0|0|0|0|0|0,3:0|3:0|3:0|3:0|3:0|3:0|3:0,0:0:0:0:
232,100,13545,5,2,3:0:0:0:
232,100,13701,2,0,L|148:128,1,60,2|2,3:0|3:0,0:0:0:0:
104,143,14013,5,2,3:0:0:0:
168,236,14248,1,2,3:0:0:0:
264,180,14482,6,0,L|353:193,1,90,8|0,0:3|0:0,0:0:0:0:
376,124,14834,2,0,L|465:137,1,90,0|0,0:0|0:0,0:0:0:0:
508,196,15185,1,0,0:0:0:0:
384,280,15420,6,0,P|380:324|400:363,1,90,6|2,1:2|0:2,0:0:0:0:
280,383,15888,2,0,P|283:338|263:299,1,90,10|2,1:2|0:2,0:0:0:0:
152,252,16357,1,2,1:2:0:0:
256,192,16591,1,2,0:2:0:0:
256,192,16709,1,2,0:2:0:0:
256,192,16826,2,0,L|356:212,1,90,8|0,1:2|0:0,0:0:0:0:
128,136,17295,6,0,L|39:153,1,90,0|2,1:0|0:2,0:0:0:0:
16,36,17763,2,0,L|104:18,1,90,10|2,1:2|0:2,0:0:0:0:
220,56,18232,1,2,1:2:0:0:
128,136,18466,1,2,0:2:0:0:
128,136,18584,1,2,0:2:0:0:
128,136,18701,2,0,P|120:184|148:224,1,90,8|0,1:2|0:0,0:0:0:0:
320,148,19170,6,0,L|308:43,1,90,0|2,1:0|0:2,0:0:0:0:
429,48,19638,2,0,L|440:152,1,90,10|2,1:2|0:2,0:0:0:0:
364,232,20107,1,2,1:2:0:0:
476,276,20341,1,2,0:2:0:0:
476,276,20459,1,2,0:2:0:0:
476,276,20576,2,0,L|464:380,1,90,8|0,1:2|0:0,0:0:0:0:
284,288,21045,6,0,L|268:180,1,90,0|0,1:2|0:0,0:0:0:0:
152,172,21513,2,0,L|178:350,1,180,8|0,1:2|1:0,0:0:0:0:
284,288,22216,5,8,0:2:0:0:
48,236,22451,1,8,1:2:0:0:
48,236,22685,1,0,0:0:0:0:
152,172,22920,6,0,P|195:181|240:186,1,90,4|2,1:2|0:2,0:0:0:0:
260,308,23388,2,0,P|304:298|348:293,1,90,10|2,1:2|0:2,0:0:0:0:
432,204,23857,1,2,1:2:0:0:
312,176,24091,1,2,0:2:0:0:
312,176,24209,1,2,0:2:0:0:
312,176,24326,2,0,P|300:120|324:76,1,90,8|0,1:2|0:0,0:0:0:0:
120,24,24795,6,0,L|134:112,1,90,0|2,1:0|0:2,0:0:0:0:
16,128,25263,2,0,L|1:216,1,90,10|2,1:2|0:2,0:0:0:0:
92,296,25732,1,2,1:2:0:0:
168,208,25966,1,2,0:2:0:0:
168,208,26084,1,2,0:2:0:0:
168,208,26201,2,0,P|210:223|253:235,1,90,8|0,1:2|0:0,0:0:0:0:
424,108,26670,6,0,P|381:123|338:135,1,90,0|2,1:0|0:2,0:0:0:0:
296,24,27138,2,0,P|252:36|210:51,1,90,10|2,1:2|0:2,0:0:0:0:
108,116,27607,1,2,1:2:0:0:
208,184,27841,1,2,0:2:0:0:
208,184,27959,1,2,0:2:0:0:
208,184,28076,2,0,L|196:288,1,90,8|0,1:2|0:0,0:0:0:0:
376,360,28545,5,2,3:0:0:0:
376,360,28701,2,0,L|364:276,1,60,2|2,3:0|3:0,0:0:0:0:
320,240,29013,5,2,3:0:0:0:
220,308,29248,1,2,3:0:0:0:
140,216,29482,5,2,3:0:0:0:
140,216,29638,2,0,L|152:132,1,60,8|8,3:0|3:0,0:0:0:0:
160,79,29951,6,0,P|245:70|293:141,1,180,4|4,1:2|1:3,0:0:0:0:
232,216,30654,5,2,0:0:0:0:
327,231,30888,1,10,0:0:0:0:
265,305,31123,1,2,0:0:0:0:
167,287,31357,2,0,P|130:272|91:262,1,80.9999975280763,2|0,0:0|1:0,0:0:0:0:
68,236,31709,2,0,P|100:211|128:182,1,80.9999975280763,2|0,0:0|0:0,0:0:0:0:
148,152,32060,1,2,0:0:0:0:
268,248,32295,6,0,L|344:221,1,80.9999975280763,4|2,1:3|0:0,0:0:0:0:
376,132,32763,1,10,0:0:0:0:
376,132,32880,1,2,0:0:0:0:
376,132,32998,1,2,0:0:0:0:
276,136,33232,2,0,L|199:109,1,80.9999975280763,2|2,0:0|1:2,0:0:0:0:
116,56,33701,1,10,0:0:0:0:
111,155,33935,1,2,0:0:0:0:
204,12,34170,5,4,1:3:0:0:
287,65,34404,1,2,0:2:0:0:
287,65,34521,1,2,0:2:0:0:
287,65,34638,1,10,0:2:0:0:
282,163,34873,1,2,0:2:0:0:
193,207,35107,2,0,P|154:197|114:192,1,80.9999975280763,2|2,0:2|1:2,0:0:0:0:
92,220,35459,2,0,P|102:258|118:296,1,80.9999975280763,2|0,0:2|0:0,0:0:0:0:
144,320,35810,1,2,0:2:0:0:
280,252,36045,5,2,3:0:0:0:
280,252,36201,2,0,L|360:268,1,60,2|2,3:0|3:0,0:0:0:0:
360,188,36513,5,2,3:0:0:0:
360,188,36669,2,0,L|440:204,1,60,2|2,3:0|3:0,0:0:0:0:
483,243,36982,6,0,P|519:189|499:127,1,135,2|8,3:0|0:1,0:0:0:0:
464,112,37451,1,0,1:1:0:0:
504,8,37685,1,8,0:1:0:0:
352,112,37920,5,4,1:2:0:0:
432,200,38154,1,2,0:2:0:0:
432,200,38271,1,2,0:2:0:0:
432,199,38388,2,0,P|412:240|414:284,1,90,10|0,0:2|0:0,0:0:0:0:
304,343,38857,2,0,P|305:299|286:259,1,90,2|0,0:2|1:0,0:0:0:0:
284,228,39209,2,0,P|242:212|198:218,1,90,2|0,0:2|0:0,0:0:0:0:
167,211,39560,2,0,P|139:245|131:289,1,90,2|0,0:2|0:0,0:0:0:0:
28,168,40029,5,2,0:2:0:0:
28,168,40146,1,2,0:2:0:0:
28,168,40263,2,0,P|55:133|63:89,1,90,6|2,1:2|0:2,0:0:0:0:
44,64,40615,1,2,0:2:0:0:
176,120,40849,2,0,L|284:88,1,90,2|2,0:2|0:2,0:0:0:0:
288,112,41201,1,10,0:2:0:0:
276,236,41435,1,2,0:2:0:0:
136,200,41670,6,0,P|50:209|16:288,1,180,4|8,1:3|0:0,0:0:0:0:
88,380,42373,1,2,0:2:0:0:
88,380,42490,1,0,0:0:0:0:
88,379,42607,2,0,P|130:364|174:356,1,90,2|2,0:2|1:2,0:0:0:0:
224,260,43076,1,10,0:2:0:0:
120,240,43310,5,2,0:2:0:0:
120,240,43427,1,2,0:2:0:0:
120,240,43545,2,0,P|75:231|33:217,1,90,8|0,1:0|1:0,0:0:0:0:
56,112,44013,1,8,1:0:0:0:
56,112,44131,2,0,P|101:121|143:135,1,90,0|8,1:0|0:1,0:0:0:0:
192,192,44482,1,0,1:0:0:0:
192,192,44600,2,0,P|237:183|279:169,1,90,8|8,0:1|0:1,0:0:0:0:
324,112,44951,1,8,0:1:0:0:
460,172,45185,5,0,1:0:0:0:
460,172,45302,1,0,1:0:0:0:
459,172,45420,2,0,P|450:206|446:242,1,72,6|0,1:2|0:0,0:0:0:0:
489,323,45888,1,2,0:2:0:0:
408,363,46123,2,0,P|339:367|298:311,1,144,2|2,0:2|0:2,0:0:0:0:
336,228,46826,1,2,0:2:0:0:
256,184,47060,6,0,L|176:204,1,72,2|0,0:2|1:0,0:0:0:0:
128,132,47529,1,2,0:2:0:0:
128,132,47763,2,0,L|272:100,1,144,2|8,0:2|0:0,0:0:0:0:
268,100,48701,5,2,0:2:0:0:
356,124,48935,2,0,P|375:190|331:244,1,144,2|2,0:2|0:2,0:0:0:0:
240,240,49638,2,0,L|224:169,1,72,2|2,0:2|0:2,0:0:0:0:
136,144,50107,1,10,0:2:0:0:
136,144,50341,2,0,L|120:214,1,72,2|2,0:2|0:2,0:0:0:0:
88,300,50810,6,0,P|145:339|209:314,1,144,2|2,0:2|0:2,0:0:0:0:
240,228,51513,1,2,0:2:0:0:
272,144,51748,2,0,P|201:68|101:92,1,216,2|0,0:3|0:0,0:0:0:0:
36,156,52685,1,0,0:0:0:0:
144,200,52920,6,0,P|177:248|160:304,1,121.499996292114,4|8,1:2|0:1,0:0:0:0:
128,324,53388,1,0,1:0:0:0:
228,384,53623,2,0,L|305:360,1,80.9999975280763,8|0,0:1|1:0,0:0:0:0:
256,256,54091,1,0,0:0:0:0:
256,256,54209,1,8,0:1:0:0:
256,256,54326,2,0,L|178:232,1,80.9999975280763,0|8,1:0|0:1,0:0:0:0:
120,128,54795,6,0,P|156:88|240:108,1,121.499996292114,0|8,1:0|0:1,0:0:0:0:
240,120,55263,1,0,1:0:0:0:
276,16,55498,1,8,0:1:0:0:
328,176,55732,2,0,P|367:186|407:191,1,80.9999975280763,0|0,1:0|0:0,0:0:0:0:
407,191,56084,1,8,0:1:0:0:
407,191,56201,1,0,1:0:0:0:
374,75,56435,1,8,0:1:0:0:
356,280,56670,5,8,0:1:0:0:
328,176,56904,1,8,0:1:0:0:
268,308,57138,1,8,0:1:0:0:
240,204,57372,1,8,0:1:0:0:
180,336,57607,1,8,0:1:0:0:
152,232,57841,1,8,0:1:0:0:
92,364,58076,1,8,0:1:0:0:
64,260,58310,5,8,0:1:0:0:
64,260,58427,1,8,0:1:0:0:
64,260,58545,2,0,L|67:215,3,45,8|0|0|0,3:1|3:0|3:0|3:0,0:0:0:0:
128,168,59013,2,0,L|131:123,3,45,0|0|0|0,3:0|3:0|3:0|3:0,0:0:0:0:
192,76,59482,6,0,L|194:44,6,22.5,0|0|0|0|0|0|0,3:0|3:0|3:0|3:0|3:0|3:0|3:0,0:0:0:0:
248,128,59951,2,0,L|245:159,6,22.5,0|0|0|0|0|0|0,3:0|3:0|3:0|3:0|3:0|3:0|3:0,0:0:0:0:
312,84,60420,1,0,3:0:0:0:
256,192,60537,12,8,61357,0:3:0:0:
256,192,61826,5,8,3:1:0:0:
296,104,62060,1,8,3:0:0:0:
344,264,62295,5,4,1:2:0:0:
344,264,62412,1,2,0:2:0:0:
344,264,62529,2,0,P|412:248|448:232,1,99.0000030212403,2|8,0:2|1:2,0:0:0:0:
472,128,62998,1,2,0:2:0:0:
283,69,63233,1,2,1:2:0:0:
394,44,63467,1,2,0:2:0:0:
249,177,63701,2,0,P|200:167|154:149,1,99.0000030212403,10|0,1:2|0:0,0:0:0:0:
188,340,64170,5,0,1:0:0:0:
188,340,64287,1,2,0:2:0:0:
188,340,64404,2,0,P|234:322|282:312,1,99.0000030212403,2|8,0:2|1:2,0:0:0:0:
384,360,64873,1,2,0:2:0:0:
324,176,65108,1,2,1:2:0:0:
425,223,65342,1,2,0:2:0:0:
282,312,65576,1,10,1:2:0:0:
383,360,65810,2,0,P|432:351|479:334,1,99.0000030212403,2|0,0:2|1:0,0:0:0:0:
440,128,66279,5,2,0:2:0:0:
428,240,66513,1,10,1:2:0:0:
340,116,66748,1,2,0:2:0:0:
328,228,66982,2,0,P|340:288|348:344,1,99.0000030212403,2|2,1:2|0:2,0:0:0:0:
252,384,67451,1,10,1:2:0:0:
208,224,67685,6,0,L|110:241,1,99.0000030212403,2|0,0:2|1:0,0:0:0:0:
88,128,68154,2,0,L|185:110,1,99.0000030212403,2|8,0:2|1:2,0:0:0:0:
295,147,68623,1,2,0:2:0:0:
208,224,68858,1,2,1:2:0:0:
272,34,69091,5,10,0:2:0:0:
318,260,69326,1,10,1:2:0:0:
404,184,69560,1,2,0:2:0:0:
295,147,69795,5,4,1:2:0:0:
295,147,69912,1,2,0:2:0:0:
295,147,70029,2,0,P|248:163|199:172,1,99.0000030212403,2|8,0:2|1:2,0:0:0:0:
96,124,70498,1,2,0:2:0:0:
11,302,70733,1,2,1:2:0:0:
2,189,70966,1,2,0:2:0:0:
114,349,71201,2,0,P|161:337|211:332,1,99.0000030212403,10|2,1:2|0:2,0:0:0:0:
193,141,71670,5,2,1:2:0:0:
193,141,71787,1,2,0:2:0:0:
193,141,71904,2,0,P|143:135|95:123,1,99.0000030212403,2|8,0:2|1:2,0:0:0:0:
128,16,72373,1,2,0:2:0:0:
260,213,72607,1,2,1:2:0:0:
292,88,72841,1,2,0:2:0:0:
105,156,73076,2,0,P|57:171|9:179,1,99.0000030212403,10|2,1:2|0:2,0:0:0:0:
152,320,73545,5,0,1:0:0:0:
152,320,73662,1,2,0:2:0:0:
152,320,73779,2,0,L|248:300,1,99.0000030212403,2|0,0:2|1:0,0:0:0:0:
244,164,74248,2,0,L|147:144,1,99.0000030212403,0|0,0:2|1:0,0:0:0:0:
44,102,74716,1,2,0:2:0:0:
105,250,74950,1,10,1:2:0:0:
1,207,75185,1,2,0:2:0:0:
148,144,75420,6,0,P|195:132|238:155,1,99.0000030212403,2|0,0:2|0:0,0:0:0:0:
313,138,75771,1,8,0:0:0:0:
313,138,75888,2,0,P|339:178|331:226,1,99.0000030212403,2|0,0:2|0:0,0:0:0:0:
372,294,76240,1,8,0:0:0:0:
373,294,76357,2,0,P|342:331|294:338,1,99.0000030212403,2|0,0:2|0:0,0:0:0:0:
124,240,76826,2,0,P|154:203|202:195,1,99.0000030212403,14|0,1:2|0:0,0:0:0:0:
319,36,77295,6,0,P|368:47|417:54,1,99.0000030212403,4|0,1:2|0:0,0:0:0:0:
400,200,77763,2,0,P|351:188|302:181,1,99.0000030212403,10|0,1:2|0:0,0:0:0:0:
240,276,78232,1,2,1:2:0:0:
192,124,78466,1,0,0:0:0:0:
192,124,78584,1,2,0:2:0:0:
192,124,78701,2,0,L|212:20,1,99.0000030212403,8|2,1:2|0:2,0:0:0:0:
52,152,79170,6,0,P|64:199|70:248,1,99.0000030212403,0|0,1:0|0:0,0:0:0:0:
210,220,79638,2,0,P|197:173|192:124,1,99.0000030212403,10|0,1:2|0:0,0:0:0:0:
284,60,80107,1,2,1:2:0:0:
128,28,80341,1,0,0:0:0:0:
128,28,80459,1,2,0:2:0:0:
128,28,80576,2,0,L|24:56,1,99.0000030212403,8|2,1:2|0:2,0:0:0:0:
132,232,81045,6,0,P|181:236|225:258,1,99.0000030212403,0|0,1:0|0:0,0:0:0:0:
271,124,81513,2,0,P|221:119|177:97,1,99.0000030212403,10|0,1:2|0:0,0:0:0:0:
116,4,81982,1,2,1:2:0:0:
84,160,82216,1,0,0:0:0:0:
84,160,82334,1,2,0:2:0:0:
84,160,82451,2,0,L|108:276,1,99.0000030212403,8|2,1:2|0:2,0:0:0:0:
271,124,82920,1,0,1:0:0:0:
163,88,83154,5,2,0:2:0:0:
248,12,83388,1,10,1:2:0:0:
356,47,83623,1,2,0:2:0:0:
271,124,83857,6,0,P|259:170|281:214,1,99.0000030212403,2|0,1:2|0:0,0:0:0:0:
356,220,84209,2,0,P|377:263|365:310,1,99.0000030212403,2|2,0:2|0:2,0:0:0:0:
310,360,84560,1,2,0:2:0:0:
148,240,84795,6,0,L|51:262,1,99.0000030212403,6|0,1:2|0:0,0:0:0:0:
20,124,85263,2,0,L|116:101,1,99.0000030212403,10|0,1:2|0:0,0:0:0:0:
216,156,85732,1,2,1:2:0:0:
284,12,85966,1,0,0:0:0:0:
284,12,86084,1,2,0:2:0:0:
284,12,86201,2,0,L|380:35,1,99.0000030212403,8|2,1:2|0:2,0:0:0:0:
355,248,86670,6,0,P|358:199|334:156,1,99.0000030212403,0|0,1:2|0:0,0:0:0:0:
196,192,87138,2,0,P|193:240|217:283,1,99.0000030212403,10|0,1:2|0:0,0:0:0:0:
320,336,87607,1,2,1:2:0:0:
164,372,87841,1,0,0:0:0:0:
164,372,87959,1,2,0:2:0:0:
164,372,88076,2,0,L|52:356,1,99.0000030212403,8|2,1:2|0:2,0:0:0:0:
196,192,88545,6,0,P|244:187|285:159,1,99.0000030212403,0|0,1:0|0:0,0:0:0:0:
240,24,89013,2,0,P|191:28|150:56,1,99.0000030212403,10|0,1:2|0:0,0:0:0:0:
44,16,89482,1,2,1:2:0:0:
108,164,89716,1,0,0:0:0:0:
108,164,89834,1,2,0:2:0:0:
108,164,89951,2,0,L|92:264,1,99.0000030212403,8|2,1:2|0:2,0:0:0:0:
296,188,90420,6,0,L|255:105|255:105|345:114|345:114|412:53|412:53|428:142|428:142|507:185|507:185|428:232|428:232|412:320|412:320|346:259|346:259|278:266,1,792.000024169923
